<?xml version="1.0" standalone="no"?>
<!DOCTYPE svg PUBLIC "-//W3C//DTD SVG 1.1//EN" "http://www.w3.org/Graphics/SVG/1.1/DTD/svg11.dtd" >
<svg xmlns="http://www.w3.org/2000/svg">
<metadata></metadata>
<defs>
<font id="yanone_kaffeesatzregular" horiz-adv-x="856" >
<font-face units-per-em="2048" ascent="1638" descent="-410" />
<missing-glyph horiz-adv-x="323" />
<glyph unicode="&#xfb01;" horiz-adv-x="823" d="M20 885q0 99 5.5 119t37.5 20h99v125q0 93 22.5 161.5t56 107t85.5 60.5t98 28.5t106 6.5q236 0 236 -100q0 -53 -18 -96q-89 47 -211 47q-39 0 -66 -3.5t-56 -16t-46.5 -35t-29 -62.5t-11.5 -96v-127h143q0 -52 -1 -77.5t-5 -40.5t-10 -18t-19 -3h-108v-852 q0 -4 -1 -9.5t-9.5 -14.5t-24.5 -9h-131v885h-142zM563 0v948q0 54 29.5 65t138.5 11v-991q0 -25 -21 -29t-147 -4z" />
<glyph unicode="&#xfb02;" horiz-adv-x="843" d="M20 885q0 99 5.5 119t37.5 20h99v125q0 93 22 161.5t54 106t78 60t84 28.5t83 6q153 0 267 -69v-1409q0 -4 -1 -9.5t-9.5 -14.5t-24.5 -9h-129v1362q-43 14 -92 14q-32 0 -56.5 -6t-52.5 -24.5t-43.5 -62t-15.5 -109.5v-150h166q0 -98 -5 -118.5t-30 -20.5h-131v-852 q0 -4 -1 -9.5t-9 -14.5t-23 -9h-131v885h-142z" />
<glyph horiz-adv-x="0" />
<glyph horiz-adv-x="682" />
<glyph unicode="&#xd;" horiz-adv-x="323" />
<glyph unicode=" "  horiz-adv-x="323" />
<glyph unicode="&#x09;" horiz-adv-x="323" />
<glyph unicode="&#xa0;" horiz-adv-x="323" />
<glyph unicode="!" horiz-adv-x="399" d="M86 102q0 50 30.5 84.5t82.5 34.5q114 0 114 -119q0 -49 -31 -82.5t-83 -33.5q-60 0 -86.5 29.5t-26.5 86.5zM92 1399q0 33 38.5 40t186.5 7l-32 -932q-3 -52 -34 -65t-130 -13z" />
<glyph unicode="&#x22;" horiz-adv-x="538" d="M63 1556q0 42 7 46q13 8 65 8q60 0 90 -6q0 -87 -15.5 -241t-27.5 -163l-90 -6q-2 13 -8.5 75.5t-13.5 151t-7 135.5zM315 1556q0 44 4 46q13 8 68 8q60 0 90 -6q0 -85 -16.5 -240t-26.5 -164l-90 -6q-2 13 -8.5 75.5t-13.5 151t-7 135.5z" />
<glyph unicode="#" d="M57 389q0 102 9 118q6 13 24 13h88l10 217h-131q0 102 9 118q6 13 24 13h107l6 129q1 23 29.5 28t115.5 5l-8 -162h197l6 129q1 23 29.5 28t115.5 5l-8 -162h119q0 -101 -9 -118q-8 -13 -24 -13h-92l-12 -217h137q0 -101 -9 -118q-6 -13 -24 -13h-111l-8 -137 q-1 -23 -29.5 -28t-115.5 -5l8 170h-195l-8 -137q-1 -23 -29.5 -28t-115.5 -5l8 170h-113zM322 520h196l10 217h-194z" />
<glyph unicode="$" d="M109 76q0 18 13 64.5t30 68.5q77 -62 219 -62q190 0 190 177q0 57 -24 102.5t-88 114.5l-230 231q-110 116 -110 227q0 109 69 177.5t193 83.5v182q0 40 34.5 53.5t114.5 13.5v-247q44 -3 81.5 -9.5t60.5 -15t39.5 -17.5t23 -16.5t6.5 -13.5q0 -24 -10 -58t-31 -57 q-24 16 -80 29.5t-121 13.5q-198 0 -198 -117q0 -41 20.5 -77t67.5 -86l248 -248q61 -61 88.5 -124.5t27.5 -143.5q0 -282 -258 -328v-180q0 -39 -34 -51.5t-115 -12.5v236q-73 4 -127.5 20.5t-77 35t-22.5 34.5z" />
<glyph unicode="%" horiz-adv-x="1417" d="M92 1075q0 190 74.5 282.5t214.5 92.5q96 0 153.5 -32t88 -114.5t30.5 -226.5q0 -383 -284 -383q-58 0 -98.5 8.5t-76.5 32.5t-57 66.5t-33 110.5t-12 163zM238 47l827 1405q10 -3 25.5 -9.5t41 -25.5t25.5 -37q0 -11 -204.5 -360t-408.5 -692l-204 -344q-4 1 -11 3 t-24.5 8.5t-31 13.5t-24.5 17.5t-11 20.5zM250 1071q0 -102 15 -157.5t40 -73t68 -17.5q129 0 129 252q0 101 -14 155.5t-38.5 73.5t-68.5 19q-65 0 -98 -55.5t-33 -196.5zM762 362q0 190 75 282.5t216 92.5q95 0 152.5 -32t88.5 -114.5t31 -225.5q0 -383 -285 -383 q-74 0 -121.5 14.5t-85 54.5t-54.5 116t-17 195zM918 354q0 -102 15 -157t40 -73t69 -18q129 0 129 252q0 101 -13 155.5t-37.5 73.5t-69.5 19q-65 0 -99 -55.5t-34 -196.5z" />
<glyph unicode="&#x26;" horiz-adv-x="1028" d="M55 348q0 122 65 222t165 163q-160 279 -160 430q0 138 89 210.5t253 72.5q132 0 218.5 -29t86.5 -67q0 -30 -11.5 -65t-29.5 -56q-102 71 -246 71q-43 0 -73 -5.5t-57.5 -21t-41.5 -48.5t-14 -82q0 -104 121 -315t282 -416q17 85 17 184q0 272 -123 420q85 16 233 16 q86 0 160 -6q0 -1 1 -10.5t2 -23t1 -25.5q0 -38 -16.5 -56.5t-69.5 -17.5h-100q14 -26 19 -35.5t18 -42t18.5 -60.5t11 -76t5.5 -104q0 -174 -52 -313q114 -123 172 -149q-6 -49 -41.5 -91t-66.5 -42q-29 0 -150 131q-114 -131 -307 -131q-379 0 -379 368zM225 344 q0 -89 47 -149t152 -60q135 0 209 101q-145 176 -277 378q-131 -93 -131 -270z" />
<glyph unicode="'" horiz-adv-x="288" d="M63 1556q0 42 7 46q13 8 65 8q60 0 90 -6q0 -87 -15.5 -241t-27.5 -163l-90 -6q-2 13 -8.5 75.5t-13.5 151t-7 135.5z" />
<glyph unicode="(" horiz-adv-x="598" d="M133 655q0 140 17 269.5t43.5 226.5t60 180.5t67 139.5t64 96.5t51 59t27.5 18.5q40 0 60 -22.5t32 -82.5q-50 -67 -92 -148.5t-80.5 -190t-60 -249.5t-21.5 -297q0 -168 24.5 -326t64 -274.5t81.5 -200.5t84 -133q-12 -61 -31.5 -91.5t-58.5 -30.5q-9 0 -30 19.5t-52 62 t-64.5 102.5t-66.5 149t-59.5 192.5t-43 242t-16.5 288.5z" />
<glyph unicode=")" horiz-adv-x="598" d="M43 -279q46 60 87.5 141.5t80.5 196t62.5 269.5t23.5 327q0 289 -72 521t-182 364q14 60 33 82.5t59 22.5q7 0 27.5 -17.5t51 -57t64 -95t67 -138.5t60 -180t43.5 -228t17 -274q0 -195 -31 -374t-75 -298.5t-92.5 -209.5t-84 -132t-49.5 -42q-38 0 -58.5 31t-31.5 91z " />
<glyph unicode="*" horiz-adv-x="962" d="M33 1030q-1 60 28 98.5t62 38.5q12 0 18 -4l267 -166q6 -59 -33 -59q-11 0 -17 2zM135 614l248 252q17 17 31 17q22 0 45 -33l-180 -320q-15 -18 -33 -18q-27 0 -59 32.5t-52 69.5zM408 1366q-3 23 13.5 33t47.5 10q52 0 100 -23l-41 -323q-6 -37 -39 -37q-15 0 -36 6z M504 848q0 23 51 41l236 -277q10 -13 10 -22q0 -29 -43.5 -55t-87.5 -33l-160 325q-6 12 -6 21zM551 981q0 19 27 33l305 164q21 -18 34 -49.5t13 -61.5q0 -47 -31 -55l-326 -80q-22 27 -22 49z" />
<glyph unicode="+" d="M70 506q0 88 5 115.5t29 27.5h252v254q0 23 29 28t117 5v-287h284q0 -88 -4.5 -115.5t-27.5 -27.5h-252v-254q0 -23 -29 -28t-117 -5v287h-286z" />
<glyph unicode="," horiz-adv-x="374" d="M78 -164q33 55 44.5 91t14.5 83q-49 32 -49 101q0 46 29.5 76t75.5 30q110 0 110 -121q0 -53 -19.5 -111t-46.5 -99.5t-53.5 -69t-40.5 -27.5q-54 0 -65 47z" />
<glyph unicode="-" horiz-adv-x="569" d="M76 506q0 87 5.5 115t29.5 28h383q0 -87 -5 -115t-28 -28h-385z" />
<glyph unicode="." horiz-adv-x="374" d="M76 104q0 48 31 82.5t83 34.5q113 0 113 -117q0 -51 -30.5 -83.5t-82.5 -32.5q-62 0 -88 29t-26 87z" />
<glyph unicode="/" horiz-adv-x="684" d="M20 -41l461 1563q5 17 10 24.5t25.5 13t51 6.5t96.5 1l-461 -1567q-4 -16 -9 -23t-27 -12t-50.5 -5.5t-96.5 -0.5z" />
<glyph unicode="0" d="M59 606q0 311 89.5 467t283.5 156t279.5 -140t85.5 -434q0 -172 -18.5 -293.5t-62 -208.5t-116 -129t-178.5 -42q-84 0 -146 26t-103.5 75.5t-67 127t-36 173t-10.5 222.5zM238 594q0 -255 41.5 -359t146.5 -104t152 124.5t47 401.5q0 219 -41 322.5t-144 103.5 q-58 0 -98 -32.5t-62.5 -98.5t-32 -152t-9.5 -206z" />
<glyph unicode="1" d="M57 115q0 41 297 41l23 903q-30 -1 -88.5 -10t-102.5 -18l-43 -9q-24 40 -24 108q0 20 164 59.5t223 39.5q34 0 47 -10l-27 -1063h152l119 6q0 -96 -5 -129t-28 -33h-703q-4 66 -4 115z" />
<glyph unicode="2" d="M59 51q0 40 9.5 64t42.5 82q76 129 231 307q52 62 75.5 91t61.5 81.5t55.5 87t31.5 80t14 86.5q0 141 -158 141q-82 0 -166 -21t-135 -51q-21 50 -21 121q0 39 110 74t253 35q169 0 236 -68.5t67 -210.5q0 -46 -8.5 -89.5t-31 -90t-40.5 -80t-57.5 -85.5t-61 -78.5 t-71.5 -86.5q-140 -163 -217 -284h276q48 0 108.5 3.5t96.5 6.5l37 4q0 -101 -6 -135.5t-29 -34.5h-694q-9 24 -9 51z" />
<glyph unicode="3" d="M88 1118q0 43 99 77t255 34q150 0 217.5 -67.5t67.5 -174.5q0 -211 -225 -371q122 -11 197 -85.5t75 -219.5q0 -247 -128.5 -381.5t-334.5 -134.5q-108 0 -164.5 29t-56.5 72q0 21 3 41t5.5 30.5t8 28.5t6.5 22q71 -65 200 -65q132 0 207.5 98.5t75.5 255.5 q0 63 -26.5 107t-74.5 66t-102 31t-123 9l-4 105q130 63 201.5 145t71.5 168q0 133 -148 133q-162 0 -282 -74q-21 43 -21 121z" />
<glyph unicode="4" d="M57 414q0 51 72.5 216.5t177 342t178.5 239.5q37 29 74 29q57 0 88 -22v-797l152 6q8 -14 8 -49q0 -111 -55 -111h-105v-215q0 -40 -20.5 -46.5t-145.5 -6.5v268h-370q-54 54 -54 146zM201 422h280l25 592q-80 -92 -176.5 -275t-128.5 -317z" />
<glyph unicode="5" d="M70 -121q0 82 18 135q71 -65 201 -65q81 0 143 35t98 94.5t54 132t18 154.5q0 86 -22 144t-66 89t-98.5 43t-130.5 12q-79 0 -199 -26l59 602h627q0 -95 -14.5 -121.5t-71.5 -26.5l-399 9l-33 -310q77 11 131 11q393 0 393 -392q0 -284 -117.5 -444t-357.5 -160 q-76 0 -132 15.5t-78.5 34t-22.5 34.5z" />
<glyph unicode="6" d="M63 631q0 807 467 807q222 0 222 -70q0 -62 -17 -117q-88 31 -192 31q-301 0 -320 -530q91 147 281 147q138 0 217.5 -96.5t79.5 -300.5q0 -518 -387 -518q-67 0 -119 16t-88.5 42.5t-62.5 72.5t-42 95t-24.5 120.5t-11.5 139.5t-3 161zM221 582q-4 -236 44.5 -343.5 t154.5 -107.5q103 0 161 94.5t58 241.5q0 136 -47 208.5t-135 72.5q-135 0 -236 -154v-12z" />
<glyph unicode="7" d="M92 1229h737q-209 -403 -333.5 -742t-161.5 -667q-99 0 -134.5 8.5t-35.5 36.5q40 306 172.5 659.5t265.5 562.5q-152 -8 -465 -8q-45 0 -45 150z" />
<glyph unicode="8" d="M66 375q0 128 64.5 230.5t168.5 164.5q-92 63 -133 109q-86 80 -86 215q0 170 99.5 261t250.5 91q363 0 363 -332q0 -64 -18 -119.5t-52 -99t-69.5 -75.5t-82.5 -64q83 -66 111 -94q121 -124 121 -289q0 -170 -93 -279.5t-264 -109.5q-100 0 -174.5 30.5t-118.5 85 t-65.5 123.5t-21.5 152zM219 385q0 -113 58 -178.5t159 -65.5q94 0 149.5 63.5t55.5 170.5q0 77 -24 123.5t-68 87.5q-45 45 -119 96q-95 -49 -153 -125t-58 -172zM244 1104q0 -101 82 -168q31 -31 123 -94q192 122 192 266q0 91 -55.5 136.5t-134.5 45.5q-91 0 -149 -46.5 t-58 -139.5z" />
<glyph unicode="9" d="M57 733q0 261 97 387.5t290 126.5q74 0 127.5 -13.5t93 -47t64 -79.5t39.5 -122t21 -163.5t8 -213.5q-3 -421 -126.5 -621t-387.5 -200q-81 0 -132 16.5t-51 51.5q0 56 15 110q67 -20 149 -20q77 0 137 25.5t101 70t69 111.5t43 143.5t21 171.5q-49 -73 -115.5 -109 t-163.5 -36q-133 0 -216 108t-83 303zM219 754q0 -135 50 -208t137 -73q132 0 233 152v10q0 82 -3 141t-10.5 114.5t-21 92t-34.5 64.5t-52 40.5t-72 12.5q-108 0 -167.5 -87.5t-59.5 -258.5z" />
<glyph unicode=":" horiz-adv-x="374" d="M78 104q0 48 30 82.5t82 34.5q115 0 115 -117q0 -51 -31 -83.5t-84 -32.5q-61 0 -86.5 29t-25.5 87zM78 791q0 48 30 82t82 34q115 0 115 -116q0 -51 -31 -84t-84 -33q-61 0 -86.5 29.5t-25.5 87.5z" />
<glyph unicode=";" horiz-adv-x="374" d="M70 -164q32 54 43 89t16 85q-49 32 -49 101q0 46 29 76t75 30q111 0 111 -121q0 -53 -19.5 -111t-46.5 -99.5t-53.5 -69t-40.5 -27.5q-54 0 -65 47zM74 791q0 48 30 82t82 34q115 0 115 -116q0 -51 -31 -84t-84 -33q-61 0 -86.5 29.5t-25.5 87.5z" />
<glyph unicode="&#x3c;" horiz-adv-x="819" d="M80 528q0 64 53 90l541 263q57 -51 57 -109q0 -37 -29 -49l-407 -201l442 -196q-1 -52 -24 -90.5t-49 -38.5q-12 0 -56 14l-502 221q-26 47 -26 96z" />
<glyph unicode="=" d="M70 315q0 88 5 116t29 28h682q0 -109 -8 -128q-9 -15 -24 -16h-684zM70 694v8q0 84 5 111t29 27h682q0 -110 -9 -130q-8 -15 -23 -16h-684z" />
<glyph unicode="&#x3e;" horiz-adv-x="819" d="M88 733q3 51 26.5 89t49.5 38q20 0 55 -14l500 -221q26 -42 26 -97q0 -64 -53 -90l-540 -264q-54 54 -58 111q0 37 29 51l409 199z" />
<glyph unicode="?" horiz-adv-x="604" d="M39 1366q0 36 81 62t175 26q133 0 209 -73t76 -214q0 -63 -12 -118.5t-38.5 -105.5t-46 -79.5t-55.5 -77.5q-57 -72 -76 -110q-24 -41 -24 -96q0 -24 10 -82q7 -47 2 -54q-15 -20 -92 -20q-42 0 -58 2q-30 61 -30 145q0 79 39 148q28 53 90 145q41 59 59 88t36.5 79 t18.5 99q0 158 -167 158q-99 0 -173 -53q-24 74 -24 131zM154 104q0 48 30 82.5t82 34.5q115 0 115 -117q0 -51 -31 -83.5t-84 -32.5q-61 0 -86.5 29t-25.5 87z" />
<glyph unicode="@" horiz-adv-x="1511" d="M96 541q0 223 50.5 389.5t145.5 268t223.5 151t291.5 49.5q153 0 264.5 -35.5t190.5 -113t118 -205.5t39 -310q0 -139 -12.5 -251.5t-32 -187t-48.5 -130t-57.5 -86t-62.5 -48.5t-60 -23t-54 -5q-73 0 -127 47q-65 -49 -230 -49q-46 0 -80.5 6t-68 25.5t-54.5 52.5 t-34 89t-13 134q0 342 260 342q78 0 121 -22q4 80 4 133q0 62 -31 86t-94 24q-116 0 -204 -49q-17 38 -17 95q0 21 19 40q80 54 258 54q118 0 173 -53t52 -185l-10 -412q-3 -149 -10 -202q37 -13 67 -13q31 0 60 28.5t56 88t43.5 170.5t16.5 258q0 313 -96 436t-348 123 q-137 0 -234 -36t-168 -119.5t-105 -226.5t-34 -351q0 -132 11 -236t30.5 -182t52 -135t71 -94.5t91 -59.5t108.5 -31t128 -9q260 0 477 90q43 -64 43 -119q0 -30 -59.5 -60t-179 -50.5t-269.5 -20.5q-69 0 -123 4t-113.5 16.5t-105.5 34t-93 57.5t-81 85.5t-65 119.5 t-50 158t-30 202.5t-11 252.5zM643 303q0 -102 26.5 -139t84.5 -37q101 0 104 106l8 295q-49 7 -71 7q-74 0 -113 -51t-39 -181z" />
<glyph unicode="A" horiz-adv-x="894" d="M10 2l367 1409q6 29 61 29q48 0 78 -6l367 -1403q1 -3 1 -6q0 -14 -12 -21q-14 -8 -61 -8q-55 0 -98 4l-86 365h-357l-80 -336q-5 -19 -18 -26t-59 -7q-45 0 -103 6zM305 514h285l-70 295q-59 243 -71 395q-22 -179 -74 -395z" />
<glyph unicode="B" horiz-adv-x="772" d="M90 0v1395q0 20 11 29.5t42 9.5h203q344 0 344 -316q0 -81 -18 -145t-47 -102t-62 -59t-67 -26q32 -2 61 -9t63.5 -27.5t59 -51.5t41 -85.5t16.5 -125.5q0 -126 -31 -221.5t-85.5 -152.5t-123 -85t-149.5 -28h-258zM256 145h94q84 0 138.5 81.5t54.5 246.5q0 62 -10 106 t-25 68.5t-41.5 38t-51.5 17.5t-63 4h-96v-562zM256 848h102q70 0 111 59t41 178q0 203 -152 203h-102v-440z" />
<glyph unicode="C" horiz-adv-x="698" d="M61 657q0 146 13 264.5t35 200t54 142.5t66 97t76.5 57.5t79.5 28.5t80 7q103 0 147.5 -33.5t44.5 -79.5q0 -54 -26 -100q-64 51 -133 51q-36 0 -65 -9t-60.5 -32t-55 -68.5t-42.5 -112.5t-29 -169.5t-10 -234.5q0 -152 14.5 -254t43 -155.5t63 -74t83.5 -20.5 q57 0 109 19t82 46q24 -54 24 -100q0 -61 -71 -104t-183 -43q-46 0 -81 6t-71.5 24t-63.5 48.5t-51.5 81.5t-39.5 121.5t-24 170t-9 225.5z" />
<glyph unicode="D" horiz-adv-x="794" d="M90 0v1395q0 20 12 29.5t43 9.5h201q104 0 175.5 -30.5t123 -104t76 -198.5t24.5 -310q0 -178 -17.5 -313t-50 -225.5t-82.5 -147t-110.5 -81t-138.5 -24.5h-256zM256 158h94q29 0 52.5 9t48.5 32.5t43.5 70t33.5 116t23 176.5t8 245q0 186 -24 291.5t-68 144.5t-117 39 h-94v-1124z" />
<glyph unicode="E" horiz-adv-x="655" d="M92 0v1401q0 4 1 9.5t9 14.5t23 9h491v-12q0 -96 -4 -117t-26 -21h-330v-428h309q0 -102 -4 -126.5t-26 -24.5h-279v-555h352q0 -107 -4.5 -128.5t-28.5 -21.5h-483z" />
<glyph unicode="F" horiz-adv-x="641" d="M92 0v1401q0 4 1 9.5t9 14.5t23 9h491q0 -103 -3.5 -122.5t-26.5 -19.5h-330v-436h309q0 -102 -4 -126.5t-26 -24.5h-279v-672q0 -33 -31 -33h-133z" />
<glyph unicode="G" horiz-adv-x="790" d="M61 684q0 189 20.5 326t56 222t93 135t121.5 68.5t150 18.5q97 0 158 -31t61 -73q0 -48 -23 -107q-63 49 -163 49q-108 0 -171 -53t-94.5 -183.5t-31.5 -359.5q0 -144 10 -245.5t26.5 -161.5t44.5 -93.5t58 -44t74 -10.5q49 0 80.5 17t41.5 35v509h-153v105q0 33 39 33 h268v-768q-111 -92 -281 -92q-86 0 -145 18t-107.5 64t-76 126t-42 201.5t-14.5 294.5z" />
<glyph unicode="H" horiz-adv-x="839" d="M90 0v1401v1q0 24 20.5 28t145.5 4v-584h328v551v1q0 24 20.5 28t143.5 4v-1401v-1q0 -24 -20.5 -28t-143.5 -4v694h-328v-661v-1q0 -24 -20.5 -28t-145.5 -4z" />
<glyph unicode="I" horiz-adv-x="346" d="M90 0v1358q0 57 21.5 66.5t146.5 9.5v-1401q0 -25 -22 -29t-146 -4z" />
<glyph unicode="J" horiz-adv-x="614" d="M29 102q0 40 24 95q72 -68 170 -68q84 0 108.5 55.5t24.5 190.5v983q0 57 21 66.5t147 9.5v-1096q0 -64 -7.5 -115t-26.5 -97.5t-50 -77t-80.5 -48.5t-115.5 -18q-115 0 -165 34.5t-50 85.5z" />
<glyph unicode="K" horiz-adv-x="796" d="M86 0v1401q0 25 21 29t147 4v-617l328 606q63 13 104 13q74 0 74 -31q0 -7 -6 -19l-332 -571q247 -188 330 -778q2 -24 -12 -32.5t-56 -8.5q-54 0 -115 6q-48 261 -99 411.5t-134 237.5q-29 34 -82 56v-674q0 -25 -21 -29t-147 -4z" />
<glyph unicode="L" horiz-adv-x="643" d="M90 0v1386q0 35 21.5 41.5t144.5 6.5v-1278h352v-123q0 -19 -8.5 -26t-24.5 -7h-485z" />
<glyph unicode="M" horiz-adv-x="1001" d="M90 0v1401q0 15 5 22.5t11 9t17 1.5h119l196 -623l66 -227q36 145 59 221l182 596q4 12 6 17t9 10.5t18 5.5h133v-1401q0 -25 -21 -29t-147 -4l7 502q4 182 36 610q-94 -356 -133 -467l-108 -315q-6 -17 -23 -17h-71l-107 332q-30 93 -131 463l-2 -2q35 -381 41 -596 v-477q0 -24 -22 -28.5t-140 -4.5z" />
<glyph unicode="N" horiz-adv-x="909" d="M90 0v1401q0 33 33 33h125l231 -553q31 -78 197 -580v4q-9 79 -15 292.5t-6 320.5v483q0 25 21.5 29t144.5 4v-1401q0 -33 -35 -33h-122l-236 563q-59 154 -195 582q8 -88 14.5 -307.5t6.5 -307.5v-497q0 -25 -21 -29t-143 -4z" />
<glyph unicode="O" horiz-adv-x="878" d="M61 725q0 270 44 431.5t128.5 229.5t221.5 68q135 0 212 -66t113.5 -222.5t36.5 -434.5q0 -281 -41.5 -446t-124 -235t-219.5 -70q-138 0 -216 63t-116.5 225.5t-38.5 456.5zM248 684q0 -293 41 -413.5t149 -120.5q112 0 156.5 130.5t44.5 446.5q0 314 -39.5 435.5 t-148.5 121.5q-110 0 -156.5 -135t-46.5 -465z" />
<glyph unicode="P" horiz-adv-x="739" d="M90 0v1401q0 18 7 25.5t26 7.5h203q195 0 285.5 -96.5t90.5 -307.5q0 -123 -29.5 -212t-82 -139.5t-117.5 -73.5t-145 -23h-74v-549q0 -25 -21 -29t-143 -4zM254 735h90q90 0 133 73t43 241q0 116 -38 177.5t-126 61.5h-102v-553z" />
<glyph unicode="Q" horiz-adv-x="878" d="M61 725q0 270 44 431.5t128.5 229.5t221.5 68q135 0 212 -66t113.5 -222.5t36.5 -434.5q0 -334 -57 -505t-182 -222q13 -81 37.5 -114t70.5 -33q77 0 129 34q25 -39 25 -90q0 -31 -33.5 -50.5t-71.5 -25.5t-80 -6q-104 0 -167.5 62.5t-98.5 200.5q-120 8 -189.5 77 t-104 228.5t-34.5 437.5zM248 684q0 -293 41 -413.5t149 -120.5q112 0 156.5 130.5t44.5 446.5q0 314 -39.5 435.5t-148.5 121.5q-110 0 -156.5 -135t-46.5 -465z" />
<glyph unicode="R" horiz-adv-x="761" d="M90 0v1401q0 4 1 9.5t9 14.5t23 9h203q195 0 285.5 -96.5t90.5 -307.5q0 -302 -178 -401q41 -54 76 -122t71.5 -196t45.5 -274q0 -25 -14 -33t-70 -8q-22 0 -96 4q-8 122 -28.5 226t-47 173.5t-49 112t-45.5 72.5l-39 -2h-74v-549q0 -25 -21 -29t-143 -4zM254 735h90 q90 0 133 70.5t43 230.5q0 125 -37.5 188.5t-126.5 63.5h-102v-553z" />
<glyph unicode="S" horiz-adv-x="733" d="M51 100q0 64 43 119q79 -72 211 -72q203 0 203 209q0 73 -26.5 132.5t-94.5 138.5l-205 239q-70 84 -99.5 152.5t-29.5 142.5q0 132 93 212.5t260 80.5q138 0 203 -28t65 -74q0 -51 -41 -95q-22 19 -78.5 34.5t-122.5 15.5q-93 0 -147 -37.5t-54 -104.5q0 -53 22 -95.5 t73 -106.5l223 -252q78 -93 107.5 -170.5t29.5 -175.5q0 -82 -18.5 -149t-59.5 -121.5t-113.5 -84.5t-172.5 -30q-129 0 -200 37t-71 83z" />
<glyph unicode="T" horiz-adv-x="763" d="M16 1278v123q0 33 35 33h697v-121q0 -20 -8 -27.5t-27 -7.5h-252v-1245q0 -25 -21.5 -29t-144.5 -4v1278h-279z" />
<glyph unicode="U" horiz-adv-x="894" d="M90 420v979q0 26 21 30.5t149 4.5v-1020q0 -69 7 -115t27 -86.5t61 -60t104 -19.5q112 0 180 35v1231q0 26 21.5 30.5t146.5 4.5v-1381q-43 -28 -140 -50.5t-208 -22.5q-96 0 -165 24t-108 61.5t-61 98t-28.5 118t-6.5 138.5z" />
<glyph unicode="V" horiz-adv-x="860" d="M10 1411q0 12 8 17.5t31 5.5h135l172 -795q31 -162 70 -422q7 -47 12 -76q35 284 74 498l154 745q5 28 13 39t30 11h143l-315 -1440q-60 -8 -140 -8q-68 0 -98 118q-36 148 -107 468t-124 566l-54 246q-4 20 -4 27z" />
<glyph unicode="W" horiz-adv-x="1339" d="M10 1407q0 27 39 27h135l150 -797q31 -185 61 -457h11q10 210 53 457l127 678q5 28 12.5 38.5t30.5 10.5h71h45l146 -727q27 -135 53 -379q1 -12 4 -38t4 -40h13q21 273 51 457l133 747q3 27 11 38.5t30 11.5h141l-270 -1440q-95 -10 -137 -10q-65 0 -88 116l-107 465 q-26 140 -63 469q-31 -270 -60 -467l-112 -573q-68 -8 -152 -8q-57 0 -84 125q-31 152 -92 470t-106 561l-46 242q-4 16 -4 23z" />
<glyph unicode="X" horiz-adv-x="868" d="M18 0l314 741l-258 664q-6 18 7 22q19 7 187 7l84 -234q50 -134 101 -307q47 160 102 307l80 207q5 17 16 21q17 6 162 6l-264 -680l295 -727q2 -4 2 -13q0 -14 -21 -14h-180l-110 276q-60 154 -111 306q-58 -170 -115 -306l-110 -256q-13 -20 -37 -20h-144z" />
<glyph unicode="Y" horiz-adv-x="745" d="M12 1407q-2 5 -2 9q0 9 8 12q17 6 181 6l82 -281q30 -97 63.5 -240.5t38.5 -189.5q5 45 39.5 189.5t64.5 240.5l72 250q6 23 28.5 27t149.5 4l-276 -844v-557v-1q0 -24 -20.5 -28t-145.5 -4v582z" />
<glyph unicode="Z" horiz-adv-x="788" d="M39 63q0 38 16 74l492 1149h-383q-64 0 -88 -6v119q0 16 9 25.5t26 9.5h610q16 -22 16 -54q0 -35 -16 -75l-500 -1158h397q81 0 121 17v-131q0 -33 -32 -33h-641q-27 23 -27 63z" />
<glyph unicode="[" horiz-adv-x="790" d="M250 -408v2038q0 24 6 33t31.5 13.5t89.5 4.5h395q0 -103 -8 -127t-47 -24h-301v-1782h354q0 -79 -5 -110t-14 -38.5t-36 -7.5h-465z" />
<glyph unicode="\" horiz-adv-x="673" d="M20 1540q0 18 30 22.5t136 4.5l463 -1587q4 -12 4 -17q0 -18 -28 -21t-140 -3l-460 1583q-5 15 -5 18z" />
<glyph unicode="]" horiz-adv-x="790" d="M18 -410q0 102 8.5 127t47.5 25h301v1786h-355q0 78 5 109.5t14.5 38.5t36.5 7h465v-2041q0 -25 -6 -33.5t-32 -13.5t-89 -5h-396z" />
<glyph unicode="^" horiz-adv-x="880" d="M98 510l353 305l299 -262q28 -22 28 -53q0 -29 -23 -51t-57 -27l-264 180l-209 -156q-34 -20 -51 -20q-33 0 -53.5 25.5t-22.5 58.5z" />
<glyph unicode="_" horiz-adv-x="772" d="M29 -223q0 109 8 129q7 16 24 16h684v-8q0 -82 -5 -109.5t-29 -27.5h-682z" />
<glyph unicode="`" horiz-adv-x="550" d="M100 1341q7 44 28 84.5t48 40.5q8 0 56 -36.5t112.5 -95.5t106.5 -109q-1 -4 -3 -10t-8.5 -22t-13.5 -28t-17.5 -22t-21.5 -10q-56 31 -159.5 105.5t-127.5 102.5z" />
<glyph unicode="a" horiz-adv-x="724" d="M59 291q0 69 10.5 123.5t30.5 90.5t44.5 60.5t57 37.5t63.5 18.5t69 5.5q94 0 149 -27v162q0 70 -31 96.5t-96 26.5q-75 0 -150 -13.5t-122 -33.5q-23 45 -23 96q0 41 23 55q30 20 118 37.5t195 17.5q133 0 192.5 -56.5t59.5 -192.5v-109q0 -450 -12 -637 q-112 -69 -295 -69q-49 0 -85.5 5.5t-76 24.5t-64.5 52t-41 91t-16 138zM231 295q0 -106 34 -141t104 -35q32 0 62.5 10t45.5 23q6 70 6 331q-40 21 -96 21q-35 0 -60.5 -8t-48.5 -29t-35 -64t-12 -108z" />
<glyph unicode="b" horiz-adv-x="788" d="M98 41v1389q0 54 27.5 64.5t136.5 10.5v-532q91 71 219 71t190 -92t62 -311q0 -170 -26 -295.5t-64 -194t-94.5 -109t-105 -51.5t-107.5 -11q-164 0 -238 61zM262 154q33 -29 96 -29q26 0 49 9t50 40t46.5 81t32.5 140.5t13 210.5q0 160 -34.5 224.5t-108.5 64.5 q-87 0 -144 -57v-684z" />
<glyph unicode="c" horiz-adv-x="641" d="M63 489q0 102 12 185t31.5 140t48.5 99.5t59.5 67t69.5 39.5t72.5 19.5t73.5 4.5q73 0 122.5 -26.5t49.5 -65.5q0 -47 -18 -92q-72 39 -146 39q-32 0 -57.5 -7t-54.5 -32.5t-48 -68.5t-32 -120.5t-13 -183.5q0 -142 21 -222t59.5 -109t104.5 -29q98 0 164 47 q16 -59 16 -90q0 -42 -65 -73t-164 -31q-63 0 -108 11.5t-84.5 43.5t-63 88t-37 147t-13.5 219z" />
<glyph unicode="d" horiz-adv-x="780" d="M63 475q0 289 87 429t227 140q95 0 147 -40v426q0 54 28 64.5t138 10.5v-1464q-129 -61 -295 -61q-60 0 -103.5 8.5t-89.5 38t-74 82t-46.5 145t-18.5 221.5zM246 494q0 -91 7 -156.5t19.5 -106t32.5 -64t42.5 -32t53.5 -8.5q79 0 123 31v716q-36 27 -94 27 q-184 0 -184 -407z" />
<glyph unicode="e" horiz-adv-x="739" d="M61 459q0 148 21 257t54 170.5t83 98.5t97 48t108 11q260 0 260 -327q0 -164 -22 -266q-165 -33 -431 -33q6 -160 50.5 -219.5t142.5 -59.5q120 0 233 66q15 -49 15 -113q0 -47 -83.5 -79.5t-199.5 -32.5q-61 0 -107.5 11t-89.5 42.5t-70.5 83.5t-44 138.5t-16.5 203.5z M231 551q29 -1 56 -1q146 0 227 23q10 46 10 123q-2 114 -26.5 158.5t-91.5 44.5q-35 0 -62.5 -15.5t-52 -53t-40 -108t-20.5 -171.5z" />
<glyph unicode="f" horiz-adv-x="520" d="M27 885q0 99 5.5 119t35.5 20h100v125q0 91 21 158.5t53.5 106t80 61.5t91 30.5t96.5 7.5q92 0 141 -22t49 -61q0 -48 -18 -91q-61 25 -145 25q-36 0 -62.5 -4t-55 -16.5t-46.5 -34t-29.5 -59t-11.5 -89.5v-137h184q0 -98 -5 -118.5t-30 -20.5h-149v-852q0 -5 -1.5 -11 t-10 -14t-23.5 -8h-129v885h-141z" />
<glyph unicode="g" horiz-adv-x="806" d="M47 -180q0 71 43 136t113 112q-125 37 -125 108q0 87 129 189q-127 80 -127 305q0 195 91 284.5t251 89.5q51 0 98 -16h248q16 -28 16 -78q0 -63 -57 -63q-29 0 -74 10q78 -75 78 -223q0 -359 -332 -359q-49 0 -92 9q-55 -55 -55 -91q0 -21 43 -32.5t140 -24.5 q11 -1 16 -2q7 -1 22.5 -3t22.5 -3q135 -21 203.5 -73t68.5 -165q0 -142 -100 -237.5t-293 -95.5q-328 0 -328 223zM217 -141q0 -55 36.5 -83t135.5 -28q102 0 156.5 49t54.5 111q0 68 -48 95t-183 36l-39 4q-49 -36 -81 -85.5t-32 -98.5zM254 674q0 -119 32 -175.5 t124 -56.5q80 0 117.5 67.5t37.5 203.5q0 112 -37 161.5t-112 49.5q-73 0 -117.5 -60.5t-44.5 -189.5z" />
<glyph unicode="h" horiz-adv-x="778" d="M92 0v1430q0 54 27.5 64.5t136.5 10.5v-540q90 79 231 79q126 0 169.5 -64.5t43.5 -205.5v-741q0 -24 -23 -28.5t-145 -4.5v729q0 78 -25 120t-95 42q-90 0 -156 -55v-803q0 -25 -20.5 -29t-143.5 -4z" />
<glyph unicode="i" horiz-adv-x="358" d="M90 1290q0 59 24 93t70 34q47 0 65.5 -26t18.5 -88q0 -136 -94 -136q-84 0 -84 123zM96 0v948q0 54 29 65t137 11v-991q0 -25 -21 -29t-145 -4z" />
<glyph unicode="j" horiz-adv-x="376" d="M-211 -293q0 52 25 84q77 -41 174 -41q76 0 99.5 44t23.5 157v997q0 54 28 65t135 11v-1098q0 -73 -11 -128t-39 -102t-82.5 -72t-133.5 -25q-219 0 -219 108zM100 1294q2 58 25.5 90.5t69.5 32.5q47 0 65.5 -27t18.5 -92q-2 -62 -26 -96.5t-69 -34.5q-42 0 -63 29 t-21 98z" />
<glyph unicode="k" horiz-adv-x="770" d="M94 0v1430q0 54 28.5 64.5t137.5 10.5v-555q53 43 122.5 68.5t135.5 25.5q174 0 174 -176q0 -185 -172 -317q79 -35 135.5 -123.5t69.5 -222.5q2 -20 2 -68q0 -49 -6 -104q-3 -25 -26 -29t-160 -4q8 63 8 129q0 55 -11 123q-16 105 -58.5 159t-96.5 54q-17 0 -25 -2 q-16 -4 -39 -13.5t-38 -17.5l-15 -8v-391v-2q0 -23 -20.5 -27t-145.5 -4zM260 543q250 100 250 270q0 82 -76 82q-95 0 -174 -98v-254z" />
<glyph unicode="l" horiz-adv-x="354" d="M94 0v1430q0 54 28.5 64.5t137.5 10.5v-1472q0 -25 -21 -29t-145 -4z" />
<glyph unicode="m" horiz-adv-x="1155" d="M94 0v977q147 67 309 67q127 0 187 -63q52 29 120 46t130 17q75 0 122 -18t70.5 -58.5t31 -87.5t7.5 -124v-723q0 -24 -22.5 -28.5t-143.5 -4.5v758q0 79 -20 110t-80 31q-76 0 -139 -39v-250v-4v-573q0 -25 -20.5 -29t-143.5 -4v762q0 82 -17.5 110.5t-85.5 28.5 q-75 0 -139 -37v-831q0 -24 -22 -28.5t-144 -4.5z" />
<glyph unicode="n" horiz-adv-x="784" d="M92 0v975q64 28 156 48.5t170 20.5q160 0 223.5 -61.5t63.5 -212.5v-737q0 -25 -22.5 -29t-147.5 -4v721q0 102 -24.5 141t-98.5 39q-90 0 -154 -37v-831q0 -25 -22 -29t-144 -4z" />
<glyph unicode="o" horiz-adv-x="770" d="M55 512q0 532 342 532q84 0 140.5 -24t98 -83t60.5 -162.5t19 -258.5q0 -278 -85 -407t-253 -129q-68 0 -114.5 11t-88.5 43.5t-66.5 91t-38.5 154t-14 232.5zM236 508q0 -124 9 -203t29 -119t44 -53.5t63 -13.5q36 0 62.5 17.5t48 60.5t32.5 123t11 196q0 160 -17 246.5 t-46 114.5t-81 28q-50 0 -82 -31.5t-52.5 -121.5t-20.5 -244z" />
<glyph unicode="p" horiz-adv-x="782" d="M94 -332v1295q128 81 299 81q80 0 138.5 -20t104 -66.5t68.5 -131.5t23 -208q0 -115 -10 -208.5t-26 -159t-40.5 -114.5t-50 -78.5t-57.5 -47.5t-60.5 -24t-60.5 -6q-105 0 -162 57v-428q-40 -12 -86 -12q-44 0 -62 14.5t-18 56.5zM260 195q42 -68 111 -68q174 0 174 473 q0 120 -19 187t-52 90.5t-89 23.5q-70 0 -125 -39v-667z" />
<glyph unicode="q" horiz-adv-x="792" d="M61 446q0 164 32.5 283t91.5 186t132 98t164 31q130 0 219 -63v-1315q0 -47 -17 -58.5t-81 -13.5q-32 0 -67 7v469q-62 -90 -197 -90q-43 0 -78.5 9.5t-73.5 39.5t-64.5 79.5t-43.5 135.5t-17 202zM248 451q0 -82 9 -142.5t23 -95t35 -55t40.5 -27t43.5 -6.5 q43 0 79.5 26.5t56.5 77.5v643q-36 29 -95 29q-63 0 -104 -41.5t-64.5 -143t-23.5 -265.5z" />
<glyph unicode="r" horiz-adv-x="538" d="M92 0v952q132 92 279 92q143 0 143 -86q0 -51 -18 -96q-45 25 -99 25q-79 0 -137 -47v-807q0 -25 -21.5 -29t-146.5 -4z" />
<glyph unicode="s" horiz-adv-x="708" d="M61 82q0 49 31 96q83 -49 203 -49q80 0 124 32t44 93q0 90 -82 162l-199 170q-119 96 -119 217q0 111 85 176t251 65q74 0 127.5 -11.5t79.5 -30.5t37.5 -36.5t11.5 -35.5q0 -42 -34 -84q-89 55 -203 55q-74 0 -118 -26.5t-44 -73.5q0 -31 16.5 -59t65.5 -68l190 -154 q68 -65 95.5 -122.5t27.5 -133.5q0 -135 -91 -209.5t-249 -74.5q-113 0 -181.5 26.5t-68.5 75.5z" />
<glyph unicode="t" horiz-adv-x="598" d="M39 883q0 97 5.5 119t29.5 22h104v311q0 41 28.5 49.5t135.5 8.5v-369h213q0 -98 -5 -119.5t-30 -21.5h-178v-598q0 -41 1.5 -64t8.5 -49.5t23 -38.5t43 -12q48 0 119 31q12 -40 12 -82q0 -90 -176 -90q-51 0 -87 15t-57 39t-32.5 65t-15 83t-3.5 103v598h-139z" />
<glyph unicode="u" horiz-adv-x="796" d="M92 319v672v1q0 24 21 28t149 4v-719q0 -103 27.5 -142.5t111.5 -39.5t138 39v829q0 25 21.5 29t144.5 4v-971q-136 -73 -308 -73q-91 0 -150.5 20t-93.5 64.5t-47.5 104.5t-13.5 150z" />
<glyph unicode="v" horiz-adv-x="704" d="M35 995q0 21 30 25t148 4l66 -330q20 -95 40.5 -224.5t30.5 -211.5l10 -82h5q34 305 77 520l56 291q4 28 26.5 32.5t147.5 4.5l-236 -1030q-31 -6 -117 -6q-27 0 -43 25.5t-28 74.5l-209 885q-4 20 -4 22z" />
<glyph unicode="w" horiz-adv-x="1107" d="M33 989q-1 4 -1 7q0 20 22 24q26 4 157 4l63 -334q18 -102 36 -227t27 -199l9 -74h12q34 243 58 379l65 392q3 22 12.5 28t41.5 6h26h82l80 -430q16 -69 31.5 -163t23.5 -153l8 -59h11q21 249 65 500l51 297q4 27 26.5 32t137.5 5q-213 -1030 -221 -1030q-36 -6 -106 -6 q-25 0 -50.5 27.5t-35.5 78.5l-27 139q-48 222 -76 510q-35 -313 -76 -512l-47 -237q-84 -6 -137 -6q-50 0 -70 100q-26 112 -75.5 337.5t-85.5 394.5z" />
<glyph unicode="x" horiz-adv-x="841" d="M31 0l291 532l-250 465q-7 17 1 21q14 6 173 6l76 -141q60 -110 110 -234q95 203 113 236l63 110q9 22 32.5 25.5t150.5 3.5l-263 -479l273 -506q8 -13 8 -23q0 -11 -33 -13.5t-158 -2.5l-75 135q-41 76 -135 277q-76 -173 -129 -279l-60 -100q-10 -24 -38.5 -28.5 t-149.5 -4.5z" />
<glyph unicode="y" horiz-adv-x="731" d="M-8 -315q0 57 24 92q46 -31 129 -31q53 0 90.5 50t59.5 171l-246 1012q-4 16 -4 22q0 16 27.5 19.5t136.5 3.5l113 -492q15 -72 28.5 -162.5t19.5 -145.5l7 -54q20 199 49 365l92 442q6 35 29 41t149 6l-252 -1079q-45 -193 -108.5 -266.5t-177.5 -73.5q-166 0 -166 80z " />
<glyph unicode="z" horiz-adv-x="686" d="M43 82q0 38 14 61l400 742h-211q-110 0 -189 -11q-6 35 -6 78q0 38 12 55t41 17h523q16 -16 16 -51q0 -38 -18 -80l-389 -739h182q135 0 217 20q4 -16 4 -72t-13.5 -79t-52.5 -23h-503q-27 25 -27 82z" />
<glyph unicode="{" horiz-adv-x="567" d="M84 600q0 58 35 82q26 17 37 26t27 30.5t22 54t6 81.5q0 56 -14 224q-15 124 -15 184q0 123 85.5 181.5t232.5 60.5q32 -43 32 -103q0 -50 -30 -57q-152 -12 -152 -166q0 -14 10 -151q13 -147 13 -222q0 -94 -28 -140.5t-83 -70.5q56 -22 83.5 -64.5t27.5 -129.5 q0 -72 -13 -215q-10 -142 -10 -160q0 -58 10 -95.5t33 -59t51 -31t74 -15.5q4 -54 4 -61q0 -42 -15 -66t-42 -24q-150 0 -216.5 68t-66.5 208q0 37 15 195q14 115 14 209q0 78 -27 113t-86 46q-14 32 -14 68z" />
<glyph unicode="|" horiz-adv-x="663" d="M250 -410v2034q0 33 22 39t144 6v-2038q0 -30 -22 -35.5t-144 -5.5z" />
<glyph unicode="}" horiz-adv-x="567" d="M37 -205q0 52 31 58q149 12 149 163q0 44 -8 154q-12 136 -12 221q0 95 27 141t81 70q-55 22 -81.5 65t-26.5 130q0 50 10 215q10 95 10 162q0 57 -10 94.5t-33 58t-50.5 30t-72.5 15.5q-8 33 -8 64q0 39 16 63.5t43 24.5q150 0 216.5 -69t66.5 -208q0 -47 -14 -194 q-15 -124 -15 -209q0 -78 27 -113.5t86 -46.5q14 -35 14 -68q0 -58 -37 -81q-26 -18 -36.5 -27t-26.5 -31t-21.5 -54t-5.5 -81q0 -88 15 -223q14 -154 14 -185q0 -123 -85.5 -182t-231.5 -59q-31 48 -31 102z" />
<glyph unicode="~" horiz-adv-x="819" d="M23 545q31 48 104 88.5t160 40.5q34 0 63.5 -8t44 -15.5t39.5 -23.5q59 -41 119 -41q80 0 145 69q16 13 31 13q28 0 48.5 -29t23.5 -72q-37 -52 -104.5 -92.5t-157.5 -40.5q-36 0 -68 8.5t-49.5 17.5t-42.5 25q-60 39 -109 39q-10 0 -20 -1.5t-20 -5t-17 -5.5t-18 -8 t-15 -8.5l-16 -10t-14 -8.5q-38 -26 -56 -31q-28 -2 -48 25t-23 74z" />
<glyph unicode="&#xa1;" horiz-adv-x="399" d="M92 -403l33 927q3 51 33.5 63.5t130.5 12.5l28 -956q0 -33 -38.5 -40t-186.5 -7zM94 924q0 51 31 83.5t84 32.5q62 0 87.5 -29.5t25.5 -86.5q0 -49 -30.5 -83t-82.5 -34q-115 0 -115 117z" />
<glyph unicode="&#xa2;" d="M170 467q0 497 266 565v180q0 40 36 55t114 15v-242q50 -9 85.5 -28.5t35.5 -38.5q0 -75 -17 -119q-68 37 -139 37q-35 0 -62 -7t-57.5 -32t-50 -68.5t-32.5 -122.5t-13 -188q0 -94 8 -157t21 -100t39 -56t52 -24t70 -5q41 0 86.5 14t73.5 35q16 -41 16 -104 q0 -29 -49.5 -58.5t-113.5 -35.5v-191q0 -39 -34 -51t-116 -12v258q-55 9 -92.5 33.5t-67.5 76.5t-44.5 144t-14.5 227z" />
<glyph unicode="&#xa3;" horiz-adv-x="749" d="M31 567q0 109 8 128q9 15 24 16h97q4 140 28 239.5t67.5 158t100 84.5t131.5 26q86 0 145.5 -28t59.5 -81q0 -39 -22 -100q-67 43 -146 43q-46 0 -79 -14.5t-61 -50.5t-43 -105.5t-17 -171.5h266q0 -87 -5 -115.5t-28 -28.5h-233q4 -271 14 -403l321 -12q15 -44 15 -76 q0 -76 -107 -76h-385q-18 247 -22 567h-129z" />
<glyph unicode="&#xa4;" horiz-adv-x="1169" d="M25 1016q26 27 38 39t27.5 25.5t25 18.5t17.5 5q12 0 17 -8l151 -152q106 92 295 92q182 0 276 -88l172 170q29 -29 38 -38.5t24 -26t19.5 -26t4.5 -17.5q0 -12 -8 -17l-168 -168q37 -93 37 -239q0 -173 -49 -283l205 -203q-49 -49 -72 -68.5t-37 -19.5q-6 0 -18 8 l-166 166q-95 -80 -268 -80q-172 0 -273 78l-186 -188l-39 39t-25 27t-19.5 26.5t-4.5 17.5q0 10 10 17l176 178q-47 103 -47 264q0 153 41 256zM342 555q0 -157 61 -232t187 -75q123 0 183.5 84t60.5 258q0 157 -57 233t-173 76q-133 0 -197.5 -84.5t-64.5 -259.5z" />
<glyph unicode="&#xa5;" d="M61 1407q-5 17 6 21q17 6 183 6l80 -281q95 -309 98 -391q10 96 102 391l78 250q8 23 30 27t148 4l-196 -598h184q0 -78 -12 -108t-51 -30h-166l-35 -108v-92h266q0 -79 -12 -108.5t-53 -29.5h-201v-327v-1q0 -24 -20.5 -28t-143.5 -4v360h-268q0 80 12 109t53 29h203v84 l-41 116h-227q0 80 12 109t53 29h115z" />
<glyph unicode="&#xa6;" horiz-adv-x="464" d="M150 393q0 37 18.5 52.5t67.5 15.5q40 0 77 -12v-795q0 -37 -15.5 -48.5t-68.5 -11.5q-42 0 -79 11v788zM150 676v780q0 37 18.5 51.5t67.5 14.5q36 0 77 -13v-784q0 -36 -15.5 -46.5t-68.5 -10.5q-43 0 -79 8z" />
<glyph unicode="&#xa7;" horiz-adv-x="712" d="M74 795q0 55 27.5 110.5t86.5 93.5l-18 23q-42 52 -59 91.5t-17 88.5q0 110 87.5 174t224.5 64q90 0 146.5 -26.5t70.5 -59.5q6 -18 6 -35q0 -52 -33 -100q-65 47 -168 47q-69 0 -107 -26.5t-38 -70.5q0 -28 13 -51t46 -63q33 -36 76 -74q117 -117 145 -154 q40 -50 57 -91t17 -97q0 -54 -28.5 -110t-86.5 -95l19 -22q41 -55 58 -94.5t17 -88.5q0 -110 -86.5 -173.5t-222.5 -63.5q-91 0 -148 27.5t-71 60.5q-6 10 -6 33q0 54 33 102q68 -49 166 -49q70 0 108.5 26.5t38.5 69.5q0 29 -14 54t-47 63q-8 9 -19.5 20.5t-28 27.5 t-26.5 26q-111 107 -146 153q-39 48 -56 90.5t-17 98.5zM227 782q0 -65 60 -137q8 -10 16.5 -19.5t23.5 -22.5t21 -18.5t28 -23t25 -20.5q35 14 58.5 48t23.5 62q0 36 -14 66t-45 69q-22 29 -115 105q-37 -13 -59.5 -46.5t-22.5 -62.5z" />
<glyph unicode="&#xa8;" horiz-adv-x="550" d="M70 1294q0 55 22.5 86t67.5 31q44 0 62 -24.5t18 -83.5q0 -132 -90 -132q-40 0 -60 28t-20 95zM313 1290q0 57 22.5 89t67.5 32q44 0 62 -24.5t18 -83.5q0 -62 -23 -97t-65 -35q-41 0 -61.5 27.5t-20.5 91.5z" />
<glyph unicode="&#xa9;" horiz-adv-x="964" d="M74 1108q0 227 109 337.5t313 110.5q206 0 301.5 -101t95.5 -343q0 -220 -106.5 -338.5t-307.5 -118.5q-207 0 -306 104.5t-99 348.5zM197 1108q0 -183 69 -258.5t209 -75.5q131 0 212 83t81 257q0 171 -68 250.5t-206 79.5q-297 0 -297 -336zM322 1087q0 72 12 125 t29.5 82t44.5 46.5t50 22.5t52 5q30 0 61 -11t31 -22q0 -17 -12 -65q-40 16 -70 16q-22 0 -37.5 -6.5t-31.5 -25.5t-24.5 -62t-8.5 -109t10.5 -98.5t27.5 -40.5t50 -8q40 0 80 20q14 -31 14 -61q0 -14 -33 -28.5t-69 -14.5q-49 0 -78.5 7.5t-53.5 31.5t-34 71.5t-10 124.5z " />
<glyph unicode="&#xaa;" horiz-adv-x="661" d="M84 842q0 138 58.5 195t164.5 57q62 0 131 -21v119q0 68 -34 92.5t-93 24.5q-98 0 -194 -45q-21 28 -21 73q0 29 13 45q65 72 251 72q101 0 159.5 -50.5t58.5 -158.5v-596q-46 -22 -118.5 -40.5t-144.5 -18.5q-34 0 -60 3.5t-54 12.5t-48 26.5t-36.5 44.5t-24.5 69t-8 96 zM215 838q0 -73 32 -101t91 -28q64 0 100 24v225q-39 17 -86 17q-69 0 -103 -25.5t-34 -111.5z" />
<glyph unicode="&#xab;" horiz-adv-x="851" d="M37 518q0 30 74.5 156.5t149.5 237.5l75 112q28 0 52.5 -21t35.5 -42l10 -21q0 -35 -60 -140.5t-120 -193.5l-61 -88q10 -14 26.5 -38t58.5 -87.5t74.5 -116.5t59 -106t26.5 -74q-1 -4 -4 -10.5t-12.5 -23t-19.5 -29t-26.5 -23t-33.5 -10.5q-12 18 -33 48.5t-73.5 111 t-92.5 146t-73 128.5t-33 84zM389 514q0 29 73.5 145t147.5 217l74 101q27 0 51 -19.5t35 -39.5l10 -19q0 -33 -58 -129t-116 -176l-59 -80q10 -12 26 -33t56.5 -76.5t72 -102t57 -94t25.5 -67.5q-1 -4 -4 -10t-12 -22t-19.5 -28t-26 -22t-32.5 -10q-12 16 -32.5 43 t-72.5 99t-91.5 130.5t-72 115.5t-32.5 77z" />
<glyph unicode="&#xac;" horiz-adv-x="819" d="M70 553q0 34 13.5 56t39.5 22h610v-404q-35 -12 -76 -12q-35 0 -57 13.5t-22 39.5v207h-496q-12 41 -12 78z" />
<glyph unicode="&#xad;" horiz-adv-x="569" d="M76 506q0 87 5.5 115t29.5 28h383q0 -87 -5 -115t-28 -28h-385z" />
<glyph unicode="&#xae;" horiz-adv-x="964" d="M74 1108q0 227 109 337.5t313 110.5q206 0 301.5 -101t95.5 -343q0 -220 -106.5 -338.5t-307.5 -118.5q-207 0 -306 104.5t-99 348.5zM197 1108q0 -183 69 -258.5t209 -75.5q131 0 212 83t81 257q0 171 -68 250.5t-206 79.5q-297 0 -297 -336zM360 854v508q1 10 15 10h90 q166 0 166 -147q0 -98 -70 -142q72 -67 84 -211q0 -11 -6 -15.5t-27 -4.5l-51 2q-12 153 -72 205h-24h-27v-189q0 -12 -12 -14t-66 -2zM438 1130l33 -2q78 0 78 101q0 76 -74 76h-37v-175z" />
<glyph unicode="&#xaf;" horiz-adv-x="550" d="M2 1278q0 36 18 58t50 22h465q14 -35 14 -70q0 -38 -16.5 -62t-45.5 -24h-475q-10 29 -10 76z" />
<glyph unicode="&#xb0;" horiz-adv-x="733" d="M172 1329q0 199 205 199q100 0 144 -43t44 -154q0 -198 -203 -198q-99 0 -144.5 41.5t-45.5 154.5zM283 1327q0 -90 84 -90q90 0 90 94q0 48 -19.5 69t-60.5 21q-46 0 -70 -22t-24 -72z" />
<glyph unicode="&#xb1;" horiz-adv-x="858" d="M70 29v8q0 83 5 110t29 27h682q0 -109 -9 -129q-7 -16 -23 -16h-684zM74 592q0 88 4.5 115.5t27.5 27.5h254v254q0 23 28.5 28t115.5 5v-287h287q0 -87 -5.5 -115t-29.5 -28h-252v-252q0 -24 -28.5 -29.5t-115.5 -5.5v287h-286z" />
<glyph unicode="&#xb2;" horiz-adv-x="786" d="M84 645q0 58 25 86q16 19 33 37.5t38 40t31.5 32t37.5 36t32 30.5q100 91 147 151.5t47 121.5q0 49 -28 77.5t-103 28.5q-59 0 -107 -20.5t-102 -57.5q-31 54 -31 101q0 55 102 100t214 45q142 0 199 -56t57 -161q0 -43 -16 -88.5t-35 -78.5t-59 -80t-62.5 -69.5 t-71.5 -70.5q-61 -58 -100 -102h362q11 -53 11 -72q0 -84 -54 -84h-555q-12 24 -12 53z" />
<glyph unicode="&#xb3;" horiz-adv-x="786" d="M92 686q0 51 39 90q79 -53 199 -53q91 0 143.5 33.5t52.5 95.5q0 46 -31.5 75.5t-86.5 35.5q-37 6 -146 6q-5 6 -11.5 34t-6.5 41q0 52 51 52q55 0 108 -6q80 58 80 127q0 36 -31.5 63t-101.5 27q-118 0 -213 -68q-33 33 -33 84q0 33 21 51q38 34 113 57t180 23 q127 0 187.5 -50.5t60.5 -133.5q0 -121 -109 -213q66 -28 102.5 -78t36.5 -113q0 -146 -99.5 -220.5t-258.5 -74.5q-155 0 -221 54q-25 19 -25 61z" />
<glyph unicode="&#xb4;" horiz-adv-x="550" d="M100 1239q65 73 163 156.5t112 83.5q27 0 48 -40.5t28 -84.5q-25 -28 -129 -103t-158 -104q-16 0 -32 23t-24 46z" />
<glyph unicode="&#xb5;" horiz-adv-x="808" d="M92 -389v1352q0 37 19.5 54t64.5 17q49 0 80 -10v-756q0 -133 143 -133q85 0 152 31v797q0 38 16.5 54.5t63.5 16.5q53 0 84 -10v-975q-149 -69 -318 -69q-99 0 -141 51v-365q0 -65 -92 -65q-22 0 -72 10z" />
<glyph unicode="&#xb6;" horiz-adv-x="1107" d="M70 860q0 305 106.5 449.5t296.5 144.5q140 0 248 -57v-1344q0 -59 -82 -59q-48 0 -84 12v414q-60 -31 -164 -31q-67 0 -121.5 22.5t-101 73.5t-72.5 146.5t-26 228.5zM238 877q0 -355 198 -355q71 0 119 29v739q-37 23 -104 23q-104 0 -158.5 -110t-54.5 -326zM848 4 v1344q0 36 18.5 50.5t67.5 14.5q42 0 80 -12v-1348q0 -37 -16 -48t-70 -11q-46 0 -80 10z" />
<glyph unicode="&#xb7;" horiz-adv-x="450" d="M109 551q0 48 31 82.5t83 34.5q115 0 115 -117q0 -51 -31 -84t-84 -33q-62 0 -88 29.5t-26 87.5z" />
<glyph unicode="&#xb8;" horiz-adv-x="550" d="M143 -395q15 70 27 84q6 5 19 -0.5t33.5 -14t39.5 -8.5q64 0 64 70q0 69 -62 69q-23 0 -44 -3t-30 -6l-10 -3l39 211h92l-24 -125q2 2 35 2q41 0 70.5 -32.5t29.5 -98.5q0 -78 -46 -125t-118 -47q-28 0 -57 7t-43 13z" />
<glyph unicode="&#xb9;" horiz-adv-x="782" d="M92 662q0 44 11.5 65t43.5 21h193v526l-221 -45q-21 35 -21 78q0 56 54 77q72 25 171 47.5t134 22.5q37 0 49 -6v-700h178q8 -54 8 -74q0 -45 -11 -63.5t-40 -18.5h-541q-8 39 -8 70z" />
<glyph unicode="&#xba;" horiz-adv-x="692" d="M72 1022q0 221 74.5 326.5t209.5 105.5q70 0 117 -19.5t81.5 -67.5t50.5 -131.5t16 -209.5q0 -434 -283 -434q-67 0 -114 19.5t-82.5 67t-52.5 132.5t-17 211zM211 1012q0 -112 15.5 -175t42 -85.5t71.5 -22.5q69 0 105 69t36 224q0 165 -29 226t-94 61q-73 0 -110 -68.5 t-37 -228.5z" />
<glyph unicode="&#xbb;" horiz-adv-x="847" d="M68 139q0 34 59 127t119 170l59 76q1 0 -4.5 9.5t-18 27.5t-28.5 39q-133 192 -164 255q-18 38 -18 56q0 25 22.5 46t45.5 29l22 9q12 -16 32 -43.5t71.5 -100.5t90.5 -132.5t71 -117t32 -77.5q0 -33 -75.5 -149.5t-151.5 -216.5l-76 -101q-4 1 -9.5 3t-21 10.5t-27 18 t-21 26.5t-9.5 36zM410 94q0 34 62 140t124 195l61 89q-27 39 -67 98t-107 174t-67 150q0 25 24.5 46t49.5 30l24 8l32 -48t71.5 -109t90.5 -143t71 -125.5t32 -80.5q0 -33 -75.5 -162.5t-151.5 -242.5l-76 -113q-4 1 -10.5 3t-23.5 10.5t-30 18t-23.5 26.5t-10.5 36z" />
<glyph unicode="&#xbc;" horiz-adv-x="1966" d="M84 662q0 44 11.5 65t43.5 21h193v526l-221 -45q-21 35 -21 78q0 56 55 77q69 24 169.5 47t134.5 23q36 0 51 -6v-700h176q8 -36 8 -74q0 -45 -11 -63.5t-38 -18.5h-541q-10 36 -10 70zM575 39l691 1376q12 39 55 39q62 0 113 -57l-695 -1387q-13 -30 -49 -30 q-26 0 -58.5 16t-56.5 43zM1245 225q0 27 12 68q37 121 130 271t180 235q32 38 66 50.5t77 12.5q41 0 68 -10v-551h123q12 -40 12 -78q0 -36 -13.5 -58t-35.5 -22h-86v-104q0 -51 -88 -51q-33 0 -66 8v147h-352q-27 35 -27 82zM1397 289h231l8 385q-67 -53 -138.5 -168 t-100.5 -217z" />
<glyph unicode="&#xbd;" horiz-adv-x="1939" d="M84 662q0 44 11.5 65t43.5 21h193v526l-221 -45q-21 35 -21 78q0 56 55 77q69 24 169.5 47t134.5 23q36 0 51 -6v-700h176q8 -36 8 -74q0 -45 -11 -63.5t-38 -18.5h-541q-10 36 -10 70zM575 39l691 1376q12 39 55 39q62 0 113 -57l-695 -1387q-13 -30 -49 -30 q-26 0 -58.5 16t-56.5 43zM1245 53q0 58 25 86q19 24 44 50.5t40 41t47.5 46t40.5 38.5q52 49 77 74.5t57.5 64t46 70.5t13.5 64q0 49 -28 77.5t-103 28.5q-99 0 -209 -78q-30 52 -30 101q0 55 101.5 100t213.5 45q141 0 197.5 -56t56.5 -161q0 -43 -15.5 -88t-35 -79 t-58 -79.5t-62.5 -70t-71 -70.5q-61 -58 -100 -102h360q11 -40 11 -72q0 -84 -54 -84h-555q-10 25 -10 53z" />
<glyph unicode="&#xbe;" horiz-adv-x="1970" d="M84 686q0 52 41 90q75 -53 199 -53q91 0 142.5 33.5t51.5 95.5q0 46 -31.5 75.5t-85.5 35.5q-39 6 -147 6q-5 6 -11.5 34t-6.5 41q0 52 51 52q57 0 110 -6q78 59 78 127q0 37 -30.5 63.5t-100.5 26.5q-122 0 -213 -68q-33 33 -33 84q0 35 19 51q37 34 113.5 57t181.5 23 q125 0 185 -50.5t60 -133.5q0 -123 -106 -213q65 -28 101 -78t36 -113q0 -146 -98.5 -220.5t-259.5 -74.5q-157 0 -219 54q-27 18 -27 61zM580 39l690 1376q12 39 55 39q62 0 113 -57l-695 -1387q-13 -30 -49 -30q-26 0 -58 16t-56 43zM1249 225q0 24 13 68 q38 121 130.5 271t178.5 235q32 38 66 50.5t77 12.5q41 0 68 -10v-551h123q12 -30 12 -78q0 -36 -13.5 -58t-35.5 -22h-86v-104q0 -51 -88 -51q-33 0 -66 8v147h-352q-27 35 -27 82zM1401 289h231l8 385q-67 -53 -138.5 -168t-100.5 -217z" />
<glyph unicode="&#xbf;" horiz-adv-x="626" d="M29 -115q0 52 10 101t21.5 82.5t36 75.5t39 62.5t44.5 61.5q55 70 76 109q25 46 25 98q0 17 -11 80q-7 48 -2 55q18 21 92 21q26 0 58 -4q31 -62 31 -144q0 -76 -37 -149q-46 -80 -93 -144q-39 -57 -58 -87.5t-36.5 -80t-17.5 -98.5q0 -157 166 -157q92 0 172 51 q24 -61 24 -131q0 -34 -81 -60t-175 -26q-131 0 -207.5 72.5t-76.5 211.5zM227 922q0 49 31 81.5t84 32.5q62 0 88.5 -28.5t26.5 -85.5q0 -49 -31.5 -84t-83.5 -35q-115 0 -115 119z" />
<glyph unicode="&#xc0;" horiz-adv-x="894" d="M10 2l367 1409q6 29 61 29q48 0 78 -6l367 -1403q3 -19 -11 -27t-61 -8q-55 0 -98 4l-86 365h-357l-80 -336q-5 -19 -18 -26t-59 -7q-45 0 -103 6zM285 1751q7 44 28.5 84.5t48.5 40.5q7 0 54.5 -36.5t112.5 -96t108 -109.5q-1 -4 -3 -10t-8.5 -22t-14 -28t-18 -22 t-20.5 -10q-56 30 -160 105t-128 104zM305 514h285l-70 295q-59 243 -71 395q-22 -179 -74 -395z" />
<glyph unicode="&#xc1;" horiz-adv-x="894" d="M10 2l367 1409q6 29 61 29q48 0 78 -6l367 -1403q3 -19 -11 -27t-61 -8q-55 0 -98 4l-86 365h-357l-80 -336q-5 -19 -18 -26t-59 -7q-45 0 -103 6zM285 1649q43 49 107.5 107.5t112 95t54.5 36.5q27 0 49 -41t29 -84q-24 -27 -128.5 -102t-158.5 -105q-17 0 -33.5 23 t-24.5 47zM305 514h285l-70 295q-59 243 -71 395q-22 -179 -74 -395z" />
<glyph unicode="&#xc2;" horiz-adv-x="894" d="M10 2l367 1409q6 29 61 29q48 0 78 -6l367 -1403q3 -19 -11 -27t-61 -8q-55 0 -98 4l-86 365h-357l-80 -336q-5 -19 -18 -26t-59 -7q-45 0 -103 6zM188 1608l234 252q15 6 35 6q29 0 51 -25q4 -4 11 -11.5t28 -29t39.5 -42t41.5 -46t39.5 -45.5t28 -37t11.5 -24 q0 -21 -35 -34t-82 -13q-108 108 -135 157q-5 -6 -13 -16.5t-30 -37.5t-41 -47t-39.5 -37t-30.5 -17q-73 0 -113 47zM305 514h285l-70 295q-59 243 -71 395q-22 -179 -74 -395z" />
<glyph unicode="&#xc3;" horiz-adv-x="894" d="M10 2l367 1409q6 29 61 29q48 0 78 -6l367 -1403q3 -19 -11 -27t-61 -8q-55 0 -98 4l-86 365h-357l-80 -336q-5 -19 -18 -26t-59 -7q-45 0 -103 6zM147 1663q94 154 232 154q29 0 53 -15.5t38 -34t37 -34t50 -15.5q33 0 57 12.5t34 27.5t21 27.5t21 12.5q16 0 31 -23 t22 -46l7 -23q-5 -11 -22 -31.5t-45.5 -47t-70 -45.5t-84.5 -19q-37 0 -64 15.5t-39.5 33.5t-32 33.5t-44.5 15.5q-24 0 -45 -12.5t-32.5 -27.5t-23 -27.5t-20.5 -12.5q-20 0 -40 20.5t-30 40.5zM305 514h285l-70 295q-59 243 -71 395q-22 -179 -74 -395z" />
<glyph unicode="&#xc4;" horiz-adv-x="894" d="M10 2l367 1409q6 29 61 29q48 0 78 -6l367 -1403q3 -19 -11 -27t-61 -8q-55 0 -98 4l-86 365h-357l-80 -336q-5 -19 -18 -26t-59 -7q-45 0 -103 6zM242 1704q0 55 22.5 86t67.5 31t62.5 -25.5t17.5 -87.5q0 -61 -23 -94t-67 -33q-40 2 -60 29.5t-20 93.5zM305 514h285 l-70 295q-59 243 -71 395q-22 -179 -74 -395zM485 1704q0 55 22.5 86t67.5 31t62.5 -25.5t17.5 -87.5q-3 -127 -90 -127q-41 2 -61 29.5t-19 93.5z" />
<glyph unicode="&#xc5;" horiz-adv-x="894" d="M10 2l367 1409q6 29 61 29q48 0 78 -6l367 -1403q3 -19 -11 -27t-61 -8q-55 0 -98 4l-86 365h-357l-80 -336q-5 -19 -18 -26t-59 -7q-45 0 -103 6zM250 1718q0 100 53.5 150.5t151.5 50.5q100 0 145 -44t45 -155q0 -198 -203 -198q-98 0 -145 43.5t-47 152.5zM305 514 h285l-70 295q-59 243 -71 395q-22 -179 -74 -395zM369 1716q0 -40 19.5 -62t55.5 -22q84 0 84 88q0 45 -17.5 64.5t-53.5 19.5q-88 0 -88 -88z" />
<glyph unicode="&#xc6;" horiz-adv-x="1259" d="M35 2l602 1403q12 29 53 29h39h492q0 -104 -4.5 -127t-26.5 -23h-330v-428h309q0 -102 -4 -126.5t-26 -24.5h-279v-555h352q0 -108 -4 -129t-28 -21h-484v365h-340l-141 -336q-6 -18 -21.5 -25.5t-54.5 -7.5q-45 0 -104 6zM420 514h276v746q-76 -263 -155 -457z" />
<glyph unicode="&#xc7;" horiz-adv-x="698" d="M61 657q0 146 13 264.5t35 200t54 142.5t66 97t76.5 57.5t79.5 28.5t80 7q103 0 147.5 -33.5t44.5 -79.5q0 -54 -26 -100q-64 51 -133 51q-36 0 -65 -9t-60.5 -32t-55 -68.5t-42.5 -112.5t-29 -169.5t-10 -234.5q0 -152 14.5 -254t43 -155.5t63 -74t83.5 -20.5 q57 0 109 19t82 46q24 -54 24 -100q0 -53 -56.5 -93.5t-147.5 -49.5l-21 -105q2 2 35 2q41 0 70.5 -32.5t29.5 -98.5q0 -78 -46 -125t-118 -47q-28 0 -56.5 7t-42.5 13l-15 7q12 70 26 84q6 5 19 -0.5t34 -14t40 -8.5q63 0 63 70q0 69 -61 69q-23 0 -44 -3t-30 -6l-10 -3 l34 189q-56 5 -97.5 22.5t-81 62.5t-64 118t-39.5 192t-15 280z" />
<glyph unicode="&#xc8;" horiz-adv-x="655" d="M92 0v1401q0 4 1 9.5t9 14.5t23 9h491v-12q0 -96 -4 -117t-26 -21h-330v-428h309q0 -102 -4 -126.5t-26 -24.5h-279v-555h352q0 -107 -4.5 -128.5t-28.5 -21.5h-483zM186 1751q7 44 28 84.5t48 40.5q8 0 56 -36.5t112.5 -96t106.5 -109.5q-1 -4 -3 -10t-8.5 -22 t-13.5 -28t-17.5 -22t-21.5 -10q-55 31 -159 106t-128 103z" />
<glyph unicode="&#xc9;" horiz-adv-x="655" d="M92 0v1401q0 4 1 9.5t9 14.5t23 9h491v-12q0 -96 -4 -117t-26 -21h-330v-428h309q0 -102 -4 -126.5t-26 -24.5h-279v-555h352q0 -107 -4.5 -128.5t-28.5 -21.5h-483zM186 1649q43 49 107 107.5t112 95t56 36.5q27 0 48 -40.5t28 -84.5q-24 -27 -128.5 -102t-158.5 -105 q-17 0 -33 23t-23 47z" />
<glyph unicode="&#xca;" horiz-adv-x="655" d="M88 1608l236 252q15 6 34 6q27 0 52 -25q4 -4 11 -11.5t28 -29t39.5 -42t41.5 -46t39 -45.5t27.5 -37t11.5 -24q0 -21 -35.5 -34t-80.5 -13q-109 108 -136 157q-5 -6 -13 -16.5t-30.5 -37.5t-41 -47t-38.5 -37t-30 -17q-75 0 -115 47zM92 0v1401q0 4 1 9.5t9 14.5t23 9 h491v-12q0 -96 -4 -117t-26 -21h-330v-428h309q0 -102 -4 -126.5t-26 -24.5h-279v-555h352q0 -107 -4.5 -128.5t-28.5 -21.5h-483z" />
<glyph unicode="&#xcb;" horiz-adv-x="655" d="M92 0v1401q0 4 1 9.5t9 14.5t23 9h491v-12q0 -96 -4 -117t-26 -21h-330v-428h309q0 -102 -4 -126.5t-26 -24.5h-279v-555h352q0 -107 -4.5 -128.5t-28.5 -21.5h-483zM141 1704q3 117 90 117q45 0 63.5 -25.5t18.5 -87.5q-3 -127 -92 -127q-39 2 -59.5 29.5t-20.5 93.5z M385 1704q0 55 23.5 86t68.5 31q44 0 61 -25.5t17 -87.5q0 -61 -23 -94t-67 -33q-40 2 -60 29.5t-20 93.5z" />
<glyph unicode="&#xcc;" horiz-adv-x="346" d="M12 1751q5 43 27 84t49 41q8 0 55.5 -37t111 -96t107.5 -109q-1 -4 -3 -10t-8.5 -22t-13.5 -28t-17.5 -22t-20.5 -10q-55 30 -159 105t-128 104zM90 0v1358q0 57 21.5 66.5t146.5 9.5v-1401q0 -25 -22 -29t-146 -4z" />
<glyph unicode="&#xcd;" horiz-adv-x="346" d="M12 1649q43 49 107 107.5t112 95t56 36.5q25 0 46.5 -40.5t28.5 -84.5q-24 -27 -128 -102t-158 -105q-17 0 -33 23t-23 47zM90 0v1358q0 57 21.5 66.5t146.5 9.5v-1401q0 -25 -22 -29t-146 -4z" />
<glyph unicode="&#xce;" horiz-adv-x="346" d="M-86 1608l236 252q12 6 32 6q29 0 51 -25l11.5 -11.5t28 -29t39.5 -42t42.5 -46t40 -45.5t28 -37t11.5 -24q0 -21 -36 -34t-83 -13q-108 108 -135 157q-5 -6 -13 -16.5t-30 -37.5t-40.5 -47t-38 -37t-29.5 -17q-75 0 -115 47zM90 0v1358q0 57 21.5 66.5t146.5 9.5v-1401 q0 -25 -22 -29t-146 -4z" />
<glyph unicode="&#xcf;" horiz-adv-x="346" d="M-33 1704q3 117 90 117q46 0 64 -25.5t16 -87.5q0 -61 -23 -94t-67 -33q-40 2 -60 29.5t-20 93.5zM90 0v1358q0 57 21.5 66.5t146.5 9.5v-1401q0 -25 -22 -29t-146 -4zM211 1704q0 55 22.5 86t67.5 31t62.5 -25.5t17.5 -87.5q0 -61 -23 -94t-67 -33q-41 2 -61 29.5 t-19 93.5z" />
<glyph unicode="&#xd0;" horiz-adv-x="794" d="M10 678q0 87 5 115t28 28h47v574q0 20 12 29.5t43 9.5h201q103 0 175 -30.5t123.5 -102.5t76 -193.5t24.5 -300.5q0 -183 -17.5 -321t-50 -230t-82.5 -149.5t-110.5 -82t-138.5 -24.5h-256v678h-80zM256 158h94q29 0 52.5 9t48.5 32.5t43.5 70t33.5 116t23 176.5t8 245 q0 186 -24 291.5t-68 144.5t-117 39h-94v-461h164q0 -87 -5.5 -115t-29.5 -28h-129v-520z" />
<glyph unicode="&#xd1;" horiz-adv-x="909" d="M90 0v1401q0 33 33 33h125l231 -553q31 -78 197 -580v4q-9 79 -15 292.5t-6 320.5v483q0 25 21.5 29t144.5 4v-1401q0 -33 -35 -33h-122l-236 563q-59 154 -195 582q8 -88 14.5 -307.5t6.5 -307.5v-497q0 -25 -21 -29t-143 -4zM154 1663q49 80 110 117t121 37 q30 0 54 -15.5t38 -34t36.5 -34t49.5 -15.5q33 0 57.5 12.5t34.5 27.5t21.5 27.5t21.5 12.5q15 0 29.5 -23t21.5 -46l7 -23q-6 -11 -22.5 -31.5t-44 -47t-69.5 -45.5t-85 -19q-31 0 -53.5 10t-36 24.5t-25 29t-27.5 24.5t-37 10q-31 0 -55 -20t-39.5 -40t-25.5 -20 q-20 0 -40.5 20.5t-31.5 40.5z" />
<glyph unicode="&#xd2;" horiz-adv-x="878" d="M61 725q0 270 44 431.5t128.5 229.5t221.5 68q135 0 212 -66t113.5 -222.5t36.5 -434.5q0 -281 -41.5 -446t-124 -235t-219.5 -70q-138 0 -216 63t-116.5 225.5t-38.5 456.5zM248 684q0 -293 41 -413.5t149 -120.5q112 0 156.5 130.5t44.5 446.5q0 314 -39.5 435.5 t-148.5 121.5q-110 0 -156.5 -135t-46.5 -465zM279 1751q7 45 27.5 85t47.5 40q8 0 56 -36.5t112.5 -96t106.5 -109.5q-1 -4 -3 -10t-8.5 -22t-13.5 -28t-17.5 -22t-21.5 -10q-55 31 -158.5 106t-127.5 103z" />
<glyph unicode="&#xd3;" horiz-adv-x="878" d="M61 725q0 270 44 431.5t128.5 229.5t221.5 68q135 0 212 -66t113.5 -222.5t36.5 -434.5q0 -281 -41.5 -446t-124 -235t-219.5 -70q-138 0 -216 63t-116.5 225.5t-38.5 456.5zM248 684q0 -293 41 -413.5t149 -120.5q112 0 156.5 130.5t44.5 446.5q0 314 -39.5 435.5 t-148.5 121.5q-110 0 -156.5 -135t-46.5 -465zM279 1649q43 49 107 107.5t111.5 95t55.5 36.5q27 0 48 -40.5t28 -84.5q-24 -27 -128.5 -102t-158.5 -105q-17 0 -33 23t-23 47z" />
<glyph unicode="&#xd4;" horiz-adv-x="878" d="M61 725q0 270 44 431.5t128.5 229.5t221.5 68q135 0 212 -66t113.5 -222.5t36.5 -434.5q0 -281 -41.5 -446t-124 -235t-219.5 -70q-138 0 -216 63t-116.5 225.5t-38.5 456.5zM180 1608l236 252q15 6 35 6q26 0 51 -25q4 -4 11 -11.5t28 -29t39.5 -42t41.5 -46t39 -45.5 t27.5 -37t11.5 -24q0 -21 -35.5 -34t-80.5 -13q-108 108 -135 157q-5 -6 -13 -16.5t-30.5 -37.5t-41.5 -47t-39 -37t-30 -17q-75 0 -115 47zM248 684q0 -293 41 -413.5t149 -120.5q112 0 156.5 130.5t44.5 446.5q0 314 -39.5 435.5t-148.5 121.5q-110 0 -156.5 -135 t-46.5 -465z" />
<glyph unicode="&#xd5;" horiz-adv-x="878" d="M61 725q0 270 44 431.5t128.5 229.5t221.5 68q135 0 212 -66t113.5 -222.5t36.5 -434.5q0 -281 -41.5 -446t-124 -235t-219.5 -70q-138 0 -216 63t-116.5 225.5t-38.5 456.5zM139 1663q49 80 110.5 117t121.5 37q30 0 54 -15.5t38 -34t36.5 -34t49.5 -15.5 q33 0 57.5 12.5t34.5 27.5t21.5 27.5t21.5 12.5q15 0 29 -23t21 -46l7 -23q-6 -11 -22.5 -31.5t-44 -47t-69.5 -45.5t-85 -19q-37 0 -64 15.5t-39 33.5t-31.5 33.5t-43.5 15.5t-45 -12.5t-32.5 -27.5t-23 -27.5t-20.5 -12.5q-21 0 -41.5 20.5t-30.5 40.5zM248 684 q0 -293 41 -413.5t149 -120.5q112 0 156.5 130.5t44.5 446.5q0 314 -39.5 435.5t-148.5 121.5q-110 0 -156.5 -135t-46.5 -465z" />
<glyph unicode="&#xd6;" horiz-adv-x="878" d="M61 725q0 270 44 431.5t128.5 229.5t221.5 68q135 0 212 -66t113.5 -222.5t36.5 -434.5q0 -281 -41.5 -446t-124 -235t-219.5 -70q-138 0 -216 63t-116.5 225.5t-38.5 456.5zM233 1704q3 117 91 117q45 0 63.5 -25.5t18.5 -87.5q-3 -127 -93 -127q-39 2 -59.5 29.5 t-20.5 93.5zM248 684q0 -293 41 -413.5t149 -120.5q112 0 156.5 130.5t44.5 446.5q0 314 -39.5 435.5t-148.5 121.5q-110 0 -156.5 -135t-46.5 -465zM477 1704q0 55 23.5 86t68.5 31q44 0 61 -25.5t17 -87.5q0 -61 -23 -94t-67 -33q-40 2 -60 29.5t-20 93.5z" />
<glyph unicode="&#xd7;" d="M145 780q73 71 93 81q10 5 18 5t16 -8l435 -483q-26 -26 -38 -37.5t-27.5 -25t-25.5 -18.5t-18 -5q-7 0 -16 6z" />
<glyph unicode="&#xd8;" horiz-adv-x="892" d="M49 18q-3 17 72 193q-53 165 -53 514q0 271 42.5 432t125.5 229t219 68q164 0 243 -94q35 94 45 113q4 0 10.5 -1t23.5 -5t30.5 -9t26 -15t14.5 -22q4 -17 -68 -225q45 -161 45 -465q0 -280 -42 -445.5t-124.5 -235.5t-220.5 -70q-165 0 -245 92q-8 -22 -17.5 -45 t-17 -40.5t-8.5 -19.5q-29 0 -63 13.5t-38 37.5zM254 684q0 -209 14 -324l307 867q-42 59 -120 59q-73 0 -116 -58t-64 -189.5t-21 -354.5zM322 201q39 -51 110 -51q55 0 91 22t65.5 82.5t43 176.5t13.5 296q0 223 -16 332q-105 -304 -307 -858z" />
<glyph unicode="&#xd9;" horiz-adv-x="894" d="M90 420v979q0 26 21 30.5t149 4.5v-1020q0 -69 7 -115t27 -86.5t61 -60t104 -19.5q112 0 180 35v1231q0 26 21.5 30.5t146.5 4.5v-1381q-43 -28 -140 -50.5t-208 -22.5q-96 0 -165 24t-108 61.5t-61 98t-28.5 118t-6.5 138.5zM287 1751q7 45 27.5 85t47.5 40 q8 0 55.5 -37t112 -96t107.5 -109q-1 -4 -3 -10t-8.5 -22t-14 -28t-18 -22t-20.5 -10q-55 30 -158.5 105t-127.5 104z" />
<glyph unicode="&#xda;" horiz-adv-x="894" d="M90 420v979q0 26 21 30.5t149 4.5v-1020q0 -69 7 -115t27 -86.5t61 -60t104 -19.5q112 0 180 35v1231q0 26 21.5 30.5t146.5 4.5v-1381q-43 -28 -140 -50.5t-208 -22.5q-96 0 -165 24t-108 61.5t-61 98t-28.5 118t-6.5 138.5zM287 1649q43 49 107 107.5t111.5 95 t55.5 36.5q27 0 48 -40.5t28 -84.5q-24 -27 -128.5 -102t-158.5 -105q-17 0 -33 23t-23 47z" />
<glyph unicode="&#xdb;" horiz-adv-x="894" d="M90 420v979q0 26 21 30.5t149 4.5v-1020q0 -69 7 -115t27 -86.5t61 -60t104 -19.5q112 0 180 35v1231q0 26 21.5 30.5t146.5 4.5v-1381q-43 -28 -140 -50.5t-208 -22.5q-96 0 -165 24t-108 61.5t-61 98t-28.5 118t-6.5 138.5zM188 1608l236 252q12 6 35 6q27 0 49 -25 l11.5 -11.5t28 -29t39.5 -42t42.5 -46t40 -45.5t28 -37t11.5 -24q0 -21 -36 -34t-81 -13q-110 108 -135 157q-5 -6 -13 -16.5t-30.5 -37.5t-41.5 -47t-39 -37t-30 -17q-75 0 -115 47z" />
<glyph unicode="&#xdc;" horiz-adv-x="894" d="M90 420v979q0 26 21 30.5t149 4.5v-1020q0 -69 7 -115t27 -86.5t61 -60t104 -19.5q112 0 180 35v1231q0 26 21.5 30.5t146.5 4.5v-1381q-43 -28 -140 -50.5t-208 -22.5q-96 0 -165 24t-108 61.5t-61 98t-28.5 118t-6.5 138.5zM242 1704q3 117 90 117q46 0 64 -25.5 t16 -87.5q0 -61 -23 -94t-67 -33q-39 2 -59.5 29.5t-20.5 93.5zM485 1704q0 55 23 86t67 31q45 0 62.5 -25.5t17.5 -87.5q0 -61 -23 -94t-67 -33q-41 2 -61 29.5t-19 93.5z" />
<glyph unicode="&#xdd;" horiz-adv-x="745" d="M12 1407q-5 17 6 21q17 6 181 6l82 -281q30 -97 63.5 -240.5t38.5 -189.5q5 45 39.5 189.5t64.5 240.5l72 250q6 23 28.5 27t149.5 4l-276 -844v-557v-1q0 -24 -20.5 -28t-145.5 -4v582zM211 1649q65 73 162.5 156t111.5 83q27 0 48 -40.5t28 -84.5q-25 -28 -129 -103 t-158 -104q-16 0 -32 23t-24 47z" />
<glyph unicode="&#xde;" horiz-adv-x="739" d="M90 0v1393q0 27 21 34t90 7h53v-275h72q195 0 285.5 -96t90.5 -307q0 -123 -29.5 -212.5t-82 -139.5t-117.5 -73.5t-145 -23.5h-74v-274q0 -24 -22.5 -28.5t-141.5 -4.5zM254 465q8 0 45.5 -2t44.5 -2q90 0 133 72.5t43 240.5q0 116 -38 178t-126 62q-34 0 -68 -1l-34 -1 v-547z" />
<glyph unicode="&#xdf;" horiz-adv-x="952" d="M80 4q2 6 6 17.5t9 50t3 80.5v974q0 162 86.5 240t241.5 78q107 0 189.5 -26t129.5 -69t70 -94t23 -106q0 -36 -10 -65t-32 -53.5t-38 -38t-47 -36.5q-28 -21 -37.5 -29t-28 -26.5t-25 -36t-6.5 -39.5q0 -25 17 -54t36 -49t58 -58q38 -37 58 -57t54 -61.5t51.5 -76 t31.5 -84.5t14 -102q0 -140 -82.5 -220.5t-224.5 -80.5q-112 0 -178 29.5t-66 62.5q0 67 43 110q19 -19 62.5 -37t101.5 -18q74 0 117 39.5t43 112.5q0 39 -12 75t-40 73.5t-47.5 59.5t-60.5 64q-39 40 -59 62.5t-46.5 58.5t-38.5 71t-12 72q0 36 10.5 66t32.5 55.5t39 41 t47 38.5q35 27 50.5 40t32 38t16.5 51q0 59 -58.5 101t-165.5 42q-98 0 -135.5 -59.5t-34.5 -198.5v-942q0 -62 -18.5 -85t-77.5 -23q-28 0 -51 5.5t-32 10.5z" />
<glyph unicode="&#xe0;" horiz-adv-x="724" d="M59 291q0 69 10.5 123.5t30.5 90.5t44.5 60.5t57 37.5t63.5 18.5t69 5.5q94 0 149 -27v162q0 70 -31 96.5t-96 26.5q-75 0 -150 -13.5t-122 -33.5q-23 45 -23 96q0 41 23 55q30 20 118 37.5t195 17.5q133 0 192.5 -56.5t59.5 -192.5v-109q0 -450 -12 -637 q-115 -69 -285 -69q-51 -1 -88.5 4t-78.5 23.5t-66.5 51t-42.5 91.5t-17 141zM197 1341q5 43 26.5 84t48.5 41q8 0 55.5 -36.5t112 -95.5t107.5 -109q-1 -4 -3 -10t-8.5 -22t-14 -28t-18 -22t-20.5 -10q-55 30 -158.5 104.5t-127.5 103.5zM231 295q0 -106 34 -141t104 -35 q32 0 62.5 10t45.5 23q6 70 6 331q-40 21 -96 21q-35 0 -60.5 -8t-48.5 -29t-35 -64t-12 -108z" />
<glyph unicode="&#xe1;" horiz-adv-x="724" d="M59 291q0 69 10.5 123.5t30.5 90.5t44.5 60.5t57 37.5t63.5 18.5t69 5.5q94 0 149 -27v162q0 70 -31 96.5t-96 26.5q-75 0 -150 -13.5t-122 -33.5q-23 45 -23 96q0 41 23 55q30 20 118 37.5t195 17.5q133 0 192.5 -56.5t59.5 -192.5v-109q0 -450 -12 -637 q-115 -69 -285 -69q-51 -1 -88.5 4t-78.5 23.5t-66.5 51t-42.5 91.5t-17 141zM197 1239q42 49 106 107.5t111.5 95.5t54.5 37q27 0 49 -41t29 -84q-24 -27 -128.5 -102t-158.5 -105q-17 0 -33 23t-23 46zM231 295q0 -106 34 -141t104 -35q32 0 62.5 10t45.5 23q6 70 6 331 q-40 21 -96 21q-35 0 -60.5 -8t-48.5 -29t-35 -64t-12 -108z" />
<glyph unicode="&#xe2;" horiz-adv-x="724" d="M59 291q0 69 10.5 123.5t30.5 90.5t44.5 60.5t57 37.5t63.5 18.5t69 5.5q94 0 149 -27v162q0 70 -31 96.5t-96 26.5q-75 0 -150 -13.5t-122 -33.5q-23 45 -23 96q0 41 23 55q30 20 118 37.5t195 17.5q133 0 192.5 -56.5t59.5 -192.5v-109q0 -450 -12 -637 q-115 -69 -285 -69q-51 -1 -88.5 4t-78.5 23.5t-66.5 51t-42.5 91.5t-17 141zM98 1198l234 252q15 6 35 6q30 0 51 -24l11.5 -11.5t28 -29t39.5 -42t42 -46.5t39.5 -46t28 -37t11.5 -24q0 -21 -35.5 -34t-82.5 -13q-108 109 -135 158q-5 -6 -13 -16.5t-30 -37.5t-41 -47.5 t-39.5 -37.5t-30.5 -17q-73 0 -113 47zM231 295q0 -106 34 -141t104 -35q32 0 62.5 10t45.5 23q6 70 6 331q-40 21 -96 21q-35 0 -60.5 -8t-48.5 -29t-35 -64t-12 -108z" />
<glyph unicode="&#xe3;" horiz-adv-x="724" d="M57 1253q94 154 232 154q29 0 53 -15.5t38 -33.5t37 -33.5t50 -15.5q33 0 57.5 12.5t34.5 27.5t20.5 27.5t20.5 12.5q16 0 30.5 -23.5t21.5 -46.5l7 -23q-6 -11 -22.5 -31.5t-44.5 -47t-69.5 -45.5t-84.5 -19q-37 0 -64 15.5t-39 33.5t-31.5 33.5t-43.5 15.5t-45.5 -12.5 t-33 -27.5t-23.5 -27.5t-21 -12.5q-20 0 -40 20.5t-30 40.5zM59 291q0 69 10.5 123.5t30.5 90.5t44.5 60.5t57 37.5t63.5 18.5t69 5.5q94 0 149 -27v162q0 70 -31 96.5t-96 26.5q-75 0 -150 -13.5t-122 -33.5q-23 45 -23 96q0 41 23 55q30 20 118 37.5t195 17.5 q133 0 192.5 -56.5t59.5 -192.5v-109q0 -450 -12 -637q-115 -69 -285 -69q-51 -1 -88.5 4t-78.5 23.5t-66.5 51t-42.5 91.5t-17 141zM231 295q0 -106 34 -141t104 -35q32 0 62.5 10t45.5 23q6 70 6 331q-40 21 -96 21q-35 0 -60.5 -8t-48.5 -29t-35 -64t-12 -108z" />
<glyph unicode="&#xe4;" horiz-adv-x="724" d="M59 291q0 69 10.5 123.5t30.5 90.5t44.5 60.5t57 37.5t63.5 18.5t69 5.5q94 0 149 -27v162q0 70 -31 96.5t-96 26.5q-75 0 -150 -13.5t-122 -33.5q-23 45 -23 96q0 41 23 55q30 20 118 37.5t195 17.5q133 0 192.5 -56.5t59.5 -192.5v-109q0 -450 -12 -637 q-115 -69 -285 -69q-51 -1 -88.5 4t-78.5 23.5t-66.5 51t-42.5 91.5t-17 141zM152 1294q0 55 22.5 86t67.5 31q46 0 64 -25.5t16 -87.5q0 -60 -23.5 -93.5t-67.5 -33.5q-40 2 -59.5 29.5t-19.5 93.5zM231 295q0 -106 34 -141t104 -35q32 0 62.5 10t45.5 23q6 70 6 331 q-40 21 -96 21q-35 0 -60.5 -8t-48.5 -29t-35 -64t-12 -108zM395 1294q0 55 22.5 86t67.5 31t62.5 -25.5t17.5 -87.5q-3 -127 -90 -127q-41 2 -61 29.5t-19 93.5z" />
<glyph unicode="&#xe5;" horiz-adv-x="724" d="M59 291q0 69 10.5 123.5t30.5 90.5t44.5 60.5t57 37.5t63.5 18.5t69 5.5q94 0 149 -27v162q0 70 -31 96.5t-96 26.5q-75 0 -150 -13.5t-122 -33.5q-23 45 -23 96q0 41 23 55q30 20 118 37.5t195 17.5q133 0 192.5 -56.5t59.5 -192.5v-109q0 -450 -12 -637 q-115 -69 -285 -69q-51 -1 -88.5 4t-78.5 23.5t-66.5 51t-42.5 91.5t-17 141zM160 1309q0 100 53.5 150t151.5 50q100 0 145 -43.5t45 -154.5q0 -99 -52 -149t-151 -50q-97 0 -144.5 44t-47.5 153zM231 295q0 -106 34 -141t104 -35q32 0 62.5 10t45.5 23q6 70 6 331 q-40 21 -96 21q-35 0 -60.5 -8t-48.5 -29t-35 -64t-12 -108zM279 1307q0 -40 19.5 -62t55.5 -22q84 0 84 88q0 45 -17.5 64.5t-53.5 19.5q-88 0 -88 -88z" />
<glyph unicode="&#xe6;" horiz-adv-x="1193" d="M59 303q0 350 269 350q102 0 155 -26v147q0 69 -36.5 96t-102.5 27q-154 0 -258 -55q-20 37 -20 98q0 29 20 49q33 22 114.5 38.5t202.5 16.5q85 0 133.5 -27t69.5 -89q42 69 103 92.5t147 23.5q260 0 260 -325q0 -166 -22 -268q-102 -13 -179 -13q-120 0 -251 23 q0 -86 7.5 -144.5t20 -93t36.5 -53t48.5 -24t63.5 -5.5q138 0 250 64q14 -43 14 -148q0 -14 -37.5 -31.5t-105.5 -30.5t-140 -13q-139 0 -203 59q-96 -59 -278 -59q-42 0 -72 3.5t-65 14t-58.5 32.5t-44.5 56.5t-31 88.5t-10 126zM231 305q0 -61 9 -99.5t28.5 -56.5t41 -24 t55.5 -6t70.5 9.5t47.5 23.5v360q-39 16 -96 16q-72 0 -114 -48.5t-42 -174.5zM668 594q119 -27 206 -27q38 0 72 6q10 46 10 127q-2 114 -26.5 156.5t-91.5 42.5q-148 0 -170 -305z" />
<glyph unicode="&#xe7;" horiz-adv-x="641" d="M63 489q0 102 12 185t31.5 140t48.5 99.5t59.5 67t69.5 39.5t72.5 19.5t73.5 4.5q73 0 122.5 -26.5t49.5 -65.5q0 -47 -18 -92q-72 39 -146 39q-32 0 -57.5 -7t-54.5 -32.5t-48 -68.5t-32 -120.5t-13 -183.5q0 -142 21 -222t59.5 -109t104.5 -29q98 0 164 47 q16 -59 16 -90q0 -42 -63 -72.5t-158 -31.5l-21 -101q2 2 35 2q43 0 73 -32.5t30 -98.5q0 -78 -46 -125t-118 -47q-28 0 -57 7t-43 13l-15 7q13 70 25 84q6 5 19 -0.5t33.5 -14t39.5 -8.5q65 0 65 70q0 69 -61 69q-24 0 -45.5 -3t-30.5 -6l-10 -3l35 193q-56 10 -95.5 38 t-69 85t-43.5 150.5t-14 229.5z" />
<glyph unicode="&#xe8;" horiz-adv-x="739" d="M61 459q0 148 21 257t54 170.5t83 98.5t97 48t108 11q260 0 260 -327q0 -164 -22 -266q-165 -33 -431 -33q6 -160 50.5 -219.5t142.5 -59.5q120 0 233 66q15 -49 15 -113q0 -47 -83.5 -79.5t-199.5 -32.5q-61 0 -107.5 11t-89.5 42.5t-70.5 83.5t-44 138.5t-16.5 203.5z M207 1341q7 43 29 84t47 41q8 0 55.5 -36.5t112 -95.5t106.5 -109q-1 -4 -3 -10t-8 -22t-13 -28t-17.5 -22t-21.5 -10q-56 31 -159.5 105.5t-127.5 102.5zM231 551q187 -5 283 22q10 46 10 123q-2 114 -26.5 158.5t-91.5 44.5q-35 0 -62.5 -15.5t-52 -53t-40 -108 t-20.5 -171.5z" />
<glyph unicode="&#xe9;" horiz-adv-x="739" d="M61 459q0 148 21 257t54 170.5t83 98.5t97 48t108 11q260 0 260 -327q0 -164 -22 -266q-165 -33 -431 -33q6 -160 50.5 -219.5t142.5 -59.5q120 0 233 66q15 -49 15 -113q0 -47 -83.5 -79.5t-199.5 -32.5q-61 0 -107.5 11t-89.5 42.5t-70.5 83.5t-44 138.5t-16.5 203.5z M207 1239q65 73 162.5 156.5t111.5 83.5q27 0 48 -40.5t28 -84.5q-25 -28 -129 -103t-158 -104q-16 0 -32 23t-24 46zM231 551q187 -5 283 22q10 46 10 123q-2 114 -26.5 158.5t-91.5 44.5q-35 0 -62.5 -15.5t-52 -53t-40 -108t-20.5 -171.5z" />
<glyph unicode="&#xea;" horiz-adv-x="739" d="M61 459q0 148 21 257t54 170.5t83 98.5t97 48t108 11q260 0 260 -327q0 -164 -22 -266q-165 -33 -431 -33q6 -160 50.5 -219.5t142.5 -59.5q120 0 233 66q15 -49 15 -113q0 -47 -83.5 -79.5t-199.5 -32.5q-61 0 -107.5 11t-89.5 42.5t-70.5 83.5t-44 138.5t-16.5 203.5z M109 1198l235 252q15 6 35 6q27 0 51 -24q4 -4 11 -11.5t28 -29t39.5 -42t41.5 -46.5t39.5 -46t28 -37t11.5 -24q0 -21 -35 -34t-82 -13q-108 109 -135 158q-5 -6 -13 -16.5t-30.5 -37.5t-41.5 -47.5t-39 -37.5t-30 -17q-74 0 -114 47zM231 551q187 -5 283 22q10 46 10 123 q-2 114 -26.5 158.5t-91.5 44.5q-35 0 -62.5 -15.5t-52 -53t-40 -108t-20.5 -171.5z" />
<glyph unicode="&#xeb;" horiz-adv-x="739" d="M61 459q0 148 21 257t54 170.5t83 98.5t97 48t108 11q260 0 260 -327q0 -164 -22 -266q-165 -33 -431 -33q6 -160 50.5 -219.5t142.5 -59.5q120 0 233 66q15 -49 15 -113q0 -47 -83.5 -79.5t-199.5 -32.5q-61 0 -107.5 11t-89.5 42.5t-70.5 83.5t-44 138.5t-16.5 203.5z M164 1294q0 55 22.5 86t67.5 31q44 0 62 -25.5t18 -87.5q-3 -127 -92 -127q-81 3 -78 123zM231 551q187 -5 283 22q10 46 10 123q-2 114 -26.5 158.5t-91.5 44.5q-35 0 -62.5 -15.5t-52 -53t-40 -108t-20.5 -171.5zM406 1294q3 117 92 117q44 0 61.5 -25.5t15.5 -87.5 q0 -60 -23 -93.5t-65 -33.5q-42 2 -61.5 29.5t-19.5 93.5z" />
<glyph unicode="&#xec;" horiz-adv-x="358" d="M16 1341q7 43 29 84t49 41q8 0 55 -36.5t111.5 -95.5t106.5 -109q-1 -4 -3 -10t-8.5 -22t-13.5 -28t-17.5 -22t-21.5 -10q-56 31 -159.5 105.5t-127.5 102.5zM96 0v948q0 54 29 65t137 11v-991q0 -25 -21 -29t-145 -4z" />
<glyph unicode="&#xed;" horiz-adv-x="358" d="M16 1239q65 73 163 156.5t112 83.5q27 0 49 -41t27 -84q-25 -28 -129 -103t-158 -104q-16 0 -32 23t-24 46zM96 0v948q0 54 29 65t137 11v-991q0 -25 -21 -29t-145 -4z" />
<glyph unicode="&#xee;" horiz-adv-x="358" d="M-80 1198l234 252q15 6 34 6q28 0 52 -24q4 -4 11 -11.5t28 -29t39.5 -42t41.5 -46.5t39 -46t27.5 -37t11.5 -24q0 -21 -34.5 -34t-81.5 -13q-109 109 -136 158q-5 -6 -13 -16.5t-30 -37.5t-40.5 -47.5t-39 -37.5t-30.5 -17q-73 0 -113 47zM96 0v948q0 54 29 65t137 11 v-991q0 -25 -21 -29t-145 -4z" />
<glyph unicode="&#xef;" horiz-adv-x="358" d="M-27 1294q0 55 22.5 86t67.5 31q44 0 62 -25.5t18 -87.5q0 -61 -23 -94t-67 -33q-41 2 -61 29.5t-19 93.5zM96 0v948q0 54 29 65t137 11v-991q0 -25 -21 -29t-145 -4zM215 1294q3 117 92 117q45 0 62.5 -25.5t17.5 -87.5q-3 -127 -90 -127q-41 2 -61.5 29.5t-20.5 93.5z " />
<glyph unicode="&#xf0;" horiz-adv-x="835" d="M61 526q0 248 88 382t240 134q113 0 180 -61q-37 142 -110 252l-195 -76q-37 95 -37 119q0 20 17 29l118 45q-39 41 -106 98q18 35 51.5 55.5t67.5 20.5q39 0 61 -25q41 -33 90 -86l142 55q37 -95 37 -118q0 -21 -17 -27l-72 -29q162 -263 162 -702q0 -108 -8 -191.5 t-30.5 -165.5t-60.5 -135.5t-101.5 -86.5t-149.5 -33q-190 0 -278.5 125.5t-88.5 420.5zM229 500q0 -381 195 -381q41 0 72.5 16t51.5 49.5t32.5 72t19 96.5t8.5 109.5t2 123.5q0 123 -8 207q-64 102 -168 102q-100 0 -152.5 -110t-52.5 -285z" />
<glyph unicode="&#xf1;" horiz-adv-x="784" d="M92 0v975q64 28 156 48.5t170 20.5q160 0 223.5 -61.5t63.5 -212.5v-737q0 -25 -22.5 -29t-147.5 -4v721q0 102 -24.5 141t-98.5 39q-90 0 -154 -37v-831q0 -25 -22 -29t-144 -4zM92 1253q94 154 232 154q29 0 53 -15.5t38 -33.5t37 -33.5t50 -15.5q33 0 57.5 12.5 t34.5 27.5t20.5 27.5t20.5 12.5q16 0 30.5 -23.5t21.5 -46.5l7 -23q-6 -11 -22.5 -31.5t-44.5 -47t-69.5 -45.5t-84.5 -19q-37 0 -64 15.5t-39 33.5t-31.5 33.5t-43.5 15.5t-45.5 -12.5t-33 -27.5t-23 -27.5t-19.5 -12.5q-21 0 -41.5 20.5t-30.5 40.5z" />
<glyph unicode="&#xf2;" horiz-adv-x="770" d="M55 512q0 532 342 532q84 0 140.5 -24t98 -83t60.5 -162.5t19 -258.5q0 -278 -85 -407t-253 -129q-68 0 -114.5 11t-88.5 43.5t-66.5 91t-38.5 154t-14 232.5zM236 508q0 -124 9 -203t29 -119t44 -53.5t63 -13.5q36 0 62.5 17.5t48 60.5t32.5 123t11 196q0 160 -17 246.5 t-46 114.5t-81 28q-50 0 -82 -31.5t-52.5 -121.5t-20.5 -244zM252 1341q7 43 29 84t49 41q7 0 54.5 -36.5t112 -95.5t107.5 -109q-1 -4 -3 -10t-8.5 -22t-13.5 -28t-18 -22t-22 -10q-56 31 -159.5 105.5t-127.5 102.5z" />
<glyph unicode="&#xf3;" horiz-adv-x="770" d="M55 512q0 532 342 532q84 0 140.5 -24t98 -83t60.5 -162.5t19 -258.5q0 -278 -85 -407t-253 -129q-68 0 -114.5 11t-88.5 43.5t-66.5 91t-38.5 154t-14 232.5zM236 508q0 -124 9 -203t29 -119t44 -53.5t63 -13.5q36 0 62.5 17.5t48 60.5t32.5 123t11 196q0 160 -17 246.5 t-46 114.5t-81 28q-50 0 -82 -31.5t-52.5 -121.5t-20.5 -244zM252 1239q43 49 107.5 107.5t112 95.5t54.5 37q27 0 49 -41t29 -84q-24 -27 -128.5 -102t-158.5 -105q-17 0 -33.5 23t-23.5 46z" />
<glyph unicode="&#xf4;" horiz-adv-x="770" d="M55 512q0 532 342 532q84 0 140.5 -24t98 -83t60.5 -162.5t19 -258.5q0 -278 -85 -407t-253 -129q-68 0 -114.5 11t-88.5 43.5t-66.5 91t-38.5 154t-14 232.5zM156 1198l233 252q15 6 35 6q30 0 51 -24q4 -4 11 -11.5t28 -29t39.5 -42t41.5 -46.5t39.5 -46t28 -37 t11.5 -24q0 -21 -35 -34t-82 -13q-108 109 -135 158q-5 -6 -13 -16.5t-30 -37.5t-41 -47.5t-39.5 -37.5t-30.5 -17q-72 0 -112 47zM236 508q0 -124 9 -203t29 -119t44 -53.5t63 -13.5q36 0 62.5 17.5t48 60.5t32.5 123t11 196q0 160 -17 246.5t-46 114.5t-81 28 q-50 0 -82 -31.5t-52.5 -121.5t-20.5 -244z" />
<glyph unicode="&#xf5;" horiz-adv-x="770" d="M55 512q0 532 342 532q84 0 140.5 -24t98 -83t60.5 -162.5t19 -258.5q0 -278 -85 -407t-253 -129q-68 0 -114.5 11t-88.5 43.5t-66.5 91t-38.5 154t-14 232.5zM115 1253q94 154 231 154q29 0 53 -15.5t37.5 -33.5t36.5 -33.5t51 -15.5q33 0 57 12.5t34 27.5t21 27.5 t21 12.5q16 0 31 -23.5t22 -46.5l7 -23q-6 -11 -22.5 -31.5t-44.5 -47t-69.5 -45.5t-84.5 -19q-37 0 -64 15.5t-39.5 33.5t-32.5 33.5t-45 15.5q-31 0 -55 -20t-39.5 -40t-25.5 -20q-20 0 -40 20.5t-30 40.5zM236 508q0 -124 9 -203t29 -119t44 -53.5t63 -13.5 q36 0 62.5 17.5t48 60.5t32.5 123t11 196q0 160 -17 246.5t-46 114.5t-81 28q-50 0 -82 -31.5t-52.5 -121.5t-20.5 -244z" />
<glyph unicode="&#xf6;" horiz-adv-x="770" d="M55 512q0 532 342 532q84 0 140.5 -24t98 -83t60.5 -162.5t19 -258.5q0 -278 -85 -407t-253 -129q-68 0 -114.5 11t-88.5 43.5t-66.5 91t-38.5 154t-14 232.5zM209 1294q0 55 22.5 86t67.5 31t62.5 -25.5t17.5 -87.5q0 -61 -23 -94t-67 -33q-40 2 -60 29.5t-20 93.5z M236 508q0 -124 9 -203t29 -119t44 -53.5t63 -13.5q36 0 62.5 17.5t48 60.5t32.5 123t11 196q0 160 -17 246.5t-46 114.5t-81 28q-50 0 -82 -31.5t-52.5 -121.5t-20.5 -244zM451 1294q3 117 92 117q45 0 62.5 -25.5t17.5 -87.5q-3 -127 -91 -127q-41 2 -61 29.5t-20 93.5z " />
<glyph unicode="&#xf7;" d="M70 506q0 88 5 115.5t29 27.5h682q0 -88 -4.5 -115.5t-27.5 -27.5h-684zM326 270q0 44 26.5 74.5t73.5 30.5q102 0 102 -105q0 -44 -28 -74t-74 -30q-55 0 -77.5 26t-22.5 78zM326 874q0 44 26.5 74.5t73.5 30.5q102 0 102 -105q0 -44 -28 -74t-74 -30q-55 0 -77.5 26 t-22.5 78z" />
<glyph unicode="&#xf8;" horiz-adv-x="843" d="M35 16q0 10 94 172q-31 118 -31 324q0 532 338 532q156 0 226 -86q63 103 69 111q11 -3 26.5 -8.5t41.5 -23.5t26 -36q0 -17 -96 -190q27 -111 27 -295q0 -278 -83.5 -407t-248.5 -129q-82 0 -138.5 17t-95.5 62q-11 -20 -26.5 -47t-25 -44t-11.5 -21q-34 5 -63 24 t-29 45zM276 508q0 -40 5 -148l262 467q-16 42 -43 58t-68 16q-37 0 -63.5 -17t-48.5 -59t-33 -121.5t-11 -195.5zM307 207q18 -51 45.5 -69.5t71.5 -18.5q35 0 61.5 18t48 60.5t33 122.5t11.5 196q0 83 -7 158q-145 -262 -229 -406q-7 -13 -19.5 -34t-15.5 -27z" />
<glyph unicode="&#xf9;" horiz-adv-x="796" d="M92 319v672v1q0 24 21 28t149 4v-719q0 -103 27.5 -142.5t111.5 -39.5t138 39v829q0 25 21.5 29t144.5 4v-971q-136 -73 -308 -73q-91 0 -150.5 20t-93.5 64.5t-47.5 104.5t-13.5 150zM238 1341q5 43 26.5 84t48.5 41q8 0 55.5 -36.5t112 -95.5t107.5 -109q-1 -4 -3 -10 t-8.5 -22t-14 -28t-18 -22t-20.5 -10q-55 30 -158.5 104.5t-127.5 103.5z" />
<glyph unicode="&#xfa;" horiz-adv-x="796" d="M92 319v672v1q0 24 21 28t149 4v-719q0 -103 27.5 -142.5t111.5 -39.5t138 39v829q0 25 21.5 29t144.5 4v-971q-136 -73 -308 -73q-91 0 -150.5 20t-93.5 64.5t-47.5 104.5t-13.5 150zM238 1239q42 49 106 107.5t111.5 95.5t54.5 37q27 0 49 -41t29 -84 q-24 -27 -128.5 -102t-158.5 -105q-17 0 -33 23t-23 46z" />
<glyph unicode="&#xfb;" horiz-adv-x="796" d="M92 319v672v1q0 24 21 28t149 4v-719q0 -103 27.5 -142.5t111.5 -39.5t138 39v829q0 25 21.5 29t144.5 4v-971q-136 -73 -308 -73q-91 0 -150.5 20t-93.5 64.5t-47.5 104.5t-13.5 150zM139 1198l234 252q15 6 35 6q30 0 51 -24l11.5 -11.5t28 -29t39.5 -42t42 -46.5 t39.5 -46t28 -37t11.5 -24q0 -21 -35.5 -34t-82.5 -13q-108 109 -135 158q-5 -6 -13 -16.5t-30 -37.5t-40.5 -47.5t-38.5 -37.5t-30 -17q-75 0 -115 47z" />
<glyph unicode="&#xfc;" horiz-adv-x="796" d="M92 319v672v1q0 24 21 28t149 4v-719q0 -103 27.5 -142.5t111.5 -39.5t138 39v829q0 25 21.5 29t144.5 4v-971q-136 -73 -308 -73q-91 0 -150.5 20t-93.5 64.5t-47.5 104.5t-13.5 150zM193 1294q3 117 90 117q45 0 63 -25.5t16 -87.5q0 -61 -23 -94t-67 -33 q-40 2 -59.5 29.5t-19.5 93.5zM436 1294q0 55 22.5 86t67.5 31t62.5 -25.5t17.5 -87.5q-3 -127 -90 -127q-41 2 -61 29.5t-19 93.5z" />
<glyph unicode="&#xfd;" horiz-adv-x="731" d="M-8 -315q0 57 24 92q46 -31 129 -31q53 0 90.5 50t59.5 171l-246 1012q-9 34 11.5 39.5t148.5 5.5l113 -492q15 -72 28.5 -162.5t19.5 -145.5l7 -54q20 199 49 365l92 442q6 35 29 41t149 6l-252 -1079q-45 -193 -108.5 -266.5t-177.5 -73.5q-166 0 -166 80zM203 1239 q65 73 162.5 156.5t111.5 83.5q27 0 48 -40.5t28 -84.5q-25 -28 -129 -103t-158 -104q-16 0 -32 23t-24 46z" />
<glyph unicode="&#xfe;" horiz-adv-x="786" d="M94 -340v1770q0 54 28.5 64.5t137.5 10.5v-477q60 14 133 14q80 0 138.5 -19.5t104 -66.5t68.5 -132t23 -210q0 -157 -21.5 -275.5t-53 -185t-76 -107.5t-82 -53.5t-78.5 -12.5q-103 0 -156 53v-430q-44 -13 -98 -13q-42 0 -55 13.5t-13 56.5zM260 180q33 -59 105 -59 q23 1 44.5 10t47.5 39.5t44.5 79.5t31 139.5t12.5 210.5q0 76 -7 130t-19.5 87t-33.5 51t-44 24.5t-56 6.5q-69 0 -125 -43v-676z" />
<glyph unicode="&#xff;" horiz-adv-x="731" d="M-8 -315q0 57 24 92q46 -31 129 -31q53 0 90.5 50t59.5 171l-246 1012q-9 34 11.5 39.5t148.5 5.5l113 -492q15 -72 28.5 -162.5t19.5 -145.5l7 -54q20 199 49 365l92 442q6 35 29 41t149 6l-252 -1079q-45 -193 -108.5 -266.5t-177.5 -73.5q-166 0 -166 80zM160 1294 q0 55 22.5 86t67.5 31q44 0 62 -25.5t18 -87.5q-3 -127 -92 -127q-81 3 -78 123zM401 1294q2 55 25 86t68 31q44 0 61.5 -25.5t15.5 -87.5q0 -60 -23 -93.5t-65 -33.5q-42 2 -62 29.5t-20 93.5z" />
<glyph unicode="&#x152;" horiz-adv-x="1212" d="M55 723q0 267 42.5 428t126 231t218.5 70q154 0 232 -84v33q0 4 1.5 9.5t9.5 14.5t22 9h464v-12q0 -96 -4 -117t-26 -21h-330v-428h311q0 -102 -4 -126.5t-26 -24.5h-281v-555h352q0 -108 -3.5 -129t-26.5 -21h-459v84q-84 -102 -248 -102q-138 0 -216 64t-116.5 225 t-38.5 452zM240 684q0 -294 42 -417.5t150 -123.5q110 0 151.5 131.5t41.5 452.5t-37 445t-146 124q-108 0 -155 -140.5t-47 -471.5z" />
<glyph unicode="&#x153;" horiz-adv-x="1234" d="M63 512q0 530 338 530q89 0 149.5 -26.5t98.5 -89.5q48 70 114 94t155 24q260 0 260 -325q0 -162 -23 -268q-165 -33 -430 -33q2 -92 13.5 -149t36 -85t52.5 -36.5t74 -8.5q137 0 250 66q14 -46 14 -148q0 -15 -37.5 -32.5t-104.5 -31t-140 -13.5q-92 0 -154 23t-102 87 q-83 -110 -238 -110q-70 0 -117 11t-90 43.5t-67 91t-38 154t-14 232.5zM242 508q0 -124 9 -203t29.5 -119t45 -53.5t63.5 -13.5q35 0 61.5 18t48 60.5t33 122.5t11.5 196q0 160 -17 245t-46.5 111.5t-82.5 26.5q-50 0 -82 -30t-52.5 -119t-20.5 -242zM727 551 q185 -5 281 22q10 46 10 127q-2 113 -27 156t-92 43q-35 0 -62 -15t-52 -51.5t-39.5 -107.5t-18.5 -174z" />
<glyph unicode="&#x178;" horiz-adv-x="745" d="M12 1407q-5 17 6 21q17 6 181 6l82 -281q30 -97 63.5 -240.5t38.5 -189.5q5 45 39.5 189.5t64.5 240.5l72 250q6 23 28.5 27t149.5 4l-276 -844v-557v-1q0 -24 -20.5 -28t-145.5 -4v582zM168 1704q0 55 22.5 86t67.5 31q44 0 62 -25.5t18 -87.5q-3 -127 -92 -127 q-81 3 -78 123zM410 1704q0 55 23.5 86t68.5 31q44 0 62 -25.5t16 -87.5q0 -60 -23 -93.5t-65 -33.5q-42 2 -62 29.5t-20 93.5z" />
<glyph unicode="&#x2c6;" horiz-adv-x="550" d="M16 1198l234 252q15 6 35 6q30 0 51 -24q4 -4 11 -11.5t28 -29t39.5 -42t41.5 -46.5t39.5 -46t28 -37t11.5 -24q0 -21 -35 -34t-82 -13q-108 109 -135 158q-5 -6 -13 -16.5t-30 -37.5t-41 -47.5t-39.5 -37.5t-30.5 -17q-73 0 -113 47z" />
<glyph unicode="&#x2dc;" horiz-adv-x="550" d="M-25 1253q94 154 232 154q49 0 92 -51q17 -17 24.5 -23.5t25 -15t36.5 -8.5q33 0 57 12.5t34 27.5t21 27.5t21 12.5q16 0 31 -23.5t22 -46.5l7 -23q-5 -11 -22 -31.5t-45.5 -47t-70 -45.5t-84.5 -19q-28 0 -51 9.5t-32 18t-27 27.5q-11 14 -18.5 22t-21.5 14.5t-30 6.5 q-24 0 -45 -12.5t-32.5 -27.5t-23 -27.5t-20.5 -12.5q-20 0 -40 20.5t-30 40.5z" />
<glyph unicode="&#x2000;" horiz-adv-x="959" />
<glyph unicode="&#x2001;" horiz-adv-x="1919" />
<glyph unicode="&#x2002;" horiz-adv-x="959" />
<glyph unicode="&#x2003;" horiz-adv-x="1919" />
<glyph unicode="&#x2004;" horiz-adv-x="639" />
<glyph unicode="&#x2005;" horiz-adv-x="479" />
<glyph unicode="&#x2006;" horiz-adv-x="319" />
<glyph unicode="&#x2007;" horiz-adv-x="319" />
<glyph unicode="&#x2008;" horiz-adv-x="239" />
<glyph unicode="&#x2009;" horiz-adv-x="383" />
<glyph unicode="&#x200a;" horiz-adv-x="106" />
<glyph unicode="&#x2010;" horiz-adv-x="569" d="M76 506q0 87 5.5 115t29.5 28h383q0 -87 -5 -115t-28 -28h-385z" />
<glyph unicode="&#x2011;" horiz-adv-x="569" d="M76 506q0 87 5.5 115t29.5 28h383q0 -87 -5 -115t-28 -28h-385z" />
<glyph unicode="&#x2012;" horiz-adv-x="569" d="M76 506q0 87 5.5 115t29.5 28h383q0 -87 -5 -115t-28 -28h-385z" />
<glyph unicode="&#x2013;" horiz-adv-x="868" d="M76 506q0 87 5.5 115t29.5 28h682q0 -87 -5 -115t-28 -28h-684z" />
<glyph unicode="&#x2014;" horiz-adv-x="1433" d="M12 506q0 87 5 115t28 28h1376q0 -88 -4.5 -115.5t-27.5 -27.5h-1377z" />
<glyph unicode="&#x2018;" horiz-adv-x="356" d="M70 1298q0 69 30.5 149.5t66 130.5t54.5 50q55 0 66 -47q-43 -82 -51 -197q47 -31 47 -100q0 -45 -29 -75.5t-74 -30.5q-110 0 -110 120z" />
<glyph unicode="&#x2019;" horiz-adv-x="356" d="M70 1219q20 37 31.5 75.5t14 61t5.5 61.5q-47 27 -47 99q0 46 29 76t73 30q113 0 113 -121q0 -69 -31 -149.5t-67.5 -130.5t-55.5 -50q-51 0 -65 48z" />
<glyph unicode="&#x201a;" horiz-adv-x="348" d="M70 -186q43 77 51 196q-47 27 -47 101q0 45 29 75.5t73 30.5q113 0 113 -121q0 -69 -31 -149.5t-67.5 -130t-55.5 -49.5q-52 0 -65 47z" />
<glyph unicode="&#x201c;" horiz-adv-x="663" d="M70 1298q0 69 30.5 149.5t66 130.5t54.5 50q55 0 66 -47q-43 -82 -51 -197q47 -31 47 -100q0 -45 -29 -75.5t-74 -30.5q-110 0 -110 120zM377 1298q0 69 30.5 149.5t66 130.5t54.5 50q55 0 66 -47q-43 -77 -51 -197q47 -31 47 -100q0 -45 -29 -75.5t-74 -30.5 q-110 0 -110 120z" />
<glyph unicode="&#x201d;" horiz-adv-x="663" d="M70 1219q20 37 31.5 75.5t14 61t5.5 61.5q-47 27 -47 99q0 46 29 76t73 30q113 0 113 -121q0 -69 -31 -149.5t-67.5 -130.5t-55.5 -50q-51 0 -65 48zM377 1219q20 37 31.5 75.5t14 61t5.5 61.5q-47 27 -47 99q0 46 29 76t73 30q113 0 113 -121q0 -69 -31 -149.5 t-67.5 -130.5t-55.5 -50q-54 0 -65 48z" />
<glyph unicode="&#x201e;" horiz-adv-x="657" d="M70 -186q43 77 51 196q-47 27 -47 101q0 45 29 75.5t73 30.5q113 0 113 -121q0 -69 -31 -149.5t-67.5 -130t-55.5 -49.5q-52 0 -65 47zM377 -186q43 77 51 196q-47 27 -47 101q0 45 29 75.5t73 30.5q113 0 113 -121q0 -69 -31 -149.5t-67.5 -130t-55.5 -49.5 q-54 0 -65 47z" />
<glyph unicode="&#x2022;" horiz-adv-x="456" d="M84 582q0 66 40.5 111.5t108.5 45.5q80 0 117 -42t37 -115q0 -67 -42 -111.5t-112 -44.5q-80 0 -114.5 40t-34.5 116z" />
<glyph unicode="&#x2026;" horiz-adv-x="1067" d="M74 104q0 48 30 82.5t82 34.5q115 0 115 -117q0 -51 -31 -83.5t-84 -32.5q-61 0 -86.5 29t-25.5 87zM420 104q0 48 30 82.5t82 34.5q115 0 115 -117q0 -51 -31 -83.5t-84 -32.5q-61 0 -86.5 29t-25.5 87zM768 104q0 48 30.5 82.5t82.5 34.5q114 0 114 -117 q0 -51 -30.5 -83.5t-83.5 -32.5q-61 0 -87 29t-26 87z" />
<glyph unicode="&#x202f;" horiz-adv-x="383" />
<glyph unicode="&#x2039;" horiz-adv-x="505" d="M37 512q0 31 74.5 159t149.5 241l75 112q28 0 52.5 -21t35.5 -42l10 -21q0 -35 -60 -142t-120 -196l-61 -90q27 -38 68 -96.5t109 -172t68 -147.5q-1 -4 -4 -10.5t-12.5 -23t-19.5 -29t-26.5 -23t-33.5 -10.5q-12 18 -33 48t-73.5 109.5t-92.5 144t-73 127t-33 83.5z" />
<glyph unicode="&#x203a;" horiz-adv-x="505" d="M68 94q0 34 61 138.5t123 191.5l61 88q-27 39 -67 99.5t-107 177t-67 151.5q0 25 24.5 46t49.5 30l24 8l32 -48t72 -110t91 -145t71.5 -127t32.5 -82q0 -33 -75.5 -161t-151.5 -239l-76 -112q-4 1 -10.5 3t-23.5 10.5t-30 18t-23.5 26.5t-10.5 36z" />
<glyph unicode="&#x205f;" horiz-adv-x="479" />
<glyph unicode="&#x20ac;" d="M33 406q0 79 12 108t53 29h111v18q0 71 6 135h-182q0 79 12 108.5t53 29.5h131q16 100 47.5 175.5t68 118.5t83.5 69.5t89 35t91 8.5q53 0 94 -9t63 -22t33 -26.5t11 -24.5q0 -76 -27 -110q-17 13 -57 27t-78 14q-36 0 -67 -9.5t-65.5 -35t-62 -79t-44.5 -132.5h294 q0 -80 -12 -109t-53 -29h-248q-4 -78 -4 -129v-24h250q0 -78 -12.5 -107.5t-53.5 -29.5h-178q7 -68 20.5 -116.5t30.5 -77t42 -44.5t49.5 -21.5t58.5 -5.5q112 0 180 54q25 -48 25 -107q0 -35 -70.5 -70.5t-165.5 -35.5q-61 0 -105.5 9t-88.5 35.5t-73 72.5t-50 123t-29 184 h-182z" />
<glyph unicode="&#x2122;" horiz-adv-x="1032" d="M61 1354v61q0 8 4.5 12.5t9.5 5.5l5 1h389v-60q0 -9 -4.5 -14t-8.5 -6h-5h-138v-553q0 -14 -10.5 -16.5t-73.5 -2.5v572h-168zM520 782v633q1 19 21 19h57l90 -260l39 -111q23 73 33 108l84 244q5 19 18 19h66v-633q0 -14 -11.5 -16.5t-74.5 -2.5l2 228q2 62 16 239 q-44 -146 -51 -164l-57 -153q-3 -8 -11 -8h-43l-59 161l-51 166q1 -10 4.5 -59.5t7 -101t4.5 -78.5v-211q0 -14 -11.5 -16.5t-72.5 -2.5z" />
<glyph unicode="&#x25fc;" horiz-adv-x="1024" d="M0 0v1024h1024v-1024h-1024z" />
<glyph unicode="&#xfb03;" horiz-adv-x="1241" d="M20 885q0 99 5.5 119t37.5 20h99v141q0 338 321 338q119 0 205 -57q88 67 258 67q234 0 234 -100q0 -47 -17 -96q-89 47 -211 47q-49 0 -81.5 -6.5t-65 -27t-48.5 -65.5t-16 -114v-127h144q0 -98 -5 -118.5t-30 -20.5h-109v-852q0 -4 -0.5 -9.5t-8.5 -14.5t-23 -9h-131 v885h-82h-170v-852q0 -4 -1 -9.5t-9 -14.5t-23 -9h-131v885h-142zM326 1024h153h99v125q0 113 30 186q-53 29 -125 29q-21 0 -37.5 -2t-40 -12.5t-40 -28.5t-28 -53.5t-11.5 -83.5v-160zM979 0v948q0 54 29 65t137 11v-991q0 -25 -20.5 -29t-145.5 -4z" />
<glyph unicode="&#xfb04;" horiz-adv-x="1261" d="M20 885q0 99 5.5 119t37.5 20h99v141q0 338 321 338q111 0 203 -55q74 65 213 65q153 0 266 -67v-2v-1411v-1q0 -24 -20.5 -28t-143.5 -4v1350q-35 14 -92 14q-35 0 -60 -5.5t-52 -23.5t-41.5 -59.5t-14.5 -104.5v-147h144q0 -52 -1 -77.5t-5 -40.5t-10 -18t-19 -3h-109 v-852q0 -4 -0.5 -9.5t-8.5 -14.5t-23 -9h-131v885h-82h-170v-852q0 -4 -1 -9.5t-9 -14.5t-23 -9h-131v885h-142zM326 1024h168h84v125q0 110 28 186q-53 29 -123 29q-21 0 -37.5 -2t-40 -12.5t-40 -28.5t-28 -53.5t-11.5 -83.5v-160z" />
</font>
</defs>
</svg>
