<?xml version="1.0" standalone="no"?>
<!DOCTYPE svg PUBLIC "-//W3C//DTD SVG 1.1//EN" "http://www.w3.org/Graphics/SVG/1.1/DTD/svg11.dtd" >
<svg xmlns="http://www.w3.org/2000/svg">
<metadata></metadata>
<defs>
<font id="yanone_kaffeesatzlight" horiz-adv-x="897" >
<font-face units-per-em="2048" ascent="1638" descent="-410" />
<missing-glyph horiz-adv-x="364" />
<glyph unicode="&#xfb01;" horiz-adv-x="806" d="M23 942q0 59 3.5 70.5t24.5 11.5h133v133q0 69 11 124.5t29 92t46 64t55.5 42t64.5 23t66 11t66 2.5q91 0 144 -18t53 -48q0 -28 -10 -55q-93 35 -187 35q-41 0 -70.5 -4t-65 -20t-57.5 -44.5t-37.5 -81.5t-15.5 -127v-129h185q0 -57 -4 -69.5t-23 -12.5h-158v-917 q0 -3 -0.5 -7t-7 -11t-18.5 -7h-66v942h-161zM592 0v977q0 33 16.5 40t75.5 7v-999q0 -19 -11 -22t-81 -3z" />
<glyph unicode="&#xfb02;" horiz-adv-x="827" d="M20 942q0 58 4 70t25 12h133v133q0 95 21.5 164t51 104.5t74 56t77.5 25t75 4.5q130 0 221 -51v-1435q1 -25 -24 -25h-68v1409q-58 21 -125 21q-22 0 -37 -1t-39.5 -6.5t-40.5 -15.5t-35.5 -29.5t-31 -47.5t-19.5 -71t-8 -98v-137h220q0 -57 -4 -69.5t-23 -12.5h-193 v-917q1 -25 -24 -25h-68v942h-162z" />
<glyph horiz-adv-x="0" />
<glyph horiz-adv-x="682" />
<glyph unicode="&#xd;" horiz-adv-x="364" />
<glyph unicode=" "  horiz-adv-x="364" />
<glyph unicode="&#x09;" horiz-adv-x="364" />
<glyph unicode="&#xa0;" horiz-adv-x="364" />
<glyph unicode="!" horiz-adv-x="382" d="M113 72q0 35 21 59.5t56 24.5q37 0 58.5 -24t21.5 -60q0 -34 -22.5 -58t-57.5 -24q-39 0 -58 22t-19 60zM137 373v1048q0 18 23 22.5t92 4.5l-12 -1032q-1 -27 -23 -35t-80 -8z" />
<glyph unicode="&#x22;" horiz-adv-x="481" d="M76 1528q0 73 6 76q6 4 37 4q14 0 34 -1t21 -1q4 -74 -8.5 -237t-20.5 -171q-2 -2 -15 -2.5t-26 0.5h-12q-4 25 -10 141t-6 191zM305 1528q0 73 6 76q6 4 37 4q13 0 34.5 -1t23.5 -1q3 -75 -10 -237.5t-21 -170.5q-2 -2 -15 -2.5t-26 0.5h-12q-4 26 -10.5 141.5 t-6.5 190.5z" />
<glyph unicode="#" d="M86 414q0 54 3.5 67t21.5 13h116l15 268h-156q0 54 3.5 67t21.5 13h135l8 155q1 18 16 21.5t70 3.5l-10 -180h245l9 155q1 18 16.5 21.5t69.5 3.5l-8 -180h149q0 -54 -3.5 -67t-21.5 -13h-131l-12 -268h168q0 -54 -3.5 -67t-21.5 -13h-147l-10 -170q-1 -18 -16 -21.5 t-70 -3.5l10 195h-246l-8 -170q-1 -18 -16.5 -21.5t-69.5 -3.5l10 195h-137zM311 494h246l14 268h-245z" />
<glyph unicode="$" d="M145 70q0 11 11 35.5t24 33.5q74 -63 230 -63q129 0 189 63.5t60 175.5q0 70 -32 128.5t-113 134.5l-229 208q-67 64 -100 120t-33 118q0 101 72 164.5t202 73.5v202q0 26 19 34.5t65 8.5v-243q71 -3 126 -17.5t76 -28t21 -20.5q0 -14 -7.5 -36.5t-18.5 -33.5 q-29 20 -87.5 36t-134.5 16q-112 0 -174.5 -39t-62.5 -119q0 -79 112 -186l254 -230q78 -72 110 -139.5t32 -153.5q0 -289 -277 -323v-195q0 -27 -17 -35t-65 -8v234q-80 1 -141.5 18.5t-86 35.5t-24.5 30z" />
<glyph unicode="%" horiz-adv-x="1474" d="M137 1073q0 192 75 284.5t214 92.5q93 0 150.5 -32.5t89.5 -116.5t32 -228q0 -188 -72 -282.5t-208 -94.5q-57 0 -97 8t-77 31.5t-59 65t-35 109t-13 163.5zM227 1063q0 -115 22.5 -180t61 -88t103.5 -23q93 0 145.5 74.5t52.5 226.5q0 117 -22.5 184t-61 91t-100.5 24 q-98 0 -149.5 -71.5t-51.5 -237.5zM262 20l877 1430l15 -5t24.5 -14t15.5 -24q0 -4 -219 -359.5t-437 -709.5l-219 -354q-2 0 -6 1l-14 3.5t-17.5 6t-13.5 10.5t-6 15zM774 360q0 191 76 284t215 93q93 0 150.5 -32.5t89.5 -116.5t32 -228q0 -187 -73 -281.5t-207 -94.5 q-72 0 -119.5 13.5t-87 52.5t-58 115t-18.5 195zM864 348q0 -115 22.5 -180t61 -88t103.5 -23q94 0 146 75.5t52 227.5q0 117 -22.5 183.5t-61 90t-100.5 23.5q-98 0 -149.5 -71.5t-51.5 -237.5z" />
<glyph unicode="&#x26;" horiz-adv-x="1058" d="M80 352q0 121 69 222t170 157q-169 283 -169 432q0 148 94.5 215.5t247.5 67.5q82 0 151 -15t104 -34.5t35 -36.5q0 -36 -20 -66q-109 70 -264 70q-53 0 -94 -8.5t-79.5 -30t-59.5 -65t-21 -107.5q0 -88 85 -246.5t197.5 -312t237.5 -297.5q43 111 43 268t-54.5 276.5 t-138.5 176.5q101 12 211 12q134 0 189 -4q2 -8 2 -41q0 -20 -16 -28.5t-66 -8.5l-168 2q20 -19 39 -47t41 -75t35.5 -119t13.5 -156q0 -195 -61 -334q115 -127 174 -164q-3 -22 -22.5 -47.5t-39.5 -25.5q-28 0 -164 149q-113 -151 -327 -151q-89 0 -156.5 22t-108.5 57 t-66.5 85.5t-34.5 100t-9 107.5zM176 346q0 -51 12 -96t40 -88t85 -68.5t136 -25.5q176 0 268 135q-193 217 -352 459q-82 -45 -135.5 -126.5t-53.5 -189.5z" />
<glyph unicode="'" horiz-adv-x="251" d="M76 1528q0 73 6 76q6 4 37 4q14 0 34 -1t21 -1q4 -74 -8.5 -237t-20.5 -171q-2 -2 -15 -2.5t-26 0.5h-12q-4 25 -10 141t-6 191z" />
<glyph unicode="(" horiz-adv-x="604" d="M145 662q0 137 19 264.5t49 223.5t67.5 180t75 141t70.5 98.5t54 60.5t26 19q19 0 29 -14t20 -48q-41 -45 -78.5 -97.5t-82.5 -139.5t-77.5 -183t-54.5 -228.5t-22 -276.5q0 -155 24 -302.5t59 -254.5t80 -202t82 -151t70 -94q-14 -64 -53 -64q-8 0 -30.5 22t-55.5 68.5 t-69 110.5t-72.5 156t-65 195.5t-46.5 238.5t-18 277z" />
<glyph unicode=")" horiz-adv-x="604" d="M49 -342q35 43 70.5 97t81.5 149.5t81 201t59 253t24 303.5q0 141 -21.5 272.5t-54.5 228.5t-77 184t-83 142t-80 98q8 33 18.5 47.5t30.5 14.5q5 0 26 -19t54 -60t70 -97.5t74 -140.5t67 -180t49 -224.5t19 -265.5q0 -191 -33.5 -370t-82 -300.5t-100.5 -215t-89.5 -138 t-49.5 -44.5q-20 0 -34 18t-19 46z" />
<glyph unicode="*" horiz-adv-x="966" d="M45 1061q-1 38 25 65.5t49 18.5l293 -156v-10q0 -38 -31 -29zM160 596l243 281q10 10 19 10q17 0 31 -21l-205 -319q-7 -12 -21 -12q-18 0 -37.5 19.5t-29.5 41.5zM432 1374q-1 12 10 18.5t29 6.5q31 0 61 -15l-26 -344q-3 -24 -27 -24q-4 0 -20 4zM504 864q0 16 33 27 l229 -301q16 -21 -11 -44t-63 -28l-184 334q-4 8 -4 12zM543 975q0 16 20 26l324 146q15 -9 25 -29t10 -39q0 -25 -19 -30l-346 -105q-14 21 -14 31z" />
<glyph unicode="+" d="M92 535q0 54 3.5 68.5t21.5 14.5h291v293q0 18 15.5 21.5t70.5 3.5v-318h315q0 -54 -3.5 -68.5t-21.5 -14.5h-290v-291q0 -18 -15 -21.5t-71 -3.5v316h-316z" />
<glyph unicode="," horiz-adv-x="364" d="M98 -195q59 102 62 201q-37 21 -37 74q0 33 20 54.5t52 21.5q36 0 53.5 -20t17.5 -70q0 -57 -25.5 -128.5t-56 -118t-47.5 -46.5q-12 0 -24 9.5t-15 22.5z" />
<glyph unicode="-" horiz-adv-x="604" d="M92 535q0 54 4 68.5t23 14.5h391q0 -54 -3.5 -68.5t-21.5 -14.5h-393z" />
<glyph unicode="." horiz-adv-x="364" d="M111 74q0 34 20 58t55 24q38 0 59 -23.5t21 -58.5q0 -36 -22 -60t-58 -24q-75 0 -75 84z" />
<glyph unicode="/" horiz-adv-x="606" d="M20 -41l463 1579q6 20 22.5 24.5t80.5 4.5l-461 -1581q-6 -19 -23.5 -23t-81.5 -4z" />
<glyph unicode="0" d="M80 606q0 309 91 466t290 157q195 0 275.5 -144t80.5 -460q0 -324 -87 -482.5t-286 -158.5q-195 0 -279.5 149t-84.5 473zM176 590q0 -275 64 -397.5t202 -122.5q151 0 216 137t65 424q0 270 -57 392t-201 122q-153 0 -221 -140.5t-68 -414.5z" />
<glyph unicode="1" d="M80 74q0 14 336 14l28 1042q-11 0 -80.5 -13t-133.5 -25l-64 -13q-14 23 -14 70q0 8 168 45t190 37q15 0 31 -8l-27 -1135h193q28 0 55.5 1.5t41.5 2.5l13 2q0 -94 -12 -94h-723q-2 12 -2 74z" />
<glyph unicode="2" d="M80 39q0 13 3.5 25t7.5 19t16 25t20 31q32 51 77.5 109t77.5 93.5t91 100.5q75 81 114.5 128.5t89.5 119t72.5 137.5t22.5 134q0 88 -42.5 133t-156.5 45q-216 0 -336 -82q-12 32 -12 71q0 18 42 41t127 41.5t185 18.5q88 0 146.5 -17t90 -53t44 -82t12.5 -114 q0 -45 -10 -91.5t-24 -84t-42.5 -84.5t-50 -78.5t-62.5 -80.5t-65 -76t-72 -79q-166 -182 -245 -301h420l194 6q0 -94 -12 -94h-717q-6 18 -6 39z" />
<glyph unicode="3" d="M102 -117q0 32 15 72q85 -70 223 -70q160 0 258 123t98 309q0 60 -20 104t-49.5 68.5t-77.5 40t-90.5 21t-102.5 8.5l-4 68q139 78 217 167t78 183q0 27 -7.5 51.5t-27 51.5t-61 43t-100.5 16q-205 0 -330 -84q-10 20 -10 69q0 16 24.5 34t67 34t111 26.5t147.5 10.5 q84 0 142 -19.5t88 -55t42 -74.5t12 -89q0 -191 -251 -368q62 -6 113 -24.5t94.5 -53t67.5 -94t24 -138.5q0 -231 -125.5 -374.5t-333.5 -143.5q-74 0 -129 15t-79 34.5t-24 38.5z" />
<glyph unicode="4" d="M86 397q0 68 67.5 223.5t179.5 330.5t218 270q19 16 45 16q12 0 22 -2.5t15.5 -6t5.5 -5.5v-801l184 2q4 -8 4 -33q0 -57 -30 -57h-158v-297v-4q0 -25 -11.5 -29t-80.5 -4v334h-438q-23 23 -23 63zM170 422h377l16 688q-117 -124 -234 -317t-159 -371z" />
<glyph unicode="5" d="M84 -123q0 46 12 76q79 -70 230 -70q376 0 376 506q0 79 -25 139t-63 93.5t-91 54t-100 27t-99 6.5q-40 0 -81.5 -5t-67 -10.5t-48 -11.5t-23.5 -6l56 553h626q0 -57 -9 -71.5t-46 -14.5l-491 4l-39 -373q4 2 20 5.5t58.5 7.5t95.5 4q57 0 109 -8.5t111.5 -34t102 -67 t71 -115t28.5 -169.5q0 -141 -24.5 -248t-78.5 -188t-146.5 -123.5t-221.5 -42.5q-75 0 -133 15t-83.5 33t-25.5 34z" />
<glyph unicode="6" d="M84 598q0 224 37 390t103 261.5t148.5 141t182.5 45.5q95 0 160 -15.5t65 -42.5q0 -37 -8 -65q-87 35 -221 35q-156 0 -261.5 -165.5t-115.5 -490.5q99 203 332 203q144 0 229.5 -97.5t85.5 -299.5q0 -516 -391 -516q-63 0 -113 15.5t-86 42.5t-62.5 70t-42.5 91.5 t-25.5 115t-13 132t-3.5 149.5zM172 582q0 -94 6 -165.5t22.5 -139.5t45 -112t75.5 -70.5t111 -26.5q144 0 221.5 109.5t77.5 297.5q0 167 -64.5 250.5t-185.5 83.5q-94 0 -174.5 -58.5t-134.5 -168.5z" />
<glyph unicode="7" d="M111 1229h737q-434 -673 -580 -1401q-94 0 -94 25q84 397 232.5 739.5t298.5 552.5q-5 0 -88 -0.5t-216 -1t-260 -0.5q-30 0 -30 86z" />
<glyph unicode="8" d="M88 371q0 133 77 241t193 162q-103 57 -133 82q-61 43 -92 108.5t-31 137.5q0 86 29 153.5t79 108t112 61.5t133 21q52 0 96.5 -7t94 -28.5t84 -56.5t57 -96t22.5 -142q0 -64 -22 -120t-62 -99t-80 -73.5t-92 -59.5q85 -49 133 -92q68 -59 103.5 -129.5t35.5 -171.5 q0 -182 -90.5 -285.5t-265.5 -103.5q-189 0 -285 105.5t-96 283.5zM176 373q0 -136 74.5 -219.5t214.5 -83.5q130 0 201 81.5t71 219.5q0 89 -34.5 148.5t-96.5 109.5q-44 40 -151 98q-119 -42 -199 -138t-80 -216zM193 1108q0 -131 124 -215q9 -7 20.5 -14.5t28.5 -16.5 t28.5 -15t36 -18.5t34.5 -17.5q112 51 185 128t73 173q0 60 -17 105.5t-42.5 71.5t-61.5 42t-69 21.5t-70 5.5q-115 0 -192.5 -63t-77.5 -187z" />
<glyph unicode="9" d="M80 729q0 259 96 389.5t295 130.5q86 0 146.5 -25t99.5 -70.5t61 -124.5t30 -171.5t9 -226.5q-1 -428 -130.5 -635t-387.5 -207q-168 0 -168 43q0 24 8 64q65 -19 154 -19q406 0 434 651q-107 -200 -326 -200q-142 0 -231.5 102t-89.5 299zM170 745q0 -164 68.5 -246.5 t185.5 -82.5q183 0 305 223q0 81 -3 140.5t-12 123.5t-27.5 108t-46 80t-70.5 54t-99 18q-147 0 -224 -105t-77 -313z" />
<glyph unicode=":" horiz-adv-x="364" d="M109 74q0 34 20.5 58t54.5 24q38 0 59 -23.5t21 -58.5q0 -36 -22 -60t-58 -24q-75 0 -75 84zM109 793q0 34 20.5 57.5t54.5 23.5q38 0 59 -23t21 -58q0 -36 -22 -60t-58 -24q-75 0 -75 84z" />
<glyph unicode=";" horiz-adv-x="364" d="M92 -195q62 103 62 201q-37 23 -37 74q0 33 19.5 54.5t51.5 21.5q37 0 55.5 -20t18.5 -70q0 -57 -25.5 -128.5t-56 -118t-47.5 -46.5q-12 0 -24.5 9.5t-16.5 22.5zM113 793q0 34 20.5 57.5t54.5 23.5q38 0 59 -23t21 -58q0 -36 -22 -60t-58 -24q-75 0 -75 84z" />
<glyph unicode="&#x3c;" horiz-adv-x="819" d="M94 535q0 34 33 51l553 272q29 -29 33 -61q0 -21 -19 -31l-479 -236l504 -217q0 -33 -14 -54t-29 -21q-17 0 -45 14l-520 227q-17 23 -17 56z" />
<glyph unicode="=" d="M92 360q0 54 3.5 70t21.5 16h692q0 -55 -3.5 -70.5t-21.5 -15.5h-692zM92 707q0 55 3.5 70.5t21.5 15.5h692q0 -55 -3.5 -70.5t-21.5 -15.5h-692z" />
<glyph unicode="&#x3e;" horiz-adv-x="819" d="M100 772q1 33 15 54.5t28 21.5q15 0 47 -14l521 -228q16 -26 16 -55q0 -34 -33 -51l-555 -275q-30 37 -30 64q0 21 18 30l477 236z" />
<glyph unicode="?" horiz-adv-x="606" d="M55 1370q0 28 75 56t163 28q56 0 103.5 -14t90 -45t67 -90.5t24.5 -141.5q0 -61 -14 -117t-43 -107.5t-52 -84t-61 -80.5q-60 -77 -74 -102q-43 -74 -43 -158q0 -26 4 -52.5t7 -41t1 -17.5q-12 -12 -47 -12q-17 0 -37 4q-20 47 -20 119q0 101 51 188q34 55 86 121 q47 62 72 99t49 100.5t24 126.5q0 213 -209 213q-121 0 -206 -64q-11 29 -11 72zM186 74q0 34 21.5 58t56.5 24q37 0 58.5 -23.5t21.5 -58.5q0 -36 -22.5 -60t-57.5 -24q-39 0 -58.5 22.5t-19.5 61.5z" />
<glyph unicode="@" horiz-adv-x="1556" d="M113 543q0 231 52.5 399.5t151 268t227.5 146t294 46.5q315 0 462.5 -161.5t147.5 -518.5q0 -140 -14.5 -254t-36.5 -187t-53.5 -127t-60.5 -82t-63.5 -44t-56 -19.5t-43.5 -3.5q-78 0 -129 51q-75 -52 -235 -55h-11q-55 0 -95 11.5t-75.5 40.5t-54 87.5t-18.5 145.5 q0 82 17 144t45.5 100t71 62t88.5 33t103 9q84 0 125 -14l6 131q4 100 -41.5 138t-136.5 38q-135 0 -227 -51q-10 20 -10 53q3 20 18 33q85 47 250 47q122 0 179.5 -56t53.5 -188l-14 -453q-7 -162 -10 -192q41 -35 92 -35q23 0 49.5 11t63 50.5t65 103.5t48.5 183.5 t20 276.5q0 325 -121 467.5t-403 142.5q-148 0 -260 -41t-196.5 -131.5t-128.5 -246t-44 -372.5q0 -122 9.5 -223.5t26 -180t43 -140.5t56.5 -106.5t70.5 -76.5t81.5 -51.5t93.5 -31t101.5 -15.5t110 -4q162 0 271.5 31.5t207.5 83.5q24 -42 24 -76q0 -10 -22 -25.5 t-66 -33.5t-102 -33t-138.5 -25t-166.5 -10q-70 0 -123.5 3.5t-115.5 15t-108.5 31t-96 54.5t-84.5 83.5t-68 118.5t-52.5 159t-31.5 206.5t-12 258.5zM588 287q0 -66 14 -109.5t41.5 -64.5t57.5 -29t73 -8q59 0 112 24t54 58l12 397q-52 10 -112 10q-57 0 -99.5 -12.5 t-78.5 -42.5t-55 -86t-19 -137z" />
<glyph unicode="A" horiz-adv-x="892" d="M16 0l394 1430q3 12 30 12q23 0 39 -4l395 -1413q3 -6 3 -9q0 -10 -8.5 -14t-30.5 -4q-36 0 -56 2l-110 408h-451l-102 -390q-3 -13 -11 -16.5t-34 -3.5q-33 0 -58 2zM246 496h403l-110 409q-85 316 -93 404q-12 -94 -94 -404z" />
<glyph unicode="B" horiz-adv-x="815" d="M121 0v1399q0 35 51 35h205q51 0 95 -7t91 -27.5t80 -54t54.5 -91t21.5 -132.5q0 -87 -19.5 -152.5t-52 -101.5t-65.5 -54t-68 -23q30 -1 59 -8t65 -27t62 -51.5t44 -87.5t18 -128q0 -89 -15 -162.5t-39 -123.5t-58.5 -87.5t-69 -59t-75.5 -35t-73 -17.5t-65 -4h-246z M213 84h154q60 0 109.5 19t92 62t66.5 123.5t24 192.5q0 71 -15.5 120.5t-38.5 76t-65 40.5t-78 17.5t-95 3.5h-154v-655zM213 823h174q234 0 234 287q0 240 -246 240h-162v-527z" />
<glyph unicode="C" horiz-adv-x="735" d="M84 645q0 152 13 274.5t33.5 205.5t52.5 144t65 95.5t75.5 55t78 26.5t79.5 6q87 0 138 -32.5t51 -67.5t-19 -58q-11 11 -29.5 25t-57 29.5t-75.5 15.5q-51 0 -89.5 -12t-82 -56t-71.5 -119.5t-47 -212t-19 -323.5q0 -141 15 -245.5t38.5 -164t59 -94.5t69 -46t76.5 -11 q68 0 131 32t93 70q18 -36 18 -61q0 -47 -77 -93t-179 -46q-39 0 -68 3.5t-66.5 18.5t-64.5 41.5t-55 76t-46 118.5t-29 172t-11 233z" />
<glyph unicode="D" horiz-adv-x="858" d="M125 0v1399q0 17 10.5 26t40.5 9h203q202 0 300.5 -150t98.5 -491q0 -139 -11 -252t-30.5 -194.5t-49.5 -143t-63.5 -100t-76 -62t-85 -32.5t-93.5 -9h-244zM215 88h154q53 0 93.5 13.5t83 58t70 119.5t45 207t17.5 313q0 294 -71.5 421.5t-231.5 127.5h-160v-1260z" />
<glyph unicode="E" horiz-adv-x="704" d="M125 0v1409q0 3 1 7t8 11t18 7h489q0 -60 -2.5 -73t-15.5 -13h-406v-521h379q0 -31 -0.5 -44.5t-2.5 -25t-6 -14t-12 -2.5h-358v-655h424q0 -60 -3 -73t-20 -13h-493z" />
<glyph unicode="F" horiz-adv-x="679" d="M125 0v1409q0 3 1 7t8 11t18 7h489q0 -59 -2.5 -71.5t-15.5 -12.5h-406v-521h379q0 -57 -3.5 -72.5t-17.5 -15.5h-358v-716q0 -25 -24 -25h-68z" />
<glyph unicode="G" horiz-adv-x="827" d="M84 700q0 182 20.5 316.5t56 217.5t91.5 133t117.5 68.5t142.5 18.5q90 0 151.5 -26.5t61.5 -61.5q0 -33 -14 -61q-72 59 -183 59q-67 0 -118 -17.5t-96 -61.5t-73.5 -118t-44.5 -189.5t-16 -272.5q0 -165 15.5 -283t39.5 -185.5t64 -106t78.5 -49.5t93.5 -11 q71 0 120.5 29.5t63.5 58.5v567h-219v55q0 27 29 27h278v-703q-96 -124 -276 -124q-75 0 -129.5 16t-104.5 62.5t-81 125.5t-49.5 208t-18.5 308z" />
<glyph unicode="H" horiz-adv-x="903" d="M121 0v1409q0 19 12 22t80 3v-607h477v582v1q0 17 12.5 20.5t79.5 3.5v-1409q0 -19 -12 -22t-80 -3v737h-477v-712q0 -19 -11.5 -22t-80.5 -3z" />
<glyph unicode="I" horiz-adv-x="335" d="M121 0v1384q0 37 12.5 43.5t81.5 6.5v-1409q0 -18 -12.5 -21.5t-81.5 -3.5z" />
<glyph unicode="J" horiz-adv-x="610" d="M37 82q0 29 20 59q68 -75 174 -75q38 0 67 10.5t46.5 34t28.5 48t16 65t6.5 72t1.5 81.5v1009q0 36 11.5 42t80.5 6v-1088q0 -49 -3 -87t-11 -83t-25.5 -77.5t-44 -61t-68.5 -43t-97 -14.5q-92 0 -147.5 31.5t-55.5 70.5z" />
<glyph unicode="K" horiz-adv-x="800" d="M121 0v1409q0 19 11.5 22t80.5 3v-621l444 617q20 4 58 4q39 0 39 -19q0 -6 -6 -18l-443 -590q284 -170 451 -776q0 -2 1 -6.5t1 -6.5q0 -20 -37 -20q-39 0 -57 2q-91 282 -171.5 433.5t-173.5 244.5q-43 43 -106 67v-720q0 -19 -11.5 -22t-80.5 -3z" />
<glyph unicode="L" horiz-adv-x="679" d="M121 0v1397q0 28 12.5 32.5t81.5 4.5v-1348h428v-61q0 -25 -27 -25h-495z" />
<glyph unicode="M" horiz-adv-x="1028" d="M121 0v1409q0 25 24 25h60l233 -756l76 -252l72 244l229 739q8 25 25 25h67v-1409q0 -19 -11.5 -22t-78.5 -3v627l12 567q-154 -510 -161 -532l-121 -361q-5 -18 -23 -18h-47l-117 379l-163 528q1 -39 8 -273.5t8 -273.5v-618q0 -18 -12.5 -21.5t-79.5 -3.5z" />
<glyph unicode="N" horiz-adv-x="944" d="M121 0v1409q0 25 24 25h64l250 -570q12 -32 278 -674q-6 215 -6 730v489q0 19 11.5 22t80.5 3v-1409q0 -25 -26 -25h-62l-256 580l-272 667q6 -246 6 -719v-503q0 -19 -11.5 -22t-80.5 -3z" />
<glyph unicode="O" horiz-adv-x="927" d="M84 727q0 389 95.5 558t299.5 169q134 0 212 -69.5t114.5 -226.5t36.5 -429q0 -275 -40.5 -439t-124 -237t-220.5 -73q-135 0 -214.5 67t-119 231t-39.5 449zM184 696q0 -339 63 -480.5t212 -141.5q154 0 220 149t66 508q0 237 -27.5 373.5t-85 196t-155.5 59.5 q-153 0 -223 -152t-70 -512z" />
<glyph unicode="P" horiz-adv-x="763" d="M121 0v1409q0 25 24 25h217q184 0 267.5 -103t83.5 -282q0 -218 -95.5 -325.5t-265.5 -107.5h-139v-591q0 -19 -11.5 -22t-80.5 -3zM213 702h143q258 0 258 355q0 293 -247 293h-154v-648z" />
<glyph unicode="Q" horiz-adv-x="927" d="M84 727q0 389 95.5 558t299.5 169q134 0 212 -69.5t114.5 -226.5t36.5 -429q0 -364 -72 -538t-231 -203q20 -103 49 -142t82 -39q75 0 133 35q16 -16 16 -51q0 -28 -51 -44.5t-115 -16.5q-87 0 -137.5 58t-79.5 192q-127 4 -202.5 74t-112.5 232t-37 441zM184 696 q0 -339 63 -480.5t212 -141.5q154 0 220 149t66 508q0 237 -27.5 373.5t-85 196t-155.5 59.5q-153 0 -223 -152t-70 -512z" />
<glyph unicode="R" horiz-adv-x="778" d="M121 0v1409q-1 25 24 25h217q184 0 267.5 -103t83.5 -282q0 -168 -58.5 -271t-165.5 -141q27 -37 54 -84.5t62 -124t61.5 -181t38.5 -218.5v-6q0 -14 -9 -19t-37 -6l-51 2q-15 133 -44 247t-63 188t-58 115t-46 68q-14 -2 -45 -2h-139v-591q0 -19 -12 -22t-80 -3z M213 702h143q130 0 194 90.5t64 260.5q0 66 -12 117t-39 93t-76.5 64.5t-119.5 22.5h-154v-648z" />
<glyph unicode="S" horiz-adv-x="765" d="M74 84q0 39 30 63q83 -75 236 -75q134 0 198 71.5t64 196.5q0 94 -33 166t-118 160l-228 229q-73 79 -108 146.5t-35 142.5q0 121 90 195.5t248 74.5q65 0 115.5 -8t80.5 -20.5t45 -27.5t15 -30q0 -30 -27 -57q-29 24 -88.5 41.5t-138.5 17.5q-110 0 -177 -50.5 t-67 -133.5q0 -61 29.5 -113t89.5 -115l252 -251q86 -92 118.5 -172t32.5 -187q0 -168 -87 -268t-267 -100q-67 0 -121.5 10.5t-85.5 27t-47 33.5t-16 33z" />
<glyph unicode="T" horiz-adv-x="747" d="M12 1346v63q0 25 27 25h696v-64q0 -24 -26 -24h-293v-1321q0 -19 -12 -22t-80 -3v1346h-312z" />
<glyph unicode="U" horiz-adv-x="956" d="M121 449v958q0 20 11.5 23.5t82.5 3.5v-988q0 -58 3.5 -100t13 -88.5t28.5 -78t49 -58.5t76 -40t107 -13q71 0 143 14.5t108 32.5v1294q0 18 13 21.5t80 3.5v-1385q-44 -28 -141 -48.5t-203 -20.5q-98 0 -167.5 26t-108.5 66t-61 105.5t-28 125.5t-6 146z" />
<glyph unicode="V" horiz-adv-x="862" d="M10 1419q0 15 23 15h69l250 -938q27 -107 88 -410q51 279 82 410l228 901q3 20 8.5 28.5t19.5 8.5h76l-367 -1448q-32 -4 -67 -4q-34 0 -64 118l-342 1297q-4 20 -4 22z" />
<glyph unicode="W" horiz-adv-x="1306" d="M10 1415q0 19 21 19h71l205 -940q12 -60 55 -318q3 -27 9 -57h6q16 184 57 375l168 827q5 20 10 27.5t19 7.5h4h63l191 -862q23 -100 49 -277q10 -70 14 -94h6q1 7 11 67q30 223 45 304l184 903q3 19 9 28t20 9h73l-296 -1448q-8 -1 -19 -2.5t-22 -2.5t-27 -1 q-31 0 -51 100l-174 741q-27 157 -60 365l-55 -361l-178 -839q-36 -4 -74 -4q-29 0 -51 124l-281 1291q0 3 -1 9t-1 9z" />
<glyph unicode="X" horiz-adv-x="874" d="M23 0l356 748l-301 669q-6 11 3 14q12 3 101 3l113 -252q53 -117 151 -361q127 300 154 361l107 235q6 13 18.5 15t87.5 2l-309 -691l344 -720q4 -8 4 -11q0 -12 -16 -12h-95l-149 319q-99 215 -156 349q-8 -16 -35 -78.5t-59.5 -134t-62.5 -133.5l-150 -310 q-7 -12 -25 -12h-81z" />
<glyph unicode="Y" horiz-adv-x="737" d="M12 1417q-1 3 -1 5q0 7 9 9q13 3 95 3l106 -297q44 -116 98 -283t56 -184q1 15 53.5 176t97.5 291l99 278q5 14 18.5 16.5t83.5 2.5l-309 -848v-561q0 -19 -11 -22t-81 -3v584z" />
<glyph unicode="Z" horiz-adv-x="811" d="M55 39q0 18 11 47l571 1262h-453q-76 0 -84 -2v61q0 12 7.5 19.5t19.5 7.5h610q11 -18 11 -35q0 -14 -11 -47l-577 -1266h485q78 0 103 8v-69q0 -25 -25 -25h-649q-19 11 -19 39z" />
<glyph unicode="[" horiz-adv-x="872" d="M328 -406v2053q0 22 12 28t61 6h451q0 -55 -6.5 -68.5t-36.5 -13.5h-389v-1916h430q0 -60 -9.5 -74.5t-35.5 -14.5h-477z" />
<glyph unicode="\" horiz-adv-x="602" d="M23 1538q-6 20 9 24.5t79 4.5l467 -1602q5 -19 -8.5 -22.5t-72.5 -3.5h-8z" />
<glyph unicode="]" horiz-adv-x="872" d="M20 -410q0 55 7 68.5t39 13.5h389v1925h-430q0 42 5 60.5t12.5 22t27.5 3.5h475v-2058q0 -22 -12.5 -28.5t-61.5 -6.5h-451z" />
<glyph unicode="^" horiz-adv-x="880" d="M125 487l321 295l287 -266q17 -14 17 -33q0 -17 -14 -30.5t-34 -14.5l-264 226l-229 -203q-29 -23 -41 -23q-19 0 -30 14.5t-13 34.5z" />
<glyph unicode="_" horiz-adv-x="788" d="M37 -173q0 50 3.5 64.5t20.5 14.5h693q0 -56 -4 -71t-23 -15h-690v7z" />
<glyph unicode="`" horiz-adv-x="526" d="M100 1384q2 20 15.5 48t29.5 28q4 0 47 -33t111.5 -92t122.5 -114q-23 -54 -37 -54q-56 37 -125 88.5t-113 86.5t-51 42z" />
<glyph unicode="a" horiz-adv-x="761" d="M80 283q0 70 12 124.5t35 90t51 59.5t66 36t73.5 16.5t79.5 4.5q110 0 172 -22v186q0 103 -44 139.5t-130 36.5q-96 0 -177.5 -15t-125.5 -36q-12 24 -12 53t14 37q34 20 126 35.5t196 15.5q126 0 186 -56.5t60 -190.5v-127q0 -355 -13 -615q-114 -75 -274 -75h-19 q-38 0 -68 3q-37 4 -78.5 22t-68 49.5t-44 89.5t-17.5 139zM174 285q0 -61 12.5 -104t30 -66t49 -35.5t58 -15.5t67.5 -3q52 0 99.5 16.5t68.5 35.5q10 115 10 407q-62 21 -145 21q-45 0 -76.5 -4t-66.5 -19t-56.5 -42t-36 -75t-14.5 -116z" />
<glyph unicode="b" horiz-adv-x="837" d="M127 41v1417q0 33 16 40t76 7v-549q109 88 268 88q133 -2 204 -91.5t71 -297.5q0 -125 -14 -227t-36 -171t-55.5 -121t-67 -81t-76 -46.5t-77 -23t-74.5 -5.5q-159 0 -235 61zM219 104q47 -41 154 -41q27 0 51.5 4.5t54.5 19.5t54.5 39.5t49.5 67.5t41.5 100.5t27 142 t10.5 188.5q0 186 -50 259.5t-163 73.5q-136 0 -230 -90v-764z" />
<glyph unicode="c" horiz-adv-x="692" d="M88 489q0 102 12 185.5t32 140t50 99t61 67t70 39.5t72.5 19.5t73.5 4.5q68 0 120 -23t52 -54q0 -28 -15 -58q-69 52 -163 52q-41 0 -74.5 -8t-72 -37.5t-64 -79t-43 -140t-17.5 -213.5q0 -103 11.5 -178.5t31 -121.5t50.5 -73.5t65 -37t80 -9.5q63 0 115 20.5t83 49.5 q13 -32 13 -57q0 -34 -69 -65t-167 -31q-59 0 -101 10.5t-83.5 42t-66.5 86.5t-40.5 148t-15.5 222z" />
<glyph unicode="d" horiz-adv-x="833" d="M88 487q0 276 98.5 416.5t253.5 140.5q113 0 176 -47v461q0 33 17 40t76 7v-1464q-115 -61 -287 -61q-43 0 -76 4t-69.5 16.5t-62.5 35t-51.5 60.5t-40.5 90.5t-24.5 128.5t-9.5 172zM186 494q0 -112 12.5 -191.5t32 -125t53 -71t66.5 -33t82 -7.5q116 0 184 43v804 q-33 27 -66 37.5t-87 10.5q-122 0 -199.5 -115t-77.5 -352z" />
<glyph unicode="e" horiz-adv-x="776" d="M84 455q0 153 23 265t57.5 173t86.5 96.5t97 45t103 9.5q256 0 256 -323q0 -145 -17 -238q-184 -35 -429 -35q-42 0 -85 1q1 -98 14 -167.5t33.5 -110.5t55 -64t70 -30t85.5 -7q153 0 252 71q12 -35 12 -65q0 -34 -85 -65t-191 -31q-53 0 -93 6.5t-80.5 24.5t-69 51.5 t-51 85t-33.5 129t-11 178.5zM178 528q46 -1 88 -1q217 0 342 30q8 68 8 141q-2 135 -39.5 199t-132.5 64q-32 0 -57.5 -5t-56.5 -19.5t-55 -45t-45.5 -76.5t-34.5 -119t-17 -168z" />
<glyph unicode="f" horiz-adv-x="503" d="M31 942q0 59 3.5 70.5t24.5 11.5h134v133q0 91 21 158t53 104.5t78 60.5t87 29.5t90 6.5q86 0 129 -17t43 -41q0 -26 -10 -53q-77 25 -154 25q-40 0 -69.5 -4t-65 -20.5t-57.5 -44.5t-37.5 -80.5t-15.5 -125.5v-131h225q0 -58 -3.5 -70t-21.5 -12h-200v-917 q0 -25 -25 -25h-67v942h-162z" />
<glyph unicode="g" horiz-adv-x="831" d="M76 -188q0 70 51 142t123 122q-141 38 -141 104q0 38 38 87.5t93 92.5q-131 78 -131 316q0 180 94 274t241 94q42 0 95 -12h252q10 -15 10 -41q0 -39 -43 -39q-48 0 -127 11q129 -66 129 -263q0 -81 -19 -149t-57.5 -121.5t-104 -84t-151.5 -30.5q-66 0 -125 17 q-40 -30 -69 -66.5t-29 -62.5q0 -53 317 -88q49 -7 85.5 -15t74 -24.5t61.5 -39.5t39 -59t15 -83q0 -58 -25 -110.5t-72.5 -95.5t-125 -68.5t-175.5 -25.5q-97 0 -163.5 18t-100 51t-46.5 68.5t-13 80.5zM168 -174q0 -33 9.5 -56.5t34.5 -44.5t73.5 -31.5t120.5 -10.5 q141 0 220 60t79 140q0 35 -11.5 60.5t-30.5 41.5t-50.5 27t-63 16t-76.5 9q-97 11 -143 20q-65 -43 -113.5 -108t-48.5 -123zM203 676q0 -63 8.5 -108.5t31.5 -88t71 -64.5t120 -22q78 0 132 46t78 117t24 159q0 127 -59.5 190.5t-168.5 63.5q-102 0 -169.5 -74.5 t-67.5 -218.5z" />
<glyph unicode="h" horiz-adv-x="823" d="M119 0v1458q0 33 16 40t76 7v-551q120 90 270 90q74 0 123 -18.5t75 -56.5t36 -85.5t10 -115.5v-743q0 -19 -12.5 -22t-81.5 -3v752q0 101 -37.5 152.5t-140.5 51.5q-61 0 -126.5 -22t-115.5 -70v-839q0 -19 -12 -22t-80 -3z" />
<glyph unicode="i" horiz-adv-x="346" d="M117 1300q0 89 59 89q29 0 41 -18t12 -56q0 -90 -59 -90q-53 0 -53 75zM127 0v977q0 33 16 40t76 7v-999q0 -19 -11.5 -22t-80.5 -3z" />
<glyph unicode="j" horiz-adv-x="370" d="M-240 -309q0 29 17 55q86 -57 205 -57q52 0 84 15.5t48.5 51t21.5 78t5 113.5v1030q0 33 15.5 40t74.5 7v-1100q0 -76 -10 -130t-35.5 -100t-75.5 -69.5t-124 -23.5q-103 0 -164.5 27.5t-61.5 62.5zM129 1307q3 82 59 82q30 0 43 -20t13 -62q-3 -82 -62 -82q-53 0 -53 82 z" />
<glyph unicode="k" horiz-adv-x="806" d="M125 0v1458q0 33 16 40t76 7v-598q61 64 146.5 100.5t156.5 36.5q95 0 137.5 -46t42.5 -134q0 -54 -19.5 -104t-45.5 -84t-61.5 -65t-58.5 -45.5t-46 -26.5q36 -2 75 -19t78.5 -50t71 -92.5t43.5 -135.5q6 -46 6 -103q0 -51 -6 -110q-3 -22 -16 -25.5t-86 -3.5 q8 65 8 131q0 102 -25 172q-31 95 -91.5 136.5t-127.5 41.5q-28 0 -49 -6l-133 -49v-401q0 -18 -7 -21q-9 -4 -85 -4zM217 502q385 128 385 342q0 114 -117 114q-143 0 -268 -145v-311z" />
<glyph unicode="l" horiz-adv-x="344" d="M125 0v1458q0 33 16.5 40t75.5 7v-1480q0 -19 -12 -22t-80 -3z" />
<glyph unicode="m" horiz-adv-x="1234" d="M125 0v977q152 67 301 67q150 0 201 -75q56 36 127 55.5t137 19.5q75 0 121.5 -18.5t69.5 -60.5t30.5 -91.5t7.5 -130.5v-718q0 -19 -12 -22t-80 -3v754q0 114 -29 160.5t-118 46.5q-115 0 -209 -64v-872q0 -19 -12 -22t-80 -3v756q0 36 -0.5 55t-3.5 45t-9 38.5 t-16.5 28t-27.5 22t-41 11.5t-56 5q-102 0 -209 -48v-888q0 -18 -12.5 -21.5t-79.5 -3.5z" />
<glyph unicode="n" horiz-adv-x="835" d="M121 0v973q173 71 334 71q83 0 137.5 -17t85.5 -54.5t43 -87.5t12 -125v-735q0 -19 -12.5 -22t-81.5 -3v737q0 123 -37 173.5t-149 50.5q-54 0 -122.5 -13.5t-117.5 -38.5v-884q0 -19 -12 -22t-80 -3z" />
<glyph unicode="o" horiz-adv-x="802" d="M72 510q0 534 342 534q82 0 138.5 -24.5t98 -84t61 -163.5t19.5 -260q0 -532 -340 -532q-65 0 -109.5 10.5t-87 42.5t-67.5 89.5t-40 154t-15 233.5zM170 500q0 -107 10 -184t27.5 -126t46 -78t61.5 -40t78 -11q114 0 177 110.5t63 344.5q0 134 -14.5 223.5t-44.5 137.5 t-69 67t-95 19q-57 0 -99 -23.5t-75 -75.5t-49.5 -143.5t-16.5 -220.5z" />
<glyph unicode="p" horiz-adv-x="831" d="M125 -367v1328q128 83 295 83q66 0 116.5 -13t93 -44t70.5 -80.5t43 -124.5t15 -174q0 -115 -13 -209.5t-33.5 -158t-50 -112t-60 -76t-66.5 -44.5t-65 -22.5t-60 -5.5q-64 0 -116 24t-77 55v-454q-21 -8 -49 -8q-43 0 -43 36zM217 170q29 -52 75.5 -78t96.5 -26 q22 0 43.5 4t49.5 17t51.5 35t47.5 61.5t40.5 92.5t27 132t10.5 176q0 111 -15 185.5t-47.5 116t-75.5 58.5t-105 17q-111 0 -199 -56v-735z" />
<glyph unicode="q" horiz-adv-x="847" d="M86 455q0 298 110.5 443.5t301.5 145.5q137 0 225 -65v-1346q0 -26 -9.5 -32.5t-47.5 -6.5q-20 0 -35 3v497q-81 -114 -244 -114q-301 0 -301 475zM186 451q0 -101 16 -175t39.5 -114t57.5 -63.5t61.5 -29.5t61.5 -6q62 0 119.5 35.5t89.5 106.5v717q-49 39 -152 39 q-293 0 -293 -510z" />
<glyph unicode="r" horiz-adv-x="573" d="M121 0v954q129 90 272 90q71 0 110.5 -18t39.5 -47q0 -31 -15 -57q-55 32 -122 32q-115 0 -193 -61v-868q0 -18 -12.5 -21.5t-79.5 -3.5z" />
<glyph unicode="s" horiz-adv-x="772" d="M88 63q0 34 21 58q86 -55 233 -55q113 0 176.5 42.5t63.5 129.5q0 64 -30 114.5t-95 98.5l-224 149q-83 55 -111 103t-28 112q0 106 89.5 167.5t240.5 61.5q66 0 119.5 -11t83.5 -27t45.5 -31.5t15.5 -28.5q0 -22 -24 -53q-109 68 -232 68q-104 0 -170.5 -38.5 t-66.5 -105.5q0 -43 22 -77t86 -76l234 -156q75 -60 110 -120t35 -136q0 -132 -87.5 -202t-246.5 -70q-118 0 -189 24t-71 59z" />
<glyph unicode="t" horiz-adv-x="614" d="M61 940q0 55 4 69.5t19 14.5h135v328q0 29 15 35t77 6v-369h260q0 -72 -7 -80q-4 -4 -13 -4h-240v-641q0 -41 0.5 -65t3.5 -55.5t10 -49t18 -34.5t29 -24.5t42 -7.5q67 0 135 35q8 -21 8 -51q0 -32 -47.5 -49.5t-114.5 -17.5q-31 0 -56 6t-42.5 19t-31 28t-21.5 39.5 t-13.5 46.5t-8 55.5t-3 60.5t-0.5 68v637h-158z" />
<glyph unicode="u" horiz-adv-x="868" d="M129 356v643q0 19 11 22t81 3v-682q0 -162 44.5 -220.5t174.5 -58.5q122 0 209 50v886q0 18 13 21.5t79 3.5v-975q-138 -69 -311 -69q-176 0 -238.5 83t-62.5 293z" />
<glyph unicode="v" horiz-adv-x="739" d="M57 993q-2 6 -2 11q1 12 11 16q14 4 84 4l98 -367q31 -114 63.5 -251.5t48.5 -218.5l17 -81h2q55 296 121 553l88 338q4 20 17 23.5t79 3.5l-272 -1038q-12 -2 -60 -2q-18 0 -45 100z" />
<glyph unicode="w" horiz-adv-x="1140" d="M55 997q-1 4 -1 8q0 13 11 15q14 4 85 4l90 -389q26 -117 52 -245t39 -198l13 -69h6q5 25 101 471l73 369q2 14 9 19t24 5h59l91 -399q26 -103 52.5 -219t40.5 -181l13 -65h6q23 185 94 512l78 362q3 20 15.5 23.5t80.5 3.5q-235 -1038 -239 -1038q-30 -2 -55 -2 q-5 0 -14 13t-20.5 39.5t-19.5 59.5l-34 142q-91 372 -134 593q-45 -258 -125 -593l-59 -252q-50 -2 -68 -2q-19 0 -43 100z" />
<glyph unicode="x" horiz-adv-x="915" d="M51 0l350 541l-299 467q-7 10 4 13q14 3 91 3l114 -172q75 -118 154 -248q54 96 156 250l100 154q8 12 21 14t89 2l-311 -479l338 -518q6 -12 6 -17q0 -7 -19 -8.5t-87 -1.5l-117 176q-43 66 -113 180t-73 119q-149 -240 -189 -301l-102 -154q-7 -14 -24.5 -17t-88.5 -3z " />
<glyph unicode="y" horiz-adv-x="768" d="M8 -342q0 34 19 57q48 -26 120 -26q138 0 203 278l-274 1028q-6 22 5.5 25.5t82.5 3.5l170 -645q16 -64 31.5 -140.5t22.5 -120.5l7 -44q23 157 58 307l151 612q6 22 15 26q11 5 88 5l-279 -1090q-46 -180 -112 -254.5t-166 -74.5q-67 0 -104.5 14t-37.5 39z" />
<glyph unicode="z" horiz-adv-x="768" d="M68 47q0 23 8 39l514 856h-262q-160 0 -248 -10q-2 23 -2 47q0 45 31 45h579q12 -11 12 -31q0 -27 -12 -51l-512 -854h260q176 0 258 14q2 -10 2 -45q0 -32 -7.5 -44.5t-29.5 -12.5h-577q-14 16 -14 47z" />
<glyph unicode="{" horiz-adv-x="591" d="M115 608q0 37 28 56q31 18 43.5 27t30.5 31t24.5 55.5t6.5 84.5q0 93 -15 228q-14 154 -14 196q0 238 318 238q18 -24 18 -56q0 -14 -8 -24t-19 -12q-106 -3 -160.5 -42.5t-54.5 -140.5q0 -49 11 -153q14 -173 14 -252q0 -100 -32.5 -151t-92.5 -77q63 -20 94 -62.5 t31 -127.5q0 -121 -14 -254q-11 -112 -11 -176q0 -42 5.5 -73.5t13.5 -53.5t25.5 -38t32.5 -25t44 -15t49.5 -8.5t59.5 -5.5q4 -32 4 -37q0 -49 -35 -49q-155 0 -224 62t-69 212q0 44 14 203q15 135 15 231q0 81 -32 117.5t-93 48.5q-8 19 -8 43z" />
<glyph unicode="|" horiz-adv-x="747" d="M328 -410v2050q0 21 13 25t79 4v-2052q0 -19 -14.5 -23t-77.5 -4z" />
<glyph unicode="}" horiz-adv-x="591" d="M39 -252q0 32 24 35q107 5 161.5 44t54.5 138q0 48 -11 156q-14 168 -14 250q0 100 32.5 151.5t92.5 75.5q-62 20 -93.5 63.5t-31.5 129.5q0 118 14 251q11 112 11 177q0 37 -3.5 65.5t-12.5 50t-17.5 37t-27 26.5t-32 17.5t-40 11.5t-44.5 7.5t-53 5.5q-4 28 -4 35 q0 49 35 49q155 0 224 -62.5t69 -212.5q0 -30 -15 -200q-14 -126 -14 -234q0 -81 32 -117.5t93 -48.5q8 -19 8 -41q0 -39 -28 -55q-31 -19 -43.5 -28.5t-30.5 -31.5t-24.5 -55.5t-6.5 -83.5q0 -103 14 -229q15 -165 15 -197q0 -237 -318 -237q-16 21 -16 57z" />
<glyph unicode="~" horiz-adv-x="819" d="M27 528q28 47 91.5 88t147.5 41q33 0 62.5 -8.5t46.5 -18t43 -26.5q26 -18 41 -27t43 -17.5t59 -8.5q102 0 166 88q10 10 25 10q14 0 27 -14.5t16 -36.5q-89 -133 -242 -133q-38 0 -72.5 10t-53 20t-46.5 29q-23 15 -38 23.5t-38 16t-47 7.5q-25 0 -48 -6t-44 -18.5 t-33 -21t-30 -24.5t-21 -18q-17 -9 -34 4t-21 41z" />
<glyph unicode="&#xa1;" horiz-adv-x="382" d="M117 958q0 36 22 60t58 24q75 0 75 -84q0 -34 -20.5 -57.5t-54.5 -23.5q-39 0 -59.5 22.5t-20.5 58.5zM135 -406l12 1031q0 27 22 35t79 8v-1047q1 -9 -4 -14.5t-20.5 -8.5t-34 -3.5t-54.5 -0.5z" />
<glyph unicode="&#xa2;" d="M193 459q0 128 17.5 227.5t45 161t68 103.5t80.5 60.5t88 26.5v232q0 28 18.5 36.5t64.5 8.5v-273q59 -3 109.5 -24t50.5 -39q0 -44 -14 -72q-36 25 -68 37t-82 12q-46 0 -81.5 -9t-75.5 -39.5t-66 -83t-43.5 -146.5t-17.5 -223q0 -89 7 -154.5t23.5 -107.5t35.5 -68 t51 -38.5t61 -16.5t74 -4q95 0 184 69q14 -31 14 -61q0 -26 -63 -59.5t-139 -34.5v-228q0 -27 -17.5 -36t-64.5 -9v275q-51 4 -87.5 16t-71 43t-55.5 82t-33.5 135t-12.5 201z" />
<glyph unicode="&#xa3;" horiz-adv-x="798" d="M31 571v7q0 50 3.5 64.5t20.5 14.5h133v13q0 129 16 226.5t44 158t69.5 98t88 52t104.5 14.5q85 0 145 -27.5t60 -63.5q0 -29 -19 -61q-77 59 -176 59q-44 0 -77.5 -10t-65.5 -38.5t-52 -77t-32 -129.5t-12 -191v-23h313q0 -55 -3.5 -70.5t-21.5 -15.5h-288 q0 -259 14 -477l395 -8q8 -21 8 -45q0 -14 -10 -23.5t-30.5 -12.5t-34.5 -4t-39 -1h-377q-19 347 -19 571h-157z" />
<glyph unicode="&#xa4;" horiz-adv-x="1103" d="M35 1038l7 7q45 45 56 45q6 0 15 -9l151 -149q105 108 301 108q185 0 279 -104l166 164q49 -49 49 -64q0 -8 -8 -16l-156 -156q55 -104 55 -268q0 -176 -65 -285l184 -184q-51 -51 -63 -51q-5 0 -17 8l-155 158q-101 -101 -285 -101q-180 0 -279 99l-174 -174 q-45 45 -49 55q-2 4 -2 8t8 16l164 164q-63 111 -63 279q0 166 59 272zM242 573q0 -169 79.5 -259.5t227.5 -90.5q151 0 233 97.5t82 281.5q0 173 -77 266t-218 93q-157 0 -242 -100.5t-85 -287.5z" />
<glyph unicode="&#xa5;" d="M84 1417q-4 11 6 14q12 3 96 3l107 -297q45 -124 97 -281t54 -172q1 14 52.5 167t99.5 286l100 278q5 14 19 16.5t84 2.5l-240 -658h207q0 -47 -7.5 -63.5t-33.5 -16.5h-195l-41 -110v-135h279q0 -46 -8 -63t-33 -17h-238v-346q0 -19 -11.5 -22t-80.5 -3v371h-282 q0 46 8 63t33 17h241v133l-43 112h-239q0 46 8 63t33 17h170z" />
<glyph unicode="&#xa6;" horiz-adv-x="460" d="M184 -397v815q0 21 10 29t37 8q29 0 45 -6v-822q0 -18 -9.5 -24t-37.5 -6q-29 0 -45 6zM184 684v799q0 21 10 29t37 8q26 0 45 -7v-804q0 -19 -9.5 -25t-37.5 -6q-29 0 -45 6z" />
<glyph unicode="&#xa7;" horiz-adv-x="768" d="M104 811q0 60 33 115.5t101 93.5l-21 20q-52 55 -72 93.5t-20 93.5q0 96 81 155.5t216 59.5q90 0 153 -28.5t74 -57.5q4 -8 4 -21q0 -33 -22 -55q-85 66 -207 66q-92 0 -145.5 -36.5t-53.5 -95.5q0 -38 17 -66.5t57 -70.5q16 -16 58 -53t53 -47q114 -94 159 -146 q51 -57 73 -101.5t22 -106.5q0 -58 -34 -114.5t-100 -94.5l23 -23q51 -55 70.5 -92.5t19.5 -91.5q0 -97 -80.5 -156t-216.5 -59q-88 0 -151 28t-76 58q-2 8 -2 18q0 33 22 58q85 -66 207 -66q92 0 144.5 36t52.5 95q0 37 -17 66t-57 71q-4 4 -111 101q-116 96 -159 143 q-51 56 -73 102t-22 109zM193 807q0 -50 17.5 -85.5t57.5 -78.5q28 -33 140 -125q9 -7 28.5 -22.5t28.5 -22.5q47 21 80 68t33 86q0 47 -18.5 83.5t-57.5 80.5q-30 36 -140 122q-9 8 -28.5 24t-28.5 24q-51 -19 -81.5 -65.5t-30.5 -88.5z" />
<glyph unicode="&#xa8;" horiz-adv-x="526" d="M98 1300q0 86 60 86q28 0 40.5 -17.5t12.5 -55.5q0 -86 -59 -86q-54 0 -54 73zM317 1300q0 86 60 86q27 0 39 -17t12 -54q0 -88 -57 -88q-54 0 -54 73z" />
<glyph unicode="&#xa9;" horiz-adv-x="946" d="M82 1106q0 230 105 341.5t298 111.5q97 0 165.5 -22.5t118 -74.5t73.5 -140t24 -216q0 -218 -102.5 -333.5t-290.5 -115.5q-65 0 -115 8t-95.5 27t-77.5 52t-56 82.5t-35.5 119t-11.5 160.5zM158 1098q0 -105 19.5 -176.5t60 -113t95 -59.5t130.5 -18q151 0 239.5 96.5 t88.5 284.5q0 202 -77 287.5t-227 85.5q-158 0 -243.5 -91t-85.5 -296zM307 1079q0 79 12.5 136.5t30.5 89.5t45.5 50.5t51 23.5t53.5 5t62 -12t32 -20q0 -6 -5.5 -26t-8.5 -26q-1 1 -13.5 7.5t-17.5 8.5t-16 4.5t-23 2.5q-18 0 -32 -3t-30.5 -11.5t-28.5 -26t-22.5 -43.5 t-16 -66.5t-5.5 -93.5q0 -61 7 -99t23.5 -56t34.5 -23.5t49 -5.5q39 0 91 27q4 -6 9 -22t5 -21q0 -12 -36.5 -28.5t-76.5 -16.5q-47 0 -74.5 7t-52.5 31t-36 74.5t-11 132.5z" />
<glyph unicode="&#xaa;" horiz-adv-x="694" d="M109 836q0 75 18.5 125.5t55 75.5t77 34.5t96.5 9.5q80 0 148 -22v176q0 43 -13.5 71.5t-38.5 41.5t-48.5 17.5t-55.5 4.5q-112 0 -211 -53q-18 12 -18 47q0 19 8 27q83 63 250 63q209 0 209 -192v-613q-34 -20 -103 -38.5t-143 -18.5q-52 0 -88 8t-71.5 32t-53.5 75 t-18 129zM186 829q0 -50 13 -83.5t38 -50.5t53 -23t66 -6q41 0 84 9.5t64 22.5v287q-67 23 -125 23q-38 0 -62.5 -2.5t-52 -12.5t-42.5 -28.5t-25.5 -52.5t-10.5 -83z" />
<glyph unicode="&#xab;" horiz-adv-x="856" d="M66 522q0 21 77 146.5t153 240.5l77 115q16 0 29.5 -12t19.5 -24l6 -11q0 -20 -68 -133.5t-136 -217.5l-68 -104q280 -426 280 -463q-2 -7 -6.5 -16.5t-17.5 -26t-27 -16.5l-11 16.5l-29 43.5t-43 65t-50 76.5t-53.5 83t-49.5 80t-43 72.5t-29 54t-11 31zM391 512 q0 20 76.5 137t152.5 225l76 107q16 0 30 -11.5t20 -22.5l6 -11q0 -20 -68 -126t-136 -202l-67 -96q279 -375 279 -412q-2 -6 -6.5 -15t-17.5 -24.5t-27 -15.5q-4 5 -11 14.5t-29 38.5t-43 57.5t-49.5 68t-53 74t-49.5 71.5t-43 64.5t-29 49t-11 29.5z" />
<glyph unicode="&#xac;" horiz-adv-x="819" d="M68 555q0 19 9.5 32t24.5 13h627v-373q-28 -8 -45 -8q-19 0 -32 10t-13 27v254h-563q-8 24 -8 45z" />
<glyph unicode="&#xad;" horiz-adv-x="604" d="M92 535q0 54 4 68.5t23 14.5h391q0 -54 -3.5 -68.5t-21.5 -14.5h-393z" />
<glyph unicode="&#xae;" horiz-adv-x="946" d="M82 1106q0 230 105 341.5t298 111.5q97 0 165.5 -22.5t118 -74.5t73.5 -140t24 -216q0 -218 -102.5 -333.5t-290.5 -115.5q-65 0 -115 8t-95.5 27t-77.5 52t-56 82.5t-35.5 119t-11.5 160.5zM158 1098q0 -105 19.5 -176.5t60 -113t95 -59.5t130.5 -18q151 0 239.5 96.5 t88.5 284.5q0 202 -77 287.5t-227 85.5q-158 0 -243.5 -91t-85.5 -296zM348 840v540q0 9 10 9h107q90 0 131 -40.5t41 -107.5q0 -110 -90 -151q84 -90 102 -234q0 -16 -20 -16h-41q-24 162 -105 235h-22h-53v-219q0 -6 -2.5 -9.5t-10.5 -5t-13.5 -1.5h-22.5h-11zM408 1128 l51 -2q116 0 116 115q0 94 -112 94h-55v-207z" />
<glyph unicode="&#xaf;" horiz-adv-x="526" d="M6 1294q3 45 39 45h469q6 -16 6 -43q-3 -47 -37 -47h-473q-4 16 -4 45z" />
<glyph unicode="&#xb0;" horiz-adv-x="770" d="M209 1337q0 91 49.5 137t136.5 46q89 0 130.5 -41t41.5 -140q0 -89 -48 -135.5t-136 -46.5q-87 0 -130.5 38t-43.5 142zM281 1333q0 -55 25.5 -79.5t76.5 -24.5q113 0 113 110q0 61 -24.5 86t-74.5 25q-58 0 -87 -26.5t-29 -90.5z" />
<glyph unicode="&#xb1;" horiz-adv-x="899" d="M92 25q0 54 3.5 69t21.5 15h692q0 -54 -3.5 -69t-21.5 -15h-692zM92 565q0 55 4 70.5t23 15.5h291v291q0 19 15 23t71 4v-318h313q0 -55 -3.5 -70.5t-21.5 -15.5h-288v-289q0 -17 -14.5 -20.5t-64.5 -3.5h-7v313h-318z" />
<glyph unicode="&#xb2;" horiz-adv-x="835" d="M115 629q0 36 18 57q50 53 186 176q47 41 68 59.5t59 55t56 59.5t39.5 55t30 61.5t8.5 59.5q0 68 -36.5 109t-133.5 41q-133 0 -244 -98q-25 31 -25 59q0 23 41.5 53.5t113 54t142.5 23.5q72 0 122 -17t76 -49t37 -69.5t11 -87.5q0 -44 -18 -91t-39.5 -81t-68.5 -83.5 t-73.5 -74.5t-85.5 -78q-106 -94 -151 -143h465q8 -21 8 -41q0 -47 -33 -47h-567q-6 21 -6 37z" />
<glyph unicode="&#xb3;" horiz-adv-x="870" d="M137 666q0 34 29 53q78 -62 221 -62q115 0 183.5 50.5t68.5 136.5q0 60 -40.5 101t-106.5 50q-74 9 -177 9q-10 13 -10 43q0 34 33 34q90 0 145 -8q63 42 90 83.5t27 90.5q0 47 -40.5 84t-133.5 37q-151 0 -252 -84q-20 20 -20 47q0 25 14 35q36 36 109 62t172 26 q131 0 190 -53t59 -133q0 -131 -118 -213q72 -25 112.5 -78t40.5 -123q0 -137 -94.5 -210t-257.5 -73q-83 0 -143.5 18.5t-85.5 43.5q-15 12 -15 33z" />
<glyph unicode="&#xb4;" horiz-adv-x="526" d="M100 1227q54 54 122.5 113t111.5 92.5t47 33.5q16 0 29.5 -27.5t15.5 -47.5q-12 -14 -109.5 -89.5t-179.5 -130.5q-6 0 -15.5 14t-15.5 28z" />
<glyph unicode="&#xb5;" horiz-adv-x="876" d="M129 -391v1384q0 21 10.5 30t34.5 9q31 0 45 -6v-762q0 -101 57 -148.5t158 -47.5q124 0 219 43v882q0 20 9.5 29.5t35.5 9.5q31 0 47 -6v-979q-157 -67 -311 -67q-152 0 -215 81v-426q0 -32 -51 -32q-24 0 -39 6z" />
<glyph unicode="&#xb6;" horiz-adv-x="1124" d="M94 866q0 283 107.5 434.5t300.5 151.5q134 0 235 -53v-1370q0 -21 -12.5 -28t-36.5 -7q-13 0 -43 6v426q-33 -18 -89.5 -28.5t-102.5 -10.5q-57 0 -106 13t-97 47t-81.5 87t-54 138t-20.5 194zM188 872q0 -403 291 -403q39 0 87 10t79 29v831q-55 31 -156 31 q-145 0 -223 -129.5t-78 -368.5zM899 2v1372q0 20 10.5 28.5t36.5 8.5q31 0 45 -6v-1376q0 -20 -9 -26.5t-38 -6.5q-21 0 -45 6z" />
<glyph unicode="&#xb7;" horiz-adv-x="417" d="M125 553q0 34 21 58t55 24q38 0 59 -23.5t21 -58.5q0 -36 -22 -60t-58 -24q-76 0 -76 84z" />
<glyph unicode="&#xb8;" horiz-adv-x="526" d="M156 -367q6 48 20 60q10 6 19 2.5t30.5 -10.5t38.5 -7q72 0 72 74q0 42 -18.5 57t-51.5 15q-18 0 -37.5 -2.5t-30.5 -5.5l-10 -2l39 192h68l-29 -129q6 2 39 2q40 0 69 -27.5t29 -84.5q0 -78 -41.5 -115t-99.5 -37q-25 0 -51.5 4.5t-40.5 8.5z" />
<glyph unicode="&#xb9;" horiz-adv-x="854" d="M137 631q0 25 7 37t26 12h248v672l-262 -56q-13 20 -13 45q0 33 35 45q77 22 176.5 45t120.5 23q27 0 35 -4v-770h205q2 -16 2 -43q0 -24 -6 -34.5t-23 -10.5h-545q-6 18 -6 39z" />
<glyph unicode="&#xba;" horiz-adv-x="720" d="M92 1020q0 222 75 328t206 106q89 0 143 -36.5t83.5 -132.5t29.5 -263q0 -214 -71.5 -321t-205.5 -107q-51 0 -89 10.5t-71.5 38.5t-54.5 75.5t-33 123t-12 178.5zM174 1010q0 -131 21.5 -206t58.5 -102.5t98 -27.5q95 0 146 87.5t51 264.5q0 133 -21 210.5t-57.5 105.5 t-95.5 28q-99 0 -150 -83.5t-51 -276.5z" />
<glyph unicode="&#xbb;" horiz-adv-x="849" d="M96 100q0 16 69.5 119t139.5 198l70 95q1 0 -1 3t-6.5 9.5t-9.5 13.5t-14 19.5t-16 22.5t-27.5 40t-32 46.5t-32 47t-33.5 50t-30.5 46.5t-28 44.5t-20.5 35.5t-15 29.5t-5 16.5q0 15 13.5 26.5t26.5 15.5l14 5q4 -5 11 -14.5t27.5 -39t41 -58.5t48 -69t51.5 -75t48 -72 t41.5 -65t28 -49t10.5 -29q0 -23 -79.5 -140t-159.5 -223l-79 -106q-6 1 -14.5 4.5t-22.5 18t-14 34.5zM412 57q0 16 70.5 132.5t141.5 224.5l70 108q-3 5 -9.5 14.5t-25 37.5t-36.5 56t-43 66.5t-46 72.5t-42.5 70t-37 63t-25 47.5t-9.5 27.5q0 15 14 26.5t28 16.5l15 4 q4 -6 11 -16t27.5 -41.5t41 -62.5t48 -73.5t51.5 -80t48 -77t41.5 -69.5t28 -52t10.5 -30q0 -22 -79 -152.5t-159 -249.5l-79 -120q-2 1 -6 2t-13.5 5.5t-16.5 10.5t-13 16.5t-6 22.5z" />
<glyph unicode="&#xbc;" horiz-adv-x="2043" d="M121 631q0 49 35 49h245v672l-262 -56q-12 18 -12 45q0 33 35 45q80 22 179.5 45t119.5 23q25 0 33 -4v-770h204q4 -32 4 -43q0 -24 -6.5 -34.5t-23.5 -10.5h-545q-6 18 -6 39zM586 20l864 1414q12 20 31 20q36 0 59 -39l-866 -1419q-7 -14 -27 -14q-43 0 -61 38z M1323 195q0 17 16 63q41 128 153.5 302.5t217.5 273.5q26 28 72 28q25 0 37 -6v-612h153q6 -15 6 -45q0 -43 -24 -43h-135v-131q0 -35 -52 -35q-8 0 -36 4v162h-394q-14 21 -14 39zM1419 240h314v499q-83 -78 -179.5 -224.5t-134.5 -274.5z" />
<glyph unicode="&#xbd;" horiz-adv-x="2029" d="M121 631q0 49 35 49h245v672l-262 -56q-12 18 -12 45q0 33 35 45q80 22 179.5 45t119.5 23q25 0 33 -4v-770h204q4 -32 4 -43q0 -24 -6.5 -34.5t-23.5 -10.5h-545q-6 18 -6 39zM586 20l864 1414q12 20 31 20q36 0 59 -39l-866 -1419q-7 -14 -27 -14q-43 0 -61 38z M1323 37q0 36 18 57q56 60 189 176q52 46 80.5 71.5t68 66.5t59.5 71t35 68t15 74q0 68 -36.5 108.5t-133.5 40.5q-80 0 -136 -27t-108 -71q-22 28 -22 59q0 23 41.5 53.5t112.5 54t141 23.5q72 0 122 -17t76 -49t36.5 -69.5t10.5 -87.5q0 -44 -17.5 -90.5t-39.5 -81.5 t-66.5 -83t-73.5 -75t-85 -78q-105 -90 -154 -143h467q6 -24 6 -41q0 -47 -33 -47h-565q-8 19 -8 37z" />
<glyph unicode="&#xbe;" horiz-adv-x="2060" d="M121 666q0 31 29 53q81 -62 221 -62q116 0 185 50.5t69 136.5q0 60 -41 101t-107 50q-73 9 -178 9q-8 16 -8 43q0 34 33 34q88 0 143 -8q64 41 90.5 83t26.5 91q0 48 -40 84.5t-134 36.5q-147 0 -252 -84q-21 21 -21 47q0 24 15 35q38 36 110 62t172 26q131 0 189.5 -53 t58.5 -133q0 -132 -119 -213q73 -25 114.5 -78t41.5 -123q0 -137 -95.5 -210t-258.5 -73q-83 0 -144 18.5t-86 43.5q-14 14 -14 33zM602 20l864 1414q8 20 31 20q36 0 59 -39l-868 -1419q-4 -14 -26 -14q-16 0 -34 10t-26 28zM1339 195q0 14 17 63q41 130 153 304t217 272 q26 28 70 28q27 0 39 -6v-612h152q8 -20 8 -45q0 -43 -27 -43h-133v-131q0 -35 -51 -35q-13 0 -37 4v162h-395q-13 20 -13 39zM1436 240h313v499q-83 -77 -179 -224t-134 -275z" />
<glyph unicode="&#xbf;" horiz-adv-x="614" d="M29 -106q0 61 14 117t43 107.5t52 84t61 80.5q57 73 73 102q43 70 43 156q0 26 -4 54.5t-6 38t0 17.5q8 13 45 13q27 0 37 -2q23 -47 23 -119q0 -97 -54 -189q-22 -41 -84 -123q-48 -61 -73.5 -98.5t-49.5 -100.5t-24 -126q0 -211 211 -211q123 0 207 61q10 -23 10 -71 q0 -26 -75 -54t-163 -28q-45 0 -84 8t-77 28.5t-65 52.5t-43.5 84t-16.5 118zM264 954q0 36 22 60t58 24q76 0 76 -84q0 -34 -21 -58t-55 -24q-38 0 -59 23.5t-21 58.5z" />
<glyph unicode="&#xc0;" horiz-adv-x="892" d="M16 0l394 1430q3 12 30 12q23 0 39 -4l395 -1413q3 -14 -4 -20.5t-32 -6.5q-36 0 -56 2l-110 408h-451l-102 -390q-3 -13 -11 -16.5t-34 -3.5q-33 0 -58 2zM246 496h403l-110 409q-85 316 -93 404q-12 -94 -94 -404zM289 1794q2 20 15.5 48t29.5 28q4 0 47 -33.5 t111 -92.5t122 -114q-22 -53 -36 -53q-56 37 -125 88.5t-113 86.5t-51 42z" />
<glyph unicode="&#xc1;" horiz-adv-x="892" d="M16 0l394 1430q3 12 30 12q23 0 39 -4l395 -1413q3 -14 -4 -20.5t-32 -6.5q-36 0 -56 2l-110 408h-451l-102 -390q-3 -13 -11 -16.5t-34 -3.5q-33 0 -58 2zM246 496h403l-110 409q-85 316 -93 404q-12 -94 -94 -404zM289 1636q55 54 123 113t111 93t46 34q16 0 29.5 -28 t15.5 -48q-12 -15 -108.5 -90t-179.5 -129q-6 0 -15.5 13.5t-15.5 27.5z" />
<glyph unicode="&#xc2;" horiz-adv-x="892" d="M16 0l394 1430q3 12 30 12q23 0 39 -4l395 -1413q3 -14 -4 -20.5t-32 -6.5q-36 0 -56 2l-110 408h-451l-102 -390q-3 -13 -11 -16.5t-34 -3.5q-33 0 -58 2zM205 1620l227 225q12 4 23 4q24 0 37 -16q198 -199 198 -211q0 -10 -23 -24.5t-49 -14.5q-155 164 -165 182 q-163 -180 -183 -180q-37 0 -65 35zM246 496h403l-110 409q-85 316 -93 404q-12 -94 -94 -404z" />
<glyph unicode="&#xc3;" horiz-adv-x="892" d="M16 0l394 1430q3 12 30 12q23 0 39 -4l395 -1413q3 -14 -4 -20.5t-32 -6.5q-36 0 -56 2l-110 408h-451l-102 -390q-3 -13 -11 -16.5t-34 -3.5q-33 0 -58 2zM158 1665q47 77 94 106t106 29q26 0 47.5 -11t36 -26.5t28.5 -31t34 -26.5t45 -11q37 0 65 15t40 33t23.5 33 t18.5 15q10 0 20.5 -13t15.5 -27l5 -13q-69 -135 -198 -135q-33 0 -59 11.5t-42 28t-30.5 33t-31 28t-36.5 11.5q-35 0 -63 -24t-44.5 -48t-23.5 -24q-12 0 -24.5 12t-19.5 24zM246 496h403l-110 409q-85 316 -93 404q-12 -94 -94 -404z" />
<glyph unicode="&#xc4;" horiz-adv-x="892" d="M16 0l394 1430q3 12 30 12q23 0 39 -4l395 -1413q3 -14 -4 -20.5t-32 -6.5q-36 0 -56 2l-110 408h-451l-102 -390q-3 -13 -11 -16.5t-34 -3.5q-33 0 -58 2zM246 496h403l-110 409q-85 316 -93 404q-12 -94 -94 -404zM283 1716q3 80 57 80q30 0 42.5 -19.5t10.5 -60.5 q-3 -80 -59 -80q-54 0 -51 80zM502 1716q3 80 57 80q30 0 42.5 -19.5t10.5 -60.5q-3 -80 -59 -80q-54 0 -51 80z" />
<glyph unicode="&#xc5;" horiz-adv-x="892" d="M16 0l394 1430q3 12 30 12q23 0 39 -4l395 -1413q3 -14 -4 -20.5t-32 -6.5q-36 0 -56 2l-110 408h-451l-102 -390q-3 -13 -11 -16.5t-34 -3.5q-33 0 -58 2zM246 496h403l-110 409q-85 316 -93 404q-12 -94 -94 -404zM268 1733q0 91 49 136.5t138 45.5t130.5 -41 t41.5 -141q0 -88 -49 -134.5t-138 -46.5q-84 0 -128 42t-44 139zM342 1729q0 -50 25.5 -77.5t74.5 -27.5q111 0 111 111q0 58 -24 82t-72 24q-57 0 -86 -25t-29 -87z" />
<glyph unicode="&#xc6;" horiz-adv-x="1337" d="M37 0l700 1415q8 19 29 19h18h490q0 -58 -3 -72t-16 -14h-403v-521h379q0 -71 -7 -80q-5 -6 -16 -6h-356v-655h422q0 -60 -3 -73t-20 -13h-491v408h-426l-195 -390q-7 -20 -45 -20q-32 0 -57 2zM377 496h383v821q-78 -194 -182 -418z" />
<glyph unicode="&#xc7;" horiz-adv-x="735" d="M84 645q0 152 13 274.5t33.5 205.5t52.5 144t65 95.5t75.5 55t78 26.5t79.5 6q87 0 138 -32.5t51 -67.5t-19 -58q-11 11 -29.5 25t-57 29.5t-75.5 15.5q-51 0 -89.5 -12t-82 -56t-71.5 -119.5t-47 -212t-19 -323.5q0 -141 15 -245.5t38.5 -164t59 -94.5t69 -46t76.5 -11 q68 0 131 32t93 70q18 -36 18 -61q0 -41 -63 -84.5t-152 -52.5l-23 -107q6 2 37 2q40 0 69.5 -27.5t29.5 -84.5q0 -78 -41 -115t-101 -37q-24 0 -50 4.5t-40 8.5l-14 5q6 48 18 60q10 6 19 2.5t30.5 -10.5t38.5 -7q74 0 74 74q0 42 -19.5 57t-52.5 15q-17 0 -36 -2.5 t-29 -5.5l-10 -2l32 168q-36 1 -64 7t-62 23.5t-59.5 46t-50.5 79t-41 118t-26 167t-10 222.5z" />
<glyph unicode="&#xc8;" horiz-adv-x="704" d="M125 0v1409q0 3 1 7t8 11t18 7h489q0 -60 -2.5 -73t-15.5 -13h-406v-521h379q0 -31 -0.5 -44.5t-2.5 -25t-6 -14t-12 -2.5h-358v-655h424q0 -60 -3 -73t-20 -13h-493zM225 1794q2 20 15.5 48t29.5 28q4 0 47 -33.5t111.5 -92.5t122.5 -114q-23 -53 -37 -53 q-56 37 -125 88.5t-113 86.5t-51 42z" />
<glyph unicode="&#xc9;" horiz-adv-x="704" d="M125 0v1409q0 3 1 7t8 11t18 7h489q0 -60 -2.5 -73t-15.5 -13h-406v-521h379q0 -31 -0.5 -44.5t-2.5 -25t-6 -14t-12 -2.5h-358v-655h424q0 -60 -3 -73t-20 -13h-493zM225 1636q54 54 122.5 113t111.5 93t47 34q16 0 29.5 -28t15.5 -48q-12 -14 -109.5 -89t-179.5 -130 q-6 0 -15.5 13.5t-15.5 27.5z" />
<glyph unicode="&#xca;" horiz-adv-x="704" d="M125 0v1409q0 3 1 7t8 11t18 7h489q0 -60 -2.5 -73t-15.5 -13h-406v-521h379q0 -31 -0.5 -44.5t-2.5 -25t-6 -14t-12 -2.5h-358v-655h424q0 -60 -3 -73t-20 -13h-493zM139 1620l230 225q8 4 22 4q21 0 37 -16q199 -199 199 -211q0 -10 -23 -24.5t-49 -14.5 q-156 164 -166 182q-162 -180 -182 -180q-40 0 -68 35z" />
<glyph unicode="&#xcb;" horiz-adv-x="704" d="M125 0v1409q0 3 1 7t8 11t18 7h489q0 -60 -2.5 -73t-15.5 -13h-406v-521h379q0 -31 -0.5 -44.5t-2.5 -25t-6 -14t-12 -2.5h-358v-655h424q0 -60 -3 -73t-20 -13h-493zM219 1716q3 80 57 80q57 0 54 -80t-60 -80q-54 0 -51 80zM438 1716q3 80 58 80q56 0 53 -80t-60 -80 q-54 0 -51 80z" />
<glyph unicode="&#xcc;" horiz-adv-x="335" d="M10 1794q17 76 45 76q4 0 47 -33.5t111.5 -92.5t122.5 -114q-23 -53 -35 -53q-57 37 -126.5 88.5t-113 86t-51.5 42.5zM121 0v1384q0 37 12.5 43.5t81.5 6.5v-1409q0 -18 -12.5 -21.5t-81.5 -3.5z" />
<glyph unicode="&#xcd;" horiz-adv-x="335" d="M10 1636q55 54 124 113t111.5 93t45.5 34q16 0 29.5 -28t15.5 -48q-12 -14 -109 -89.5t-180 -129.5q-6 0 -15.5 13.5t-15.5 27.5zM121 0v1384q0 37 12.5 43.5t81.5 6.5v-1409q0 -18 -12.5 -21.5t-81.5 -3.5z" />
<glyph unicode="&#xce;" horiz-adv-x="335" d="M-74 1620l228 225q12 4 24 4q21 0 37 -16q197 -199 197 -211q0 -10 -23 -24.5t-49 -14.5q-156 164 -164 182q-164 -180 -184 -180q-38 0 -66 35zM121 0v1384q0 37 12.5 43.5t81.5 6.5v-1409q0 -18 -12.5 -21.5t-81.5 -3.5z" />
<glyph unicode="&#xcf;" horiz-adv-x="335" d="M4 1716q3 80 59 80q55 0 52 -80q0 -80 -60 -80q-51 0 -51 80zM121 0v1384q0 37 12.5 43.5t81.5 6.5v-1409q0 -18 -12.5 -21.5t-81.5 -3.5zM223 1716q3 80 60 80q54 0 51 -80t-60 -80q-54 0 -51 80z" />
<glyph unicode="&#xd0;" horiz-adv-x="858" d="M29 715q0 67 7 77q6 7 19 7h70v600q0 17 10.5 26t40.5 9h203q202 0 300.5 -149.5t98.5 -485.5q0 -140 -11 -254.5t-30.5 -196.5t-49.5 -144t-63.5 -100.5t-76.5 -62t-85 -32.5t-93 -9h-244v715h-96zM215 88h154q53 0 93.5 13.5t83 58t70 119.5t45 207t17.5 313 q0 294 -71.5 421.5t-231.5 127.5h-160v-549h234q0 -54 -4 -69t-23 -15h-207v-627z" />
<glyph unicode="&#xd1;" horiz-adv-x="944" d="M121 0v1409q0 25 24 25h64l250 -570q12 -32 278 -674q-6 215 -6 730v489q0 19 11.5 22t80.5 3v-1409q0 -25 -26 -25h-62l-256 580l-272 667q6 -246 6 -719v-503q0 -19 -11.5 -22t-80.5 -3zM182 1665q47 77 94.5 106t106.5 29q26 0 47.5 -11t35.5 -26.5l28 -31t34 -26.5 t45 -11q37 0 65 15t40.5 33t24 33t18.5 15q10 0 20.5 -13t15.5 -27l5 -13q-69 -135 -199 -135q-33 0 -59 11.5t-42 28t-30 33t-30.5 28t-36.5 11.5q-27 0 -51 -15t-37.5 -33t-25.5 -33t-18 -15q-12 0 -24.5 12t-19.5 24z" />
<glyph unicode="&#xd2;" horiz-adv-x="927" d="M84 727q0 389 95.5 558t299.5 169q134 0 212 -69.5t114.5 -226.5t36.5 -429q0 -275 -40.5 -439t-124 -237t-220.5 -73q-135 0 -214.5 67t-119 231t-39.5 449zM184 696q0 -339 63 -480.5t212 -141.5q154 0 220 149t66 508q0 237 -27.5 373.5t-85 196t-155.5 59.5 q-153 0 -223 -152t-70 -512zM305 1794q17 76 45 76q4 0 47 -33.5t111.5 -92.5t122.5 -114q-23 -53 -35 -53q-57 37 -126.5 88.5t-113 86t-51.5 42.5z" />
<glyph unicode="&#xd3;" horiz-adv-x="927" d="M84 727q0 389 95.5 558t299.5 169q134 0 212 -69.5t114.5 -226.5t36.5 -429q0 -275 -40.5 -439t-124 -237t-220.5 -73q-135 0 -214.5 67t-119 231t-39.5 449zM184 696q0 -339 63 -480.5t212 -141.5q154 0 220 149t66 508q0 237 -27.5 373.5t-85 196t-155.5 59.5 q-153 0 -223 -152t-70 -512zM305 1636q55 54 123 113t111.5 93t46.5 34q16 0 29.5 -28t15.5 -48q-12 -14 -109 -89.5t-180 -129.5q-6 0 -15.5 13.5t-15.5 27.5z" />
<glyph unicode="&#xd4;" horiz-adv-x="927" d="M84 727q0 389 95.5 558t299.5 169q134 0 212 -69.5t114.5 -226.5t36.5 -429q0 -275 -40.5 -439t-124 -237t-220.5 -73q-135 0 -214.5 67t-119 231t-39.5 449zM184 696q0 -339 63 -480.5t212 -141.5q154 0 220 149t66 508q0 237 -27.5 373.5t-85 196t-155.5 59.5 q-153 0 -223 -152t-70 -512zM221 1620l228 225q12 4 24 4q21 0 37 -16q197 -199 197 -211q0 -10 -23 -24.5t-49 -14.5q-156 164 -164 182q-164 -180 -184 -180q-38 0 -66 35z" />
<glyph unicode="&#xd5;" horiz-adv-x="927" d="M84 727q0 389 95.5 558t299.5 169q134 0 212 -69.5t114.5 -226.5t36.5 -429q0 -275 -40.5 -439t-124 -237t-220.5 -73q-135 0 -214.5 67t-119 231t-39.5 449zM174 1665q47 77 94.5 106t108.5 29q31 0 56 -16.5t39.5 -36.5t38.5 -36.5t54 -16.5q37 0 65 15t40.5 33t24 33 t18.5 15q11 0 21.5 -13t15.5 -27l4 -13q-69 -135 -199 -135q-40 0 -71 17.5t-46 38.5t-36 38.5t-44 17.5q-28 0 -52.5 -15t-37.5 -33t-25 -33t-18 -15q-12 0 -24.5 12t-19.5 24zM184 696q0 -339 63 -480.5t212 -141.5q154 0 220 149t66 508q0 237 -27.5 373.5t-85 196 t-155.5 59.5q-153 0 -223 -152t-70 -512z" />
<glyph unicode="&#xd6;" horiz-adv-x="927" d="M84 727q0 389 95.5 558t299.5 169q134 0 212 -69.5t114.5 -226.5t36.5 -429q0 -275 -40.5 -439t-124 -237t-220.5 -73q-135 0 -214.5 67t-119 231t-39.5 449zM184 696q0 -339 63 -480.5t212 -141.5q154 0 220 149t66 508q0 237 -27.5 373.5t-85 196t-155.5 59.5 q-153 0 -223 -152t-70 -512zM299 1716q3 80 59 80q55 0 52 -80q0 -80 -60 -80q-51 0 -51 80zM518 1716q3 80 60 80q54 0 51 -80t-60 -80q-54 0 -51 80z" />
<glyph unicode="&#xd7;" d="M190 801q52 49 66 49q6 0 14 -8l432 -488q-51 -51 -63 -51q-8 0 -16 8z" />
<glyph unicode="&#xd8;" horiz-adv-x="931" d="M88 727q0 390 93 558.5t296 168.5q153 0 234 -90q36 99 43 109q57 -4 63 -31q0 -4 -9 -29.5t-23.5 -67t-20.5 -59.5q80 -164 80 -557q0 -275 -40.5 -439t-124 -237t-220.5 -73q-161 0 -240 94l-45 -109q-17 0 -37.5 7t-23.5 26q-2 4 59 147q-84 164 -84 582zM186 696 q0 -325 56 -469l407 1059q-62 76 -172 76q-101 0 -163.5 -64t-95 -211.5t-32.5 -390.5zM283 152q61 -78 172 -78q104 0 165.5 57t94.5 202.5t33 397.5q0 331 -58 477q-160 -420 -407 -1056z" />
<glyph unicode="&#xd9;" horiz-adv-x="956" d="M121 449v958q0 20 11.5 23.5t82.5 3.5v-988q0 -58 3.5 -100t13 -88.5t28.5 -78t49 -58.5t76 -40t107 -13q71 0 143 14.5t108 32.5v1294q0 18 13 21.5t80 3.5v-1385q-44 -28 -141 -48.5t-203 -20.5q-98 0 -167.5 26t-108.5 66t-61 105.5t-28 125.5t-6 146zM319 1794 q5 24 17.5 50t28.5 26q4 0 47 -33.5t111 -92.5t122 -114q-23 -53 -35 -53q-57 37 -126.5 88.5t-113 86t-51.5 42.5z" />
<glyph unicode="&#xda;" horiz-adv-x="956" d="M121 449v958q0 20 11.5 23.5t82.5 3.5v-988q0 -58 3.5 -100t13 -88.5t28.5 -78t49 -58.5t76 -40t107 -13q71 0 143 14.5t108 32.5v1294q0 18 13 21.5t80 3.5v-1385q-44 -28 -141 -48.5t-203 -20.5q-98 0 -167.5 26t-108.5 66t-61 105.5t-28 125.5t-6 146zM319 1636 q55 54 124 113t111.5 93t45.5 34q16 0 29.5 -28t15.5 -48q-9 -13 -106.5 -88t-182.5 -131q-6 0 -15.5 13.5t-15.5 27.5z" />
<glyph unicode="&#xdb;" horiz-adv-x="956" d="M121 449v958q0 20 11.5 23.5t82.5 3.5v-988q0 -58 3.5 -100t13 -88.5t28.5 -78t49 -58.5t76 -40t107 -13q71 0 143 14.5t108 32.5v1294q0 18 13 21.5t80 3.5v-1385q-44 -28 -141 -48.5t-203 -20.5q-98 0 -167.5 26t-108.5 66t-61 105.5t-28 125.5t-6 146zM236 1620 l227 225q12 4 24 4q21 0 37 -16q197 -199 197 -211q0 -10 -23 -24.5t-49 -14.5q-156 164 -164 182q-164 -180 -184 -180q-37 0 -65 35z" />
<glyph unicode="&#xdc;" horiz-adv-x="956" d="M121 449v958q0 20 11.5 23.5t82.5 3.5v-988q0 -58 3.5 -100t13 -88.5t28.5 -78t49 -58.5t76 -40t107 -13q71 0 143 14.5t108 32.5v1294q0 18 13 21.5t80 3.5v-1385q-44 -28 -141 -48.5t-203 -20.5q-98 0 -167.5 26t-108.5 66t-61 105.5t-28 125.5t-6 146zM313 1716 q3 80 60 80q54 0 51 -80q0 -80 -59 -80q-52 0 -52 80zM532 1716q3 80 60 80q54 0 51 -80q0 -80 -57 -80q-54 0 -54 80z" />
<glyph unicode="&#xdd;" horiz-adv-x="737" d="M12 1417q-4 11 8 14q13 3 95 3l106 -297q44 -116 98 -283t56 -184q1 15 53.5 176t97.5 291l99 278q5 14 18.5 16.5t83.5 2.5l-309 -848v-561q0 -19 -11 -22t-81 -3v584zM211 1636q54 54 122.5 113t111.5 93t47 34q16 0 29.5 -28t15.5 -48q-12 -14 -109.5 -89t-179.5 -130 q-6 0 -15.5 13.5t-15.5 27.5z" />
<glyph unicode="&#xde;" horiz-adv-x="763" d="M121 0v1409q0 16 12.5 20.5t50.5 4.5h29v-283h149q184 0 267.5 -103t83.5 -282q0 -218 -95.5 -326t-265.5 -108h-139v-307q0 -18 -12.5 -21.5t-79.5 -3.5zM213 422l143 -2q258 0 258 352q0 136 -56 214.5t-191 78.5h-154v-643z" />
<glyph unicode="&#xdf;" horiz-adv-x="968" d="M111 0q2 4 4 11.5t5.5 32t2.5 50.5v1030q0 318 319 318q84 0 153 -19t112.5 -48.5t73.5 -68.5t42.5 -77t12.5 -76q0 -36 -12 -66.5t-38.5 -56t-46.5 -40.5t-57 -38q-32 -20 -48.5 -32t-37.5 -30.5t-30 -39.5t-9 -45q0 -30 22 -61t46.5 -52t72.5 -57q44 -33 67 -51.5 t61 -56.5t58 -70.5t36 -80.5t16 -100q0 -142 -83.5 -218t-227.5 -76q-71 0 -128.5 16t-84.5 35t-27 35q0 36 29 65q70 -67 198 -67q100 0 163 52t63 154q0 48 -16 90t-52 82t-61.5 62.5t-75.5 62.5q-46 37 -67.5 55.5t-51.5 50.5t-42.5 62t-12.5 64q0 28 10 54t21.5 43.5 t36.5 38.5t39.5 31.5t45.5 30.5q33 22 49 33.5t38 31.5t31 41t9 46q0 78 -73.5 141.5t-214.5 63.5q-124 0 -179.5 -66.5t-54.5 -220.5v-1026q0 -33 -10.5 -46t-42.5 -13q-16 0 -29.5 4t-18.5 8z" />
<glyph unicode="&#xe0;" horiz-adv-x="761" d="M80 283q0 70 12 124.5t35 90t51 59.5t66 36t73.5 16.5t79.5 4.5q110 0 172 -22v186q0 103 -44 139.5t-130 36.5q-96 0 -177.5 -15t-125.5 -36q-12 24 -12 53t14 37q34 20 126 35.5t196 15.5q126 0 186 -56.5t60 -190.5v-127q0 -355 -13 -615q-114 -75 -274 -75 q-50 -1 -87 3t-78.5 22t-68 49.5t-44 89.5t-17.5 139zM174 285q0 -61 12.5 -104t30 -66t49 -35.5t58 -15.5t67.5 -3q52 0 99.5 16.5t68.5 35.5q10 115 10 407q-62 21 -145 21q-45 0 -76.5 -4t-66.5 -19t-56.5 -42t-36 -75t-14.5 -116zM213 1384q2 20 15.5 48t29.5 28 q4 0 47 -33t111.5 -92t122.5 -114q-23 -54 -37 -54q-56 37 -125 88.5t-113 86.5t-51 42z" />
<glyph unicode="&#xe1;" horiz-adv-x="761" d="M80 283q0 70 12 124.5t35 90t51 59.5t66 36t73.5 16.5t79.5 4.5q110 0 172 -22v186q0 103 -44 139.5t-130 36.5q-96 0 -177.5 -15t-125.5 -36q-12 24 -12 53t14 37q34 20 126 35.5t196 15.5q126 0 186 -56.5t60 -190.5v-127q0 -355 -13 -615q-114 -75 -274 -75 q-50 -1 -87 3t-78.5 22t-68 49.5t-44 89.5t-17.5 139zM174 285q0 -61 12.5 -104t30 -66t49 -35.5t58 -15.5t67.5 -3q52 0 99.5 16.5t68.5 35.5q10 115 10 407q-62 21 -145 21q-45 0 -76.5 -4t-66.5 -19t-56.5 -42t-36 -75t-14.5 -116zM213 1227q54 54 122.5 113t111.5 92.5 t47 33.5q16 0 29.5 -27.5t15.5 -47.5q-12 -14 -109.5 -89.5t-179.5 -130.5q-6 0 -15.5 14t-15.5 28z" />
<glyph unicode="&#xe2;" horiz-adv-x="761" d="M80 283q0 70 12 124.5t35 90t51 59.5t66 36t73.5 16.5t79.5 4.5q110 0 172 -22v186q0 103 -44 139.5t-130 36.5q-96 0 -177.5 -15t-125.5 -36q-12 24 -12 53t14 37q34 20 126 35.5t196 15.5q126 0 186 -56.5t60 -190.5v-127q0 -355 -13 -615q-114 -75 -274 -75 q-50 -1 -87 3t-78.5 22t-68 49.5t-44 89.5t-17.5 139zM129 1210l227 226q12 4 23 4q23 0 37 -17q198 -199 198 -211q0 -10 -22.5 -24t-48.5 -14q-156 164 -166 182q-162 -180 -182 -180q-39 0 -66 34zM174 285q0 -61 12.5 -104t30 -66t49 -35.5t58 -15.5t67.5 -3 q52 0 99.5 16.5t68.5 35.5q10 115 10 407q-62 21 -145 21q-45 0 -76.5 -4t-66.5 -19t-56.5 -42t-36 -75t-14.5 -116z" />
<glyph unicode="&#xe3;" horiz-adv-x="761" d="M80 283q0 70 12 124.5t35 90t51 59.5t66 36t73.5 16.5t79.5 4.5q110 0 172 -22v186q0 103 -44 139.5t-130 36.5q-96 0 -177.5 -15t-125.5 -36q-12 24 -12 53t14 37q34 20 126 35.5t196 15.5q126 0 186 -56.5t60 -190.5v-127q0 -355 -13 -615q-114 -75 -274 -75 q-50 -1 -87 3t-78.5 22t-68 49.5t-44 89.5t-17.5 139zM82 1255q47 77 94.5 106.5t106.5 29.5q26 0 47.5 -11t35.5 -26.5t28 -31.5t34 -27t45 -11q37 0 65 15t40.5 33t24 33t18.5 15q10 0 20.5 -13t15.5 -27l5 -13q-69 -135 -199 -135q-33 0 -59 11.5t-42 28t-30.5 33.5 t-31 28.5t-36.5 11.5q-35 0 -63 -24.5t-44.5 -48.5t-23.5 -24q-12 0 -24.5 12t-19.5 24zM174 285q0 -61 12.5 -104t30 -66t49 -35.5t58 -15.5t67.5 -3q52 0 99.5 16.5t68.5 35.5q10 115 10 407q-62 21 -145 21q-45 0 -76.5 -4t-66.5 -19t-56.5 -42t-36 -75t-14.5 -116z" />
<glyph unicode="&#xe4;" horiz-adv-x="761" d="M80 283q0 70 12 124.5t35 90t51 59.5t66 36t73.5 16.5t79.5 4.5q110 0 172 -22v186q0 103 -44 139.5t-130 36.5q-96 0 -177.5 -15t-125.5 -36q-12 24 -12 53t14 37q34 20 126 35.5t196 15.5q126 0 186 -56.5t60 -190.5v-127q0 -355 -13 -615q-114 -75 -274 -75 q-50 -1 -87 3t-78.5 22t-68 49.5t-44 89.5t-17.5 139zM174 285q0 -61 12.5 -104t30 -66t49 -35.5t58 -15.5t67.5 -3q52 0 99.5 16.5t68.5 35.5q10 115 10 407q-62 21 -145 21q-45 0 -76.5 -4t-66.5 -19t-56.5 -42t-36 -75t-14.5 -116zM207 1307q3 79 57 79q30 0 42.5 -19 t10.5 -60q-3 -80 -59 -80q-54 0 -51 80zM426 1307q3 79 57 79q57 0 54 -79q-3 -80 -60 -80q-54 0 -51 80z" />
<glyph unicode="&#xe5;" horiz-adv-x="761" d="M80 283q0 70 12 124.5t35 90t51 59.5t66 36t73.5 16.5t79.5 4.5q110 0 172 -22v186q0 103 -44 139.5t-130 36.5q-96 0 -177.5 -15t-125.5 -36q-12 24 -12 53t14 37q34 20 126 35.5t196 15.5q126 0 186 -56.5t60 -190.5v-127q0 -355 -13 -615q-114 -75 -274 -75 q-50 -1 -87 3t-78.5 22t-68 49.5t-44 89.5t-17.5 139zM174 285q0 -61 12.5 -104t30 -66t49 -35.5t58 -15.5t67.5 -3q52 0 99.5 16.5t68.5 35.5q10 115 10 407q-62 21 -145 21q-45 0 -76.5 -4t-66.5 -19t-56.5 -42t-36 -75t-14.5 -116zM193 1323q0 91 48.5 136.5t137.5 45.5 t130.5 -41t41.5 -141q0 -88 -48.5 -134t-137.5 -46q-84 0 -128 41.5t-44 138.5zM266 1319q0 -50 26 -77.5t75 -27.5q110 0 110 111q0 58 -24 82.5t-72 24.5q-57 0 -86 -25.5t-29 -87.5z" />
<glyph unicode="&#xe6;" horiz-adv-x="1300" d="M80 287q0 84 18 146.5t46.5 98.5t72 57.5t85 28.5t93.5 7q109 0 174 -23v180q0 103 -46.5 139.5t-139.5 36.5q-182 0 -285 -59q-10 23 -10 55q0 26 18 37q35 22 115 37.5t195 15.5q105 0 161.5 -41t69.5 -137q25 57 59 94t75 54.5t77.5 23.5t83.5 6q258 0 258 -315 q0 -158 -16 -246q-85 -14 -187 -14q-155 0 -327 35v-51q0 -73 6.5 -130.5t17.5 -97t29.5 -67.5t37.5 -44.5t47 -25.5t53.5 -11.5t60.5 -2.5q157 0 258 69q10 -25 10 -84q0 -13 -37 -30.5t-103 -31t-135 -13.5q-97 0 -160 22.5t-102 89.5v-51q-105 -63 -301 -63 q-47 0 -82 5.5t-73 24t-62 50.5t-39.5 89t-15.5 136zM174 283q0 -50 7.5 -88t23.5 -61.5t33.5 -39t45 -22.5t50 -9t55.5 -2q56 0 108.5 14t71.5 34v421q-75 21 -145 21q-44 0 -76 -4.5t-67 -21t-57 -44.5t-36 -78t-14 -120zM674 584q188 -37 311 -37q73 0 117 10q8 68 8 150 q-2 133 -39 193.5t-133 60.5q-37 0 -66 -6t-64.5 -28.5t-60 -61.5t-45 -111t-28.5 -170z" />
<glyph unicode="&#xe7;" horiz-adv-x="692" d="M88 489q0 102 12 185.5t32 140t50 99t61 67t70 39.5t72.5 19.5t73.5 4.5q68 0 120 -23t52 -54q0 -28 -15 -58q-69 52 -163 52q-41 0 -74.5 -8t-72 -37.5t-64 -79t-43 -140t-17.5 -213.5q0 -103 11.5 -178.5t31 -121.5t50.5 -73.5t65 -37t80 -9.5q63 0 115 20.5t83 49.5 q13 -32 13 -57q0 -30 -60 -60t-147 -36l-23 -103q6 2 39 2q40 0 69.5 -27.5t29.5 -84.5q0 -78 -42 -115t-100 -37q-25 0 -51.5 4.5t-40.5 8.5l-14 5q6 48 20 60q10 6 19 2.5t30.5 -10.5t38.5 -7q72 0 72 74q0 42 -18.5 57t-51.5 15q-18 0 -37.5 -2.5t-29.5 -5.5l-10 -2 l34 168q-51 3 -89 16.5t-73.5 47.5t-58 89t-36 144t-13.5 210z" />
<glyph unicode="&#xe8;" horiz-adv-x="776" d="M84 455q0 153 23 265t57.5 173t86.5 96.5t97 45t103 9.5q256 0 256 -323q0 -145 -17 -238q-215 -41 -514 -34q1 -98 14 -167.5t33.5 -110.5t55 -64t70 -30t85.5 -7q153 0 252 71q12 -35 12 -65q0 -34 -85 -65t-191 -31q-53 0 -93 6.5t-80.5 24.5t-69 51.5t-51 85 t-33.5 129t-11 178.5zM178 528q281 -7 430 29q8 68 8 141q-2 135 -39.5 199t-132.5 64q-32 0 -57.5 -5t-56.5 -19.5t-55 -45t-45.5 -76.5t-34.5 -119t-17 -168zM229 1384q17 76 45 76q4 0 47 -33t111.5 -92t122.5 -114q-21 -54 -35 -54q-57 37 -126.5 88.5t-113 86 t-51.5 42.5z" />
<glyph unicode="&#xe9;" horiz-adv-x="776" d="M84 455q0 153 23 265t57.5 173t86.5 96.5t97 45t103 9.5q256 0 256 -323q0 -145 -17 -238q-215 -41 -514 -34q1 -98 14 -167.5t33.5 -110.5t55 -64t70 -30t85.5 -7q153 0 252 71q12 -35 12 -65q0 -34 -85 -65t-191 -31q-53 0 -93 6.5t-80.5 24.5t-69 51.5t-51 85 t-33.5 129t-11 178.5zM178 528q281 -7 430 29q8 68 8 141q-2 135 -39.5 199t-132.5 64q-32 0 -57.5 -5t-56.5 -19.5t-55 -45t-45.5 -76.5t-34.5 -119t-17 -168zM229 1227q55 54 123.5 113t112 92.5t47.5 33.5q16 0 28.5 -27t14.5 -48q-9 -13 -106.5 -89t-182.5 -131 q-6 0 -15.5 14t-15.5 28z" />
<glyph unicode="&#xea;" horiz-adv-x="776" d="M84 455q0 153 23 265t57.5 173t86.5 96.5t97 45t103 9.5q256 0 256 -323q0 -145 -17 -238q-215 -41 -514 -34q1 -98 14 -167.5t33.5 -110.5t55 -64t70 -30t85.5 -7q153 0 252 71q12 -35 12 -65q0 -34 -85 -65t-191 -31q-53 0 -93 6.5t-80.5 24.5t-69 51.5t-51 85 t-33.5 129t-11 178.5zM145 1210l230 226q8 4 22 4q20 0 37 -17q197 -199 197 -211q0 -10 -23 -24t-49 -14q-154 164 -164 182q-161 -180 -184 -180q-39 0 -66 34zM178 528q281 -7 430 29q8 68 8 141q-2 135 -39.5 199t-132.5 64q-32 0 -57.5 -5t-56.5 -19.5t-55 -45 t-45.5 -76.5t-34.5 -119t-17 -168z" />
<glyph unicode="&#xeb;" horiz-adv-x="776" d="M84 455q0 153 23 265t57.5 173t86.5 96.5t97 45t103 9.5q256 0 256 -323q0 -145 -17 -238q-215 -41 -514 -34q1 -98 14 -167.5t33.5 -110.5t55 -64t70 -30t85.5 -7q153 0 252 71q12 -35 12 -65q0 -34 -85 -65t-191 -31q-53 0 -93 6.5t-80.5 24.5t-69 51.5t-51 85 t-33.5 129t-11 178.5zM178 528q281 -7 430 29q8 68 8 141q-2 135 -39.5 199t-132.5 64q-32 0 -57.5 -5t-56.5 -19.5t-55 -45t-45.5 -76.5t-34.5 -119t-17 -168zM225 1307q0 79 58 79q29 0 41 -19t12 -60q-3 -80 -60 -80q-54 0 -51 80zM442 1307q3 79 60 79q54 0 51 -79 q0 -80 -57 -80q-54 0 -54 80z" />
<glyph unicode="&#xec;" horiz-adv-x="346" d="M14 1384q17 76 45 76q4 0 47 -33t112 -92t124 -114q-23 -54 -37 -54q-57 37 -126.5 88.5t-113 86t-51.5 42.5zM127 0v977q0 33 16 40t76 7v-999q0 -19 -11.5 -22t-80.5 -3z" />
<glyph unicode="&#xed;" horiz-adv-x="346" d="M14 1227q55 54 123.5 113t112 92.5t47.5 33.5q28 0 45 -75q-12 -14 -110 -89.5t-181 -130.5q-6 0 -15.5 14t-15.5 28zM127 0v977q0 33 16 40t76 7v-999q0 -19 -11.5 -22t-80.5 -3z" />
<glyph unicode="&#xee;" horiz-adv-x="346" d="M-70 1210l230 226q8 4 22 4q20 0 37 -17q197 -199 197 -211q0 -10 -22.5 -24t-49.5 -14q-154 164 -164 182q-161 -180 -184 -180q-39 0 -66 34zM127 0v977q0 33 16 40t76 7v-999q0 -19 -11.5 -22t-80.5 -3z" />
<glyph unicode="&#xef;" horiz-adv-x="346" d="M10 1307q0 79 58 79q29 0 41 -19t12 -60q-3 -80 -60 -80q-54 0 -51 80zM127 0v977q0 33 16 40t76 7v-999q0 -19 -11.5 -22t-80.5 -3zM227 1307q3 79 60 79q54 0 51 -79q0 -80 -57 -80q-54 0 -54 80z" />
<glyph unicode="&#xf0;" horiz-adv-x="890" d="M84 524q0 253 93 384.5t265 131.5q161 0 242 -100q-51 208 -174 354l-197 -77q-22 55 -22 69q0 13 14 21l141 55q-48 50 -137 115q9 21 26.5 33t37.5 12t39 -15q67 -50 125 -108l161 63q23 -61 23 -69q0 -13 -14 -19l-109 -45q215 -266 215 -737q0 -87 -5.5 -157.5 t-19.5 -143.5t-40 -126.5t-64.5 -96.5t-96.5 -65.5t-132 -22.5q-187 0 -279 129.5t-92 414.5zM176 516q0 -455 277 -455q59 0 104 20.5t73.5 60.5t47 87t28 113.5t12.5 125.5t3 136q0 93 -10 195q-93 157 -252 157q-135 0 -209 -114t-74 -326z" />
<glyph unicode="&#xf1;" horiz-adv-x="835" d="M121 0v973q173 71 334 71q83 0 137.5 -17t85.5 -54.5t43 -87.5t12 -125v-735q0 -19 -12.5 -22t-81.5 -3v737q0 123 -37 173.5t-149 50.5q-54 0 -122.5 -13.5t-117.5 -38.5v-884q0 -19 -12 -22t-80 -3zM129 1255q47 77 94.5 106.5t106.5 29.5q26 0 47 -11t35.5 -26.5 t28.5 -31.5t34 -27t45 -11q37 0 65 15t40.5 33t23 33t17.5 15q11 0 21.5 -13t14.5 -27l5 -13q-22 -49 -71 -92t-126 -43q-34 0 -60 11.5t-42 28t-30 33.5t-30.5 28.5t-36.5 11.5q-27 0 -51 -15t-37 -33.5t-25.5 -33.5t-19.5 -15q-11 0 -23.5 12t-18.5 24z" />
<glyph unicode="&#xf2;" horiz-adv-x="802" d="M72 510q0 534 342 534q82 0 138.5 -24.5t98 -84t61 -163.5t19.5 -260q0 -532 -340 -532q-65 0 -109.5 10.5t-87 42.5t-67.5 89.5t-40 154t-15 233.5zM170 500q0 -107 10 -184t27.5 -126t46 -78t61.5 -40t78 -11q114 0 177 110.5t63 344.5q0 134 -14.5 223.5t-44.5 137.5 t-69 67t-95 19q-57 0 -99 -23.5t-75 -75.5t-49.5 -143.5t-16.5 -220.5zM307 1384q2 20 15.5 48t29.5 28q3 0 45.5 -33t112 -92.5t123.5 -113.5q-23 -54 -37 -54q-57 37 -126 88.5t-112 86t-51 42.5z" />
<glyph unicode="&#xf3;" horiz-adv-x="802" d="M72 510q0 534 342 534q82 0 138.5 -24.5t98 -84t61 -163.5t19.5 -260q0 -532 -340 -532q-65 0 -109.5 10.5t-87 42.5t-67.5 89.5t-40 154t-15 233.5zM170 500q0 -107 10 -184t27.5 -126t46 -78t61.5 -40t78 -11q114 0 177 110.5t63 344.5q0 134 -14.5 223.5t-44.5 137.5 t-69 67t-95 19q-57 0 -99 -23.5t-75 -75.5t-49.5 -143.5t-16.5 -220.5zM307 1227q54 54 122.5 113t111.5 92.5t47 33.5q28 0 45 -75q-12 -14 -110 -89.5t-181 -130.5q-5 0 -14 14t-15 28z" />
<glyph unicode="&#xf4;" horiz-adv-x="802" d="M72 510q0 534 342 534q82 0 138.5 -24.5t98 -84t61 -163.5t19.5 -260q0 -532 -340 -532q-65 0 -109.5 10.5t-87 42.5t-67.5 89.5t-40 154t-15 233.5zM170 500q0 -107 10 -184t27.5 -126t46 -78t61.5 -40t78 -11q114 0 177 110.5t63 344.5q0 134 -14.5 223.5t-44.5 137.5 t-69 67t-95 19q-57 0 -99 -23.5t-75 -75.5t-49.5 -143.5t-16.5 -220.5zM221 1210l230 226q8 4 22 4q20 0 37 -17q199 -199 199 -211q0 -10 -23 -24t-49 -14q-156 164 -166 182q-162 -180 -182 -180q-41 0 -68 34z" />
<glyph unicode="&#xf5;" horiz-adv-x="802" d="M72 510q0 534 342 534q82 0 138.5 -24.5t98 -84t61 -163.5t19.5 -260q0 -532 -340 -532q-65 0 -109.5 10.5t-87 42.5t-67.5 89.5t-40 154t-15 233.5zM170 500q0 -107 10 -184t27.5 -126t46 -78t61.5 -40t78 -11q114 0 177 110.5t63 344.5q0 134 -14.5 223.5t-44.5 137.5 t-69 67t-95 19q-57 0 -99 -23.5t-75 -75.5t-49.5 -143.5t-16.5 -220.5zM176 1255q47 77 94.5 106.5t106.5 29.5q26 0 47 -11t35.5 -26.5t28.5 -31.5t34 -27t45 -11q37 0 65 15t40.5 33t23 33t17.5 15q11 0 21.5 -13t15.5 -27l4 -13q-69 -135 -197 -135q-34 0 -60 11.5 t-42 28t-30 33.5t-30.5 28.5t-36.5 11.5q-27 0 -51 -15t-37 -33.5t-25.5 -33.5t-19.5 -15q-11 0 -23.5 12t-19.5 24z" />
<glyph unicode="&#xf6;" horiz-adv-x="802" d="M72 510q0 534 342 534q82 0 138.5 -24.5t98 -84t61 -163.5t19.5 -260q0 -532 -340 -532q-65 0 -109.5 10.5t-87 42.5t-67.5 89.5t-40 154t-15 233.5zM170 500q0 -107 10 -184t27.5 -126t46 -78t61.5 -40t78 -11q114 0 177 110.5t63 344.5q0 134 -14.5 223.5t-44.5 137.5 t-69 67t-95 19q-57 0 -99 -23.5t-75 -75.5t-49.5 -143.5t-16.5 -220.5zM301 1307q3 79 57 79q57 0 54 -79q-3 -80 -60 -80q-54 0 -51 80zM520 1307q0 79 58 79q29 0 41 -19t12 -60q-3 -80 -60 -80q-54 0 -51 80z" />
<glyph unicode="&#xf7;" d="M92 535q0 54 3.5 68.5t21.5 14.5h692q0 -54 -3.5 -68.5t-21.5 -14.5h-692zM371 295q0 32 19.5 55t51.5 23q36 0 56 -22t20 -56t-21 -56t-55 -22q-71 0 -71 78zM371 848q0 33 19 55.5t52 22.5q36 0 56 -21.5t20 -56.5q0 -33 -21.5 -55.5t-54.5 -22.5q-71 0 -71 78z" />
<glyph unicode="&#xf8;" horiz-adv-x="878" d="M68 0q0 3 94 160q-41 118 -41 350q0 534 338 534q158 0 229 -96q69 113 74 121q6 -2 15.5 -5t25.5 -13.5t16 -22.5q0 -13 -90 -158q49 -122 49 -358q0 -269 -84 -400.5t-243 -131.5q-92 0 -152 22t-100 82q-70 -116 -76 -127q-55 4 -55 43zM217 500q0 -157 23 -260 l381 637q-49 84 -162 84q-76 0 -127.5 -40.5t-83 -145.5t-31.5 -275zM266 162q28 -56 71 -78.5t105 -22.5q114 0 177 110.5t63 344.5q0 182 -31 287q-68 -115 -311 -520q-13 -22 -39 -64t-35 -57z" />
<glyph unicode="&#xf9;" horiz-adv-x="868" d="M129 356v643q0 19 11 22t81 3v-682q0 -162 44.5 -220.5t174.5 -58.5q122 0 209 50v886q0 18 13 21.5t79 3.5v-975q-138 -69 -311 -69q-176 0 -238.5 83t-62.5 293zM276 1384q5 24 17.5 50t28.5 26q4 0 47 -33t111.5 -92t123.5 -114q-23 -54 -37 -54q-57 37 -126.5 88.5 t-113 86t-51.5 42.5z" />
<glyph unicode="&#xfa;" horiz-adv-x="868" d="M129 356v643q0 19 11 22t81 3v-682q0 -162 44.5 -220.5t174.5 -58.5q122 0 209 50v886q0 18 13 21.5t79 3.5v-975q-138 -69 -311 -69q-176 0 -238.5 83t-62.5 293zM276 1227q55 54 123.5 113t112 92.5t47.5 33.5q28 0 45 -75q-12 -14 -110 -89.5t-181 -130.5 q-6 0 -15.5 14t-15.5 28z" />
<glyph unicode="&#xfb;" horiz-adv-x="868" d="M129 356v643q0 19 11 22t81 3v-682q0 -162 44.5 -220.5t174.5 -58.5q122 0 209 50v886q0 18 13 21.5t79 3.5v-975q-138 -69 -311 -69q-176 0 -238.5 83t-62.5 293zM193 1210l229 226q8 4 22 4q20 0 37 -17q197 -199 197 -211q0 -10 -23 -24t-49 -14q-154 164 -164 182 q-161 -180 -184 -180q-38 0 -65 34z" />
<glyph unicode="&#xfc;" horiz-adv-x="868" d="M129 356v643q0 19 11 22t81 3v-682q0 -162 44.5 -220.5t174.5 -58.5q122 0 209 50v886q0 18 13 21.5t79 3.5v-975q-138 -69 -311 -69q-176 0 -238.5 83t-62.5 293zM272 1307q0 79 58 79q29 0 41 -19t12 -60q-3 -80 -59 -80q-55 0 -52 80zM489 1307q3 79 60 79 q54 0 51 -79q0 -80 -57 -80q-54 0 -54 80z" />
<glyph unicode="&#xfd;" horiz-adv-x="768" d="M8 -342q0 34 19 57q48 -26 120 -26q138 0 203 278l-274 1028q-6 22 5.5 25.5t82.5 3.5l170 -645q16 -64 31.5 -140.5t22.5 -120.5l7 -44q23 157 58 307l151 612q6 22 15 26q11 5 88 5l-279 -1090q-46 -180 -112 -254.5t-166 -74.5q-67 0 -104.5 14t-37.5 39zM225 1227 q55 54 123.5 113t112 92.5t47.5 33.5q16 0 28.5 -27t14.5 -48q-9 -13 -106.5 -89t-182.5 -131q-6 0 -15.5 14t-15.5 28z" />
<glyph unicode="&#xfe;" horiz-adv-x="831" d="M125 -375v1833q0 33 16.5 40t75.5 7v-497q83 34 203 34q83 0 142.5 -21t105 -70.5t68 -137.5t22.5 -215q0 -113 -14 -205.5t-36 -155t-54 -110.5t-64 -74.5t-69 -43.5t-66 -22t-58 -5q-121 0 -180 67v-452q-28 -7 -53 -7q-23 0 -31 6.5t-8 28.5zM217 147q54 -84 160 -84 q32 1 64 10.5t73.5 43t72 87.5t51.5 152t21 228q0 112 -16.5 187t-49.5 115t-74.5 56t-100.5 16q-116 0 -201 -57v-754z" />
<glyph unicode="&#xff;" horiz-adv-x="768" d="M8 -342q0 34 19 57q48 -26 120 -26q138 0 203 278l-274 1028q-6 22 5.5 25.5t82.5 3.5l170 -645q16 -64 31.5 -140.5t22.5 -120.5l7 -44q23 157 58 307l151 612q6 22 15 26q11 5 88 5l-279 -1090q-46 -180 -112 -254.5t-166 -74.5q-67 0 -104.5 14t-37.5 39zM221 1307 q0 79 58 79q29 0 41 -19t12 -60q-3 -80 -60 -80q-54 0 -51 80zM438 1307q3 79 60 79q54 0 51 -79q0 -80 -57 -80q-54 0 -54 80z" />
<glyph unicode="&#x152;" horiz-adv-x="1312" d="M82 725q0 389 94 559t297 170q194 0 272 -158v113q0 25 25 25h481q0 -74 -7 -82q-4 -4 -13 -4h-404v-521h379q0 -71 -6 -80q-5 -6 -16 -6h-357v-655h422q0 -60 -2.5 -73t-17.5 -13h-484v160q-44 -94 -115 -137t-175 -43q-135 0 -214.5 67.5t-119 230.5t-39.5 447z M182 696q0 -339 63 -481.5t210 -142.5q153 0 212.5 147t59.5 512q0 241 -23 375.5t-77.5 196t-153.5 61.5q-101 0 -163.5 -64.5t-95 -212.5t-32.5 -391z" />
<glyph unicode="&#x153;" horiz-adv-x="1353" d="M88 510q0 534 338 534q108 0 177 -45t104 -153q25 65 60.5 107t80 60.5t82.5 24.5t90 6q258 0 258 -315q0 -147 -18 -246q-215 -41 -512 -34q0 -101 12.5 -172t32.5 -111t54.5 -62t67 -28t82.5 -6q159 0 258 71q13 -30 13 -86q0 -12 -37 -29.5t-103.5 -31.5t-134.5 -14 q-57 0 -99 7t-83 26t-71.5 57t-49.5 96q-81 -186 -272 -186q-68 0 -114.5 10.5t-90.5 42.5t-69.5 89.5t-40.5 154t-15 233.5zM184 500q0 -106 10 -183.5t28 -126.5t47 -78t62.5 -40t78.5 -11q239 0 239 455q0 108 -10 186.5t-27.5 128t-46.5 79t-61.5 40.5t-77.5 11 q-76 0 -127.5 -40.5t-83 -145.5t-31.5 -275zM748 528q281 -7 430 29q10 64 10 150q-3 134 -40 194t-134 60q-28 0 -49 -2.5t-49 -12t-48.5 -27t-42.5 -50t-37 -77t-26 -112t-14 -152.5z" />
<glyph unicode="&#x178;" horiz-adv-x="737" d="M12 1417q-4 11 8 14q13 3 95 3l106 -297q44 -116 98 -283t56 -184q1 15 53.5 176t97.5 291l99 278q5 14 18.5 16.5t83.5 2.5l-309 -848v-561q0 -19 -11 -22t-81 -3v584zM205 1716q3 80 57 80q56 0 53 -80t-59 -80q-54 0 -51 80zM424 1716q3 80 57 80q57 0 54 -80t-60 -80 q-54 0 -51 80z" />
<glyph unicode="&#x2c6;" horiz-adv-x="526" d="M20 1210l228 226q12 4 24 4q20 0 37 -17q197 -199 197 -211q0 -10 -23 -24t-49 -14q-156 164 -164 182q-161 -180 -184 -180q-39 0 -66 34z" />
<glyph unicode="&#x2dc;" horiz-adv-x="526" d="M-27 1255q47 77 95 106.5t108 29.5q22 0 41.5 -10t27.5 -18t27 -28q23 -25 43.5 -38t49.5 -13q37 0 65.5 15t40.5 33t23 33t18 15q11 0 21.5 -13t14.5 -27l5 -13q-69 -135 -199 -135q-31 0 -58 12.5t-36.5 22t-32.5 33.5q-18 23 -33 34t-36 11q-36 0 -64.5 -24.5 t-45 -48.5t-23.5 -24q-12 0 -25 12t-20 24z" />
<glyph unicode="&#x2000;" horiz-adv-x="957" />
<glyph unicode="&#x2001;" horiz-adv-x="1915" />
<glyph unicode="&#x2002;" horiz-adv-x="957" />
<glyph unicode="&#x2003;" horiz-adv-x="1915" />
<glyph unicode="&#x2004;" horiz-adv-x="638" />
<glyph unicode="&#x2005;" horiz-adv-x="478" />
<glyph unicode="&#x2006;" horiz-adv-x="319" />
<glyph unicode="&#x2007;" horiz-adv-x="319" />
<glyph unicode="&#x2008;" horiz-adv-x="239" />
<glyph unicode="&#x2009;" horiz-adv-x="383" />
<glyph unicode="&#x200a;" horiz-adv-x="106" />
<glyph unicode="&#x2010;" horiz-adv-x="604" d="M92 535q0 54 4 68.5t23 14.5h391q0 -54 -3.5 -68.5t-21.5 -14.5h-393z" />
<glyph unicode="&#x2011;" horiz-adv-x="604" d="M92 535q0 54 4 68.5t23 14.5h391q0 -54 -3.5 -68.5t-21.5 -14.5h-393z" />
<glyph unicode="&#x2012;" horiz-adv-x="604" d="M92 535q0 54 4 68.5t23 14.5h391q0 -54 -3.5 -68.5t-21.5 -14.5h-393z" />
<glyph unicode="&#x2013;" horiz-adv-x="903" d="M92 535q0 54 4 68.5t23 14.5h690q0 -54 -3.5 -68.5t-21.5 -14.5h-692z" />
<glyph unicode="&#x2014;" horiz-adv-x="1433" d="M12 535q0 54 3.5 68.5t21.5 14.5h1384q0 -55 -3 -69t-21 -14h-1385z" />
<glyph unicode="&#x2018;" horiz-adv-x="313" d="M80 1278q0 58 22 140.5t49 141t42 58.5q13 0 25 -9.5t15 -23.5q-45 -95 -45 -246q37 -23 37 -75q0 -33 -19.5 -53.5t-51.5 -20.5q-37 0 -55.5 19.5t-18.5 68.5z" />
<glyph unicode="&#x2019;" horiz-adv-x="313" d="M80 1208q42 89 47 246q-37 21 -37 74q0 34 19.5 55t50.5 21q37 0 55 -19.5t18 -68.5q0 -89 -43 -214.5t-69 -125.5q-14 0 -26 9.5t-15 22.5z" />
<glyph unicode="&#x201a;" horiz-adv-x="311" d="M80 -195q42 87 47 246q-37 21 -37 74q0 33 19.5 54.5t50.5 21.5q37 0 55 -19.5t18 -68.5q0 -90 -43 -215t-69 -125q-14 0 -26 9t-15 23z" />
<glyph unicode="&#x201c;" horiz-adv-x="587" d="M80 1278q0 58 22 140.5t49 141t42 58.5q13 0 25 -9.5t15 -23.5q-45 -95 -45 -246q37 -23 37 -75q0 -33 -19.5 -53.5t-51.5 -20.5q-37 0 -55.5 19.5t-18.5 68.5zM354 1278q0 58 22 140.5t49 141t42 58.5q14 0 26 -10t15 -23q-45 -100 -45 -246q37 -23 37 -75 q0 -32 -20 -53t-52 -21q-36 0 -55 20t-19 68z" />
<glyph unicode="&#x201d;" horiz-adv-x="587" d="M80 1208q42 89 47 246q-37 21 -37 74q0 34 19.5 55t50.5 21q37 0 55 -19.5t18 -68.5q0 -89 -43 -214.5t-69 -125.5q-14 0 -26 9.5t-15 22.5zM354 1208q47 99 47 246q-36 20 -36 74q0 34 19.5 55t51.5 21q36 0 55 -20t19 -68q0 -89 -44.5 -214.5t-70.5 -125.5 q-12 0 -24.5 9.5t-16.5 22.5z" />
<glyph unicode="&#x201e;" horiz-adv-x="585" d="M80 -195q42 87 47 246q-37 21 -37 74q0 33 19.5 54.5t50.5 21.5q37 0 55 -19.5t18 -68.5q0 -90 -43 -215t-69 -125q-14 0 -26 9t-15 23zM354 -195q47 97 47 246q-36 20 -36 74q0 33 19.5 54.5t51.5 21.5q36 0 55 -20t19 -68q0 -90 -44.5 -215t-70.5 -125q-13 0 -25 9 t-16 23z" />
<glyph unicode="&#x2022;" horiz-adv-x="430" d="M113 575q0 53 30.5 88t81.5 35q57 0 88 -34.5t31 -88.5q0 -53 -33 -87.5t-86 -34.5q-56 0 -84 32.5t-28 89.5z" />
<glyph unicode="&#x2026;" horiz-adv-x="972" d="M96 74q0 34 20.5 58t55.5 24q38 0 59 -23.5t21 -58.5q0 -36 -22 -60t-58 -24q-76 0 -76 84zM408 74q0 34 20.5 58t54.5 24q38 0 59 -23.5t21 -58.5q0 -36 -22 -60t-58 -24q-75 0 -75 84zM719 74q0 34 21 58t55 24q38 0 58.5 -23t20.5 -59t-21.5 -60t-57.5 -24 q-76 0 -76 84z" />
<glyph unicode="&#x202f;" horiz-adv-x="383" />
<glyph unicode="&#x2039;" horiz-adv-x="532" d="M66 512q0 21 77 149t153 245l77 118q16 0 29.5 -12t19.5 -24l6 -11q0 -20 -68 -136.5t-136 -222.5l-68 -106q280 -416 280 -453q-2 -7 -6.5 -16.5t-17.5 -26t-27 -16.5l-11 16.5t-29 42t-43 63l-50 75t-53.5 81.5t-49.5 78.5t-43 71t-29 53.5t-11 31z" />
<glyph unicode="&#x203a;" horiz-adv-x="532" d="M96 57q0 16 71 130t141 219l71 106q-275 420 -275 465q0 15 14.5 26.5t29.5 16.5l14 4q4 -6 10.5 -16.5t27.5 -42.5t41.5 -63.5t47.5 -75t51 -82t48 -78.5t41 -70.5t27.5 -53t10.5 -30.5q0 -23 -79.5 -151t-158.5 -245l-79 -116q-6 2 -15 5.5t-24 18t-15 33.5z" />
<glyph unicode="&#x205f;" horiz-adv-x="478" />
<glyph unicode="&#x20ac;" d="M49 440q0 46 7.5 62t33.5 16h143v33q0 99 9 182h-193q0 46 7.5 62t33.5 16h160q15 108 45.5 188t66.5 125t83.5 72t88.5 35t91 8q37 0 69.5 -6.5t54 -16t37.5 -20t23.5 -19.5t7.5 -14q0 -45 -18 -63q-85 53 -156 53q-39 0 -70 -6t-68.5 -26.5t-65.5 -56t-52.5 -100 t-38.5 -153.5h350q0 -45 -8 -61.5t-33 -16.5h-319q-6 -83 -6 -186v-29h286q0 -46 -7 -62t-33 -16h-244q7 -98 25.5 -168t42.5 -108.5t59.5 -60.5t66 -27.5t72.5 -5.5q60 0 118 24.5t89 57.5q16 -28 16 -66q0 -17 -31.5 -41.5t-88.5 -44.5t-117 -20q-57 0 -99 8t-88.5 35.5 t-77 76t-53.5 134.5t-30 206h-189z" />
<glyph unicode="&#x2122;" horiz-adv-x="1103" d="M74 1374v39q0 9 5 14t10 6l5 1h424v-41q0 -8 -5 -12.5t-10 -5.5l-5 -1h-162v-571q0 -14 -8.5 -16.5t-55.5 -2.5v590h-198zM567 784v629q1 21 21 21h35l108 -293l53 -133l45 129l105 276q0 6 4.5 13.5t13.5 7.5h43v-629q0 -15 -8 -18t-53 -3v236l4 242 q-11 -28 -24.5 -66.5t-22 -63.5t-10.5 -28l-72 -184q-4 -11 -10 -11h-43l-76 195l-57 156q6 -171 6 -240v-215q0 -15 -9 -18t-53 -3z" />
<glyph unicode="&#x25fc;" horiz-adv-x="1024" d="M0 0v1024h1024v-1024h-1024z" />
<glyph unicode="&#xfb03;" horiz-adv-x="1267" d="M33 942q0 59 3.5 70.5t24.5 11.5h134v154q0 64 12.5 116t32 85t48.5 58t56 37.5t61.5 20t57.5 9t51 1.5q116 0 213 -65q46 46 108.5 61t143.5 15q90 0 143.5 -18t53.5 -48q0 -20 -13 -55q-89 35 -186 35q-41 0 -70.5 -4t-65 -20t-57.5 -44.5t-37.5 -81.5t-15.5 -127v-129 h184q0 -59 -3 -70.5t-21 -11.5h-160v-917q1 -25 -24 -25h-68v942h-352v-917q0 -3 -0.5 -7t-7.5 -11t-19 -7h-65v942h-162zM287 1024h352v133q0 129 41 213q-68 51 -176 51q-29 0 -51 -2.5t-55.5 -16t-55.5 -37.5t-38.5 -71.5t-16.5 -113.5v-156zM1047 0v977q0 33 16.5 40 t77.5 7v-999q0 -19 -11.5 -22t-82.5 -3z" />
<glyph unicode="&#xfb04;" horiz-adv-x="1288" d="M33 942q0 59 3.5 70.5t24.5 11.5h134v154q0 64 12.5 116t32 85t48.5 58t56 37.5t61.5 20t57.5 9t51 1.5q115 0 209 -63q69 71 215 71q132 0 223 -51v-1437q0 -19 -11 -22t-81 -3v1407q-63 20 -125 20q-38 0 -61.5 -2.5t-55.5 -16.5t-50.5 -40t-32 -76.5t-13.5 -122.5 v-145h184q0 -59 -3 -70.5t-23 -11.5h-158v-917q1 -25 -24 -25h-68v942h-352v-917q0 -3 -0.5 -7t-7.5 -11t-19 -7h-65v942h-162zM287 1024h352v133q0 133 37 215q-66 49 -172 49q-29 0 -51 -2.5t-55.5 -16t-55.5 -37.5t-38.5 -71.5t-16.5 -113.5v-156z" />
</font>
</defs>
</svg>
