<?xml version="1.0" standalone="no"?>
<!DOCTYPE svg PUBLIC "-//W3C//DTD SVG 1.1//EN" "http://www.w3.org/Graphics/SVG/1.1/DTD/svg11.dtd" >
<svg xmlns="http://www.w3.org/2000/svg">
<metadata></metadata>
<defs>
<font id="roboto_condensedregular" horiz-adv-x="1011" >
<font-face units-per-em="2048" ascent="1536" descent="-512" />
<missing-glyph horiz-adv-x="469" />
<glyph unicode="&#xfb01;" horiz-adv-x="1003" d="M40 939v143h141v94q0 92 24 163t68.5 119.5t108.5 73.5t144 25q63 0 120 -17.5t120 -43.5l-30 -156q-35 18 -87 34t-109 16q-100 0 -140.5 -53t-40.5 -161v-94h175v-143h-175v-939h-178v939h-141zM674 0v1082h178v-1082h-178z" />
<glyph horiz-adv-x="0" />
<glyph unicode="&#xd;" horiz-adv-x="469" />
<glyph horiz-adv-x="0" />
<glyph horiz-adv-x="0" />
<glyph horiz-adv-x="40" />
<glyph unicode="&#x9;" horiz-adv-x="40" />
<glyph unicode=" "  horiz-adv-x="469" />
<glyph unicode="&#x09;" horiz-adv-x="469" />
<glyph unicode="&#xa0;" horiz-adv-x="469" />
<glyph unicode="!" horiz-adv-x="503" d="M156 93q0 45 25 75.5t76 30.5q50 0 75.5 -30.5t25.5 -75.5t-25.5 -74.5t-75.5 -29.5q-51 0 -76 29.5t-25 74.5zM160 1456h186l-14 -1045h-159z" />
<glyph unicode="&#x22;" horiz-adv-x="655" d="M136 1042l1 348v146h140v-136l-30 -358h-111zM406 1042l1 356v138h140v-136l-30 -358h-111z" />
<glyph unicode="#" horiz-adv-x="1113" d="M80 410v137h218l59 354h-214v139h237l69 416h134l-69 -416h205l69 416h136l-69 -416h162v-139h-185l-59 -354h181v-137h-204l-68 -410h-135l68 410h-206l-68 -410h-134l68 410h-195zM432 547h205l59 354h-205z" />
<glyph unicode="$" d="M111 429h176q0 -85 19 -141t50 -89t69 -46t76 -13q53 0 94.5 16.5t70 47t43.5 74t15 97.5q0 45 -12 83t-38.5 71t-69 61t-102.5 54q-80 29 -143.5 67.5t-108 90.5t-68 120t-23.5 157q0 82 20.5 150t59 118t93.5 82t123 43v220h141v-221q140 -25 216.5 -142.5t76.5 -320.5 h-175q0 67 -12.5 123t-36.5 97t-60 64t-82 23q-48 0 -83 -17t-58.5 -47.5t-35 -73.5t-11.5 -95q0 -48 11.5 -86.5t38.5 -70.5t70.5 -60.5t107.5 -55.5q82 -31 145 -69.5t106 -89.5t65 -118t22 -155q0 -86 -23 -154.5t-65 -118.5t-102 -80t-135 -40v-192h-139v192 q-63 9 -122 37t-104.5 81t-72.5 133.5t-27 193.5z" />
<glyph unicode="%" horiz-adv-x="1296" d="M107 1099v77q0 62 17.5 116.5t50 95.5t79.5 65t107 24t107.5 -24t80.5 -65t50 -95.5t17 -116.5v-77q0 -61 -17 -115.5t-49.5 -95t-79.5 -64.5t-107 -24t-107.5 24t-80.5 64.5t-50.5 95t-17.5 115.5zM236 1099q0 -35 7.5 -67t23.5 -57t40 -40t56 -15q31 0 54.5 15t39 39.5 t23 57t7.5 67.5v77q0 35 -7.5 67.5t-23.5 57.5t-39.5 40t-55.5 15t-55.5 -15t-39 -40t-23 -57.5t-7.5 -67.5v-77zM302 176l597 1138l98 -66l-598 -1138zM695 279v78q0 61 17.5 116t50 95.5t79.5 64.5t107 24t107.5 -24t80.5 -64.5t50.5 -95.5t17.5 -116v-78 q0 -62 -17.5 -116.5t-50.5 -95t-80 -64.5t-106 -24q-60 0 -107.5 24t-80.5 64.5t-50.5 95t-17.5 116.5zM824 279q0 -35 7.5 -67.5t23.5 -57.5t40 -40t56 -15q31 0 54.5 15t39 40t23 57.5t7.5 67.5v78q0 35 -7.5 67.5t-23.5 57t-39.5 39.5t-55.5 15t-55 -15t-39 -39.5 t-23.5 -57t-7.5 -67.5v-78z" />
<glyph unicode="&#x26;" horiz-adv-x="1113" d="M103 391q0 64 17.5 117.5t49 100t75.5 89.5t97 87q-32 45 -58.5 87t-45.5 83t-29 82t-10 85q0 85 22.5 151t64 111t99.5 68.5t129 23.5q70 0 126 -25t95 -67t60 -98t21 -118q0 -53 -11.5 -96.5t-32.5 -82t-52 -72t-70 -66.5l-91 -78l256 -369q23 58 35 125t12 143h158 q0 -123 -24.5 -227t-77.5 -189l178 -256h-212l-74 107q-31 -32 -68 -56t-77 -40t-81 -23.5t-80 -7.5q-93 0 -167.5 30.5t-126 85t-79.5 130t-28 165.5zM279 391q0 -53 14 -100.5t42 -83t70 -56t99 -20.5t112 28t103 82l-289 421l-30 -25q-42 -40 -66 -77.5t-36.5 -69.5 t-15.5 -57.5t-3 -41.5zM375 1128q0 -54 27 -111t70 -121l77 66q26 21 46 42t33 45t19.5 52.5t6.5 66.5q0 30 -9.5 58t-27.5 49.5t-44 35t-60 13.5t-60 -15.5t-43 -42.5t-26 -62.5t-9 -75.5z" />
<glyph unicode="'" horiz-adv-x="357" d="M103 1057l1 352v127h149v-111l-21 -368h-129z" />
<glyph unicode="(" horiz-adv-x="643" d="M129 581v10q0 145 20.5 272.5t55 235.5t79 197t91.5 157t93 116t85 74l35 -122q-47 -45 -96.5 -124t-91 -194.5t-68 -267.5t-26.5 -342v-14q0 -190 26.5 -342t68 -268t91 -197t96.5 -129l-35 -113q-39 26 -85 74t-93 116.5t-91.5 156.5t-79 196t-55 235t-20.5 273z" />
<glyph unicode=")" horiz-adv-x="652" d="M54 -357q47 45 97 125.5t91 197.5t67.5 270t26.5 343v14q0 190 -28.5 344t-71 271t-91.5 197.5t-91 124.5l35 113q39 -26 85.5 -74t93.5 -116t91 -157t78.5 -197t55 -235.5t20.5 -272.5v-10q0 -146 -20.5 -273t-55 -235t-78.5 -196t-91 -156.5t-93.5 -116.5t-85.5 -74z " />
<glyph unicode="*" horiz-adv-x="882" d="M28 1073l46 151l302 -112l-9 344h153l-10 -349l297 110l46 -152l-307 -91l198 -271l-124 -94l-186 288l-180 -281l-125 91l201 276z" />
<glyph unicode="+" horiz-adv-x="1017" d="M86 606v175h332v425h178v-425h329v-175h-329v-460h-178v460h-332z" />
<glyph unicode="," horiz-adv-x="402" d="M29 -218q47 66 72.5 135.5t25.5 150.5v151h181v-148q0 -45 -11.5 -94t-34 -97t-54.5 -92t-74 -78z" />
<glyph unicode="-" horiz-adv-x="508" d="M47 543v151h413v-151h-413z" />
<glyph unicode="." horiz-adv-x="539" d="M144 97q0 48 28.5 80t85.5 32t86.5 -32t29.5 -80q0 -46 -29.5 -77t-86.5 -31t-85.5 31t-28.5 77z" />
<glyph unicode="/" horiz-adv-x="759" d="M31 -125l511 1581h149l-510 -1581h-150z" />
<glyph unicode="0" d="M115 621v222q0 179 28 300t79 195t122.5 106t159.5 32q89 0 161 -32t123 -106t79 -195t28 -300v-222q0 -179 -27.5 -301.5t-78 -198t-122.5 -108.5t-161 -33q-88 0 -160 33t-123.5 108.5t-79.5 198t-28 301.5zM291 592q0 -122 14.5 -209.5t42 -143.5t67.5 -82t91 -26 q52 0 92 26t66.5 82t40 143.5t13.5 209.5v282q0 123 -14 209t-41 139.5t-67 77.5t-92 24q-51 0 -90.5 -24t-66.5 -77.5t-41.5 -139.5t-14.5 -209v-282z" />
<glyph unicode="1" d="M160 1096v168l456 199h28v-1463h-178v1233z" />
<glyph unicode="2" d="M94 1027q0 92 26 174t77 143t127.5 96.5t178.5 35.5q88 0 157.5 -28t117.5 -79.5t73.5 -123.5t25.5 -159q0 -64 -17.5 -129t-48.5 -129.5t-72 -128t-87 -124.5l-324 -424h603v-151h-814v133l400 530q55 73 90.5 129t56 102.5t28 87t7.5 82.5q0 54 -13 101.5t-38 82.5 t-61.5 55.5t-83.5 20.5q-61 0 -104.5 -22t-72 -61t-42 -93.5t-13.5 -120.5h-177z" />
<glyph unicode="3" d="M98 384h177q0 -57 14 -103.5t41 -80t65.5 -51.5t88.5 -18q99 0 157.5 67t58.5 204q0 136 -65 200.5t-177 64.5h-115v151h115q57 0 99.5 19t70 52.5t41.5 79t14 99.5q0 125 -49.5 190.5t-148.5 65.5q-47 0 -84.5 -17.5t-63.5 -50t-40.5 -79t-14.5 -103.5h-176 q0 84 26.5 157t76 127.5t119.5 86t157 31.5q84 0 152.5 -26.5t118 -78t76.5 -128.5t27 -179q0 -41 -10.5 -86t-33.5 -88t-58.5 -80.5t-86.5 -62.5q62 -23 102 -60.5t63 -83.5t32 -97t9 -100q0 -102 -30 -181.5t-82.5 -133.5t-124 -82.5t-155.5 -28.5q-82 0 -152.5 26.5 t-122.5 78t-81.5 127t-29.5 172.5z" />
<glyph unicode="4" d="M60 338v109l541 1009h186v-967h162v-151h-162v-338h-177v338h-550zM256 489h354v692l-9 -18z" />
<glyph unicode="5" d="M145 383h166q15 -125 71.5 -188.5t147.5 -63.5q51 0 92 23t69 66t43 104.5t15 137.5q0 68 -15.5 127t-44.5 102.5t-72.5 68.5t-98.5 25q-38 0 -64.5 -6.5t-47 -18.5t-38.5 -29.5t-38 -38.5l-141 38l63 726h633v-171h-484l-34 -397q33 23 81.5 43t112.5 20q85 0 153 -34.5 t114.5 -98t71.5 -153.5t25 -201q0 -105 -24.5 -193.5t-74 -153t-123.5 -101t-173 -36.5q-75 0 -141.5 24.5t-118 74.5t-84.5 126t-41 178z" />
<glyph unicode="6" horiz-adv-x="1010" d="M131 538v87q0 102 8.5 203.5t32 194t65 172t106.5 138t157.5 91.5t217.5 33h14v-157h-14q-113 0 -188.5 -39t-122 -104t-68.5 -149t-28 -175q50 63 113 92.5t135 29.5q93 0 159 -41.5t108.5 -109t62.5 -153.5t20 -176q0 -104 -24 -194.5t-72.5 -157t-120.5 -105 t-168 -38.5q-102 0 -176 49t-122.5 128.5t-71.5 179.5t-23 201zM308 533q0 -98 18.5 -172.5t49 -125t69.5 -76.5t79 -26q51 0 90.5 24.5t66.5 69t41 105.5t14 134q0 65 -12.5 125.5t-38.5 107t-65 74.5t-91 28q-38 0 -72 -15t-63 -41.5t-51 -62t-35 -76.5v-73z" />
<glyph unicode="7" d="M85 1304v152h835v-104l-501 -1352h-185l500 1304h-649z" />
<glyph unicode="8" d="M116 393q0 61 14 115t40.5 100t64 82t84.5 60q-82 48 -129 132.5t-47 193.5q0 95 27 169.5t75 125.5t114.5 78t145.5 27t145.5 -27t114.5 -78t74.5 -125.5t26.5 -169.5q0 -109 -48.5 -194t-130.5 -133q47 -24 85.5 -60t65.5 -81.5t41.5 -99.5t14.5 -115q0 -100 -30 -177 t-82 -129.5t-123.5 -79.5t-153.5 -27q-83 0 -154 27t-123 79.5t-82 129.5t-30 177zM292 397q0 -126 55.5 -196t157.5 -70t157 70t55 196q0 61 -15 112t-43 87.5t-67.5 56.5t-88.5 20q-50 0 -89 -20t-66 -56.5t-41.5 -87.5t-14.5 -112zM320 1073q0 -56 13 -102t37.5 -78.5 t58.5 -50t76 -17.5t76.5 17.5t58.5 50t37 78.5t13 102q0 54 -13 100t-37.5 79.5t-58.5 52.5t-76 19t-76 -17.5t-58 -50t-37.5 -79t-13.5 -104.5z" />
<glyph unicode="9" d="M104 972q0 104 24 196t71.5 160.5t119 108t167.5 39.5q107 0 181.5 -50.5t121 -133.5t67.5 -188.5t21 -216.5v-67q0 -95 -6.5 -192.5t-27.5 -189t-60 -171.5t-104 -139.5t-160.5 -94t-228.5 -34.5h-13v156h13q124 0 202 38.5t123 103.5t63 149t21 176q-48 -61 -110.5 -98 t-137.5 -37q-93 0 -158.5 42.5t-107.5 111t-61.5 155.5t-19.5 176zM277 982q0 -65 12 -126.5t37 -109.5t63.5 -77t91.5 -29q34 0 66.5 15t61.5 41t52.5 61.5t39.5 76.5v78q0 99 -18.5 175.5t-49 128.5t-69 79t-78.5 27q-50 0 -89 -26t-65.5 -71.5t-40.5 -107.5t-14 -135z " />
<glyph unicode=":" horiz-adv-x="478" d="M138 97q0 48 28.5 80t85.5 32t86.5 -32t29.5 -80q0 -46 -29.5 -77t-86.5 -31t-85.5 31t-28.5 77zM139 980q0 48 28.5 80t85.5 32t86.5 -32t29.5 -80q0 -46 -29.5 -77t-86.5 -31t-85.5 31t-28.5 77z" />
<glyph unicode=";" horiz-adv-x="415" d="M43 -218q47 66 72.5 135.5t25.5 150.5v151h181v-148q0 -45 -11.5 -94t-34 -97t-54.5 -92t-74 -78zM115 980q0 48 28.5 80t85.5 32t86.5 -32t29.5 -80q0 -46 -29.5 -77t-86.5 -31t-85.5 31t-28.5 77z" />
<glyph unicode="&#x3c;" horiz-adv-x="913" d="M79 574v146l684 378v-196l-510 -258l510 -253v-196z" />
<glyph unicode="=" horiz-adv-x="981" d="M148 399v160h701v-160h-701zM148 814v161h701v-161h-701z" />
<glyph unicode="&#x3e;" horiz-adv-x="942" d="M136 196v192l542 263l-542 258v190l720 -378v-146z" />
<glyph unicode="?" horiz-adv-x="864" d="M80 1115q1 85 28 152t74.5 113.5t111.5 71t139 24.5q82 0 146 -26.5t108.5 -76t67.5 -120t23 -157.5q0 -68 -19 -127t-50 -112.5t-69.5 -101t-77.5 -92.5q-43 -51 -57.5 -115t-14.5 -138h-176q0 72 8 123t25 93t45 81.5t69 88.5q27 35 52 66.5t44.5 65t31.5 72.5t12 90 q0 105 -43.5 164.5t-124.5 59.5q-32 0 -63.5 -11.5t-57 -36t-41 -62t-15.5 -89.5h-176zM310 93q0 45 24.5 75.5t75.5 30.5q50 0 75.5 -30.5t25.5 -75.5t-25.5 -74.5t-75.5 -29.5q-51 0 -75.5 29.5t-24.5 74.5z" />
<glyph unicode="@" horiz-adv-x="1575" d="M114 478q7 205 60.5 379.5t146 302t221 199.5t286.5 72q159 0 282.5 -65.5t206.5 -186t122.5 -292.5t32.5 -385q-2 -61 -11.5 -124t-27.5 -121t-45.5 -108.5t-65.5 -88t-88 -59t-112 -21.5q-79 0 -129.5 41.5t-73.5 117.5q-45 -80 -100.5 -119.5t-112.5 -39.5 q-63 0 -109.5 31.5t-75.5 88.5t-40 137.5t-3 179.5q10 132 44 238t83.5 180t110.5 114t124 40q47 0 82.5 -8.5t64.5 -23t53.5 -33.5t48.5 -41l-45 -554q-5 -73 2.5 -118.5t22 -70.5t34 -33.5t40.5 -8.5q49 0 86.5 31.5t64 86t41 128.5t17.5 158q7 187 -21 334.5t-93.5 250.5 t-168.5 157.5t-245 54.5q-131 0 -234.5 -59.5t-176.5 -168t-114.5 -259.5t-47.5 -334q-7 -187 24 -336t97.5 -253.5t166.5 -160.5t231 -56q37 0 75.5 5.5t75 16t69.5 25t59 32.5l33 -115q-30 -22 -68 -38.5t-80 -28t-85 -17t-82 -5.5q-160 0 -284.5 64.5t-209 185.5 t-125.5 293.5t-34 387.5zM628 417q-11 -142 22 -218t102 -76q18 0 38.5 10t41 32.5t39 58t33.5 85.5l2 20l39 509q-19 10 -41 16.5t-48 6.5q-44 0 -82 -28t-68 -84t-50.5 -139t-27.5 -193z" />
<glyph unicode="A" horiz-adv-x="1180" d="M43 0l469 1456h157l470 -1456h-188l-115 380h-492l-113 -380h-188zM392 538h397l-199 662z" />
<glyph unicode="B" horiz-adv-x="1117" d="M157 0v1456h415q94 0 168.5 -22.5t126 -70t78.5 -120.5t27 -175t-51 -180t-138 -121q53 -16 93.5 -49t68 -78.5t41.5 -101.5t14 -118q0 -102 -29 -180.5t-82.5 -132t-129.5 -80.5t-169 -27h-433zM340 157h250q54 0 96 18.5t71 52t44 82t15 108.5t-12.5 109t-39 83 t-68 52.5t-99.5 18.5h-257v-524zM340 835h235q46 0 85 16t67 46t44 73.5t16 98.5q0 120 -53 174.5t-162 54.5h-232v-463z" />
<glyph unicode="C" horiz-adv-x="1161" d="M124 593v269q0 140 33.5 253.5t97 193.5t155.5 123.5t208 43.5q106 0 187.5 -32t138.5 -94t89 -153t37 -209h-185q-6 86 -23 148t-49 102.5t-80 60t-115 19.5q-80 0 -138 -32.5t-96 -91.5t-56.5 -143t-18.5 -187v-271q0 -96 15.5 -179t50 -145t90.5 -97.5t136 -35.5 q75 0 126.5 18.5t84 58t49.5 101t24 148.5h185q-6 -113 -37.5 -202t-89.5 -151.5t-143.5 -95.5t-198.5 -33q-110 0 -198 43t-150 123t-95.5 193t-33.5 254z" />
<glyph unicode="D" horiz-adv-x="1169" d="M157 0v1456h347q123 0 222 -38.5t169 -115t108 -190t38 -262.5v-246q0 -149 -38 -262t-109 -189t-174 -114.5t-233 -38.5h-330zM340 157h147q195 0 284 113t89 334v249q0 230 -88.5 337.5t-267.5 107.5h-164v-1141z" />
<glyph unicode="E" horiz-adv-x="1017" d="M157 0v1456h773v-158h-590v-468h515v-157h-515v-516h600v-157h-783z" />
<glyph unicode="F" horiz-adv-x="984" d="M157 0v1456h758v-158h-575v-498h492v-157h-492v-643h-183z" />
<glyph unicode="G" horiz-adv-x="1210" d="M124 591v274q0 611 489 611q106 0 188.5 -30.5t139.5 -88t89 -140.5t38 -188h-183q-11 136 -75.5 212.5t-195.5 76.5q-84 0 -142 -28t-94.5 -84.5t-53 -141t-16.5 -197.5v-276q0 -116 23 -202t65.5 -142t102.5 -83.5t134 -27.5q63 0 106 11t71.5 27t45.5 32t29 27v336 h-266v156h449v-544q-18 -24 -48.5 -58.5t-81.5 -66t-125.5 -54t-180.5 -22.5q-113 0 -206.5 38t-160.5 114t-104 191t-37 268z" />
<glyph unicode="H" horiz-adv-x="1270" d="M157 0v1456h183v-626h586v626h184v-1456h-184v673h-586v-673h-183z" />
<glyph unicode="I" horiz-adv-x="512" d="M165 0v1456h183v-1456h-183z" />
<glyph unicode="J" horiz-adv-x="990" d="M59 402h183q0 -69 16 -119t44 -82.5t66 -48t82 -15.5q45 0 83.5 18.5t66.5 54.5t43.5 90t15.5 125v1031h184v-1031q0 -108 -29 -191.5t-81 -139.5t-124.5 -85t-158.5 -29q-85 0 -156.5 25.5t-123.5 78t-81.5 132t-29.5 186.5z" />
<glyph unicode="K" horiz-adv-x="1116" d="M157 0v1456h183v-703l120 159l392 544h220l-473 -641l510 -815h-219l-407 671l-143 -173v-498h-183z" />
<glyph unicode="L" horiz-adv-x="973" d="M157 0v1456h184v-1299h571v-157h-755z" />
<glyph unicode="M" horiz-adv-x="1547" d="M157 0v1456h236l380 -1188l380 1188h236v-1456h-183v567l17 568l-381 -1135h-140l-379 1131l17 -564v-567h-183z" />
<glyph unicode="N" horiz-adv-x="1268" d="M157 0v1456h184l585 -1127v1127h182v-1456h-184l-583 1122v-1122h-184z" />
<glyph unicode="O" horiz-adv-x="1230" d="M125 600v253q0 154 35.5 270.5t99.5 195t154 118t200 39.5q113 0 203.5 -39.5t154.5 -118t98 -195t34 -270.5v-253q0 -155 -34 -271t-97 -193.5t-153.5 -116.5t-203.5 -39q-110 0 -200 39t-155 116.5t-100.5 193.5t-35.5 271zM307 600q0 -121 22 -207.5t62 -142t97 -81.5 t128 -26q75 0 132 26t95.5 81.5t58 142t19.5 207.5v255q0 120 -20 206.5t-59 142t-96 81.5t-132 26q-71 0 -127.5 -26t-96.5 -81.5t-61.5 -142t-21.5 -206.5v-255z" />
<glyph unicode="P" horiz-adv-x="1135" d="M157 0v1456h464q105 0 186.5 -33t136.5 -92.5t83.5 -141t28.5 -178.5q0 -105 -28.5 -187.5t-84 -138.5t-136.5 -85.5t-186 -29.5h-281v-570h-183zM340 727h281q67 0 114.5 21t78 58.5t45 89t14.5 113.5q0 56 -14.5 108.5t-45 92.5t-78 64t-114.5 24h-281v-571z" />
<glyph unicode="Q" horiz-adv-x="1230" d="M116 601v252q0 154 35.5 271t99.5 195t154 117.5t200 39.5q113 0 204 -39.5t154.5 -117.5t98 -195t34.5 -271v-252q0 -192 -51.5 -324.5t-146.5 -206.5l217 -195l-124 -121l-262 239q-29 -6 -59.5 -9.5t-62.5 -3.5q-110 0 -200 39t-155 117t-100.5 194t-35.5 271z M299 601q0 -121 22 -208t62 -142.5t97 -81.5t127 -26q75 0 132 26t96 81.5t58.5 142.5t19.5 208v254q0 120 -20 206.5t-59 142t-96.5 81.5t-132.5 26q-70 0 -126.5 -26t-96.5 -81.5t-61.5 -142t-21.5 -206.5v-254z" />
<glyph unicode="R" horiz-adv-x="1087" d="M157 0v1456h408q214 0 324 -111.5t110 -326.5q0 -135 -59.5 -235.5t-168.5 -151.5l282 -619v-12h-197l-259 589h-256v-589h-184zM341 746h222q63 0 110 21.5t78.5 58t47.5 86t16 106.5q0 63 -14 114.5t-44 88.5t-77.5 57t-114.5 20h-224v-552z" />
<glyph unicode="S" horiz-adv-x="1061" d="M85 422h184q0 -75 22 -128.5t60.5 -88.5t89.5 -51.5t109 -16.5q121 0 182 62t61 169q0 51 -11.5 90t-42.5 71.5t-84 61t-137 58.5q-90 31 -163 70.5t-124.5 91t-79.5 117.5t-28 151t29.5 157.5t84 126t132 83.5t172.5 30q106 0 187.5 -37t137 -98t83.5 -141t28 -165h-184 q0 61 -14.5 113t-45.5 90t-78.5 59t-113.5 21q-61 0 -105 -18t-72.5 -49.5t-42 -74.5t-13.5 -94q0 -92 66 -154t204 -111q106 -35 182 -77.5t124.5 -96.5t71 -121t22.5 -152q0 -89 -30 -161t-85.5 -123t-134.5 -78.5t-178 -27.5q-86 0 -169.5 28t-149 83.5t-106 138.5 t-40.5 192z" />
<glyph unicode="T" horiz-adv-x="1066" d="M60 1298v158h948v-158h-383v-1298h-183v1298h-382z" />
<glyph unicode="U" horiz-adv-x="1150" d="M130 430v1026h182v-1026q0 -85 19 -141.5t53.5 -90.5t83 -48t108.5 -14t109 14t83.5 48t53.5 90.5t19 141.5v1026h184v-1026q0 -123 -37 -208.5t-99 -139.5t-143 -78t-170 -24q-94 0 -175.5 24t-141.5 78t-94.5 139.5t-34.5 208.5z" />
<glyph unicode="V" horiz-adv-x="1147" d="M42 1456h200l331 -1175l333 1175h201l-453 -1456h-160z" />
<glyph unicode="W" horiz-adv-x="1560" d="M71 1456h183l181 -997l19 -163l29 144l233 1016h153l226 -1016l29 -148l21 168l178 996h183l-290 -1456h-165l-243 1061l-15 86l-15 -86l-252 -1061h-166z" />
<glyph unicode="X" horiz-adv-x="1128" d="M68 0l389 734l-381 722h214l276 -558l274 558h215l-379 -722l387 -734h-217l-280 568l-281 -568h-217z" />
<glyph unicode="Y" horiz-adv-x="1074" d="M30 1456h208l298 -731l298 731h207l-414 -913v-543h-183v543z" />
<glyph unicode="Z" horiz-adv-x="1070" d="M91 0v144l663 1154h-656v158h860v-141l-664 -1158h691v-157h-894z" />
<glyph unicode="[" horiz-adv-x="513" d="M137 -312v1976h332v-152h-155v-1672h155v-152h-332z" />
<glyph unicode="\" horiz-adv-x="756" d="M51 1456h167l510 -1581h-166z" />
<glyph unicode="]" horiz-adv-x="513" d="M30 -160h157v1672h-157v152h333v-1976h-333v152z" />
<glyph unicode="^" horiz-adv-x="760" d="M69 729l252 727h118l250 -727h-161l-149 482l-147 -482h-163z" />
<glyph unicode="_" horiz-adv-x="829" d="M24 0h781v-151h-781v151z" />
<glyph unicode="`" horiz-adv-x="633" d="M57 1534h223l194 -294h-159z" />
<glyph unicode="a" horiz-adv-x="981" d="M114 295q0 78 27 144t80 114t133 75.5t186 27.5h123v115q0 97 -43 138t-131 41q-43 0 -76.5 -13.5t-56.5 -36.5t-35 -53.5t-12 -64.5h-177q0 58 25.5 115.5t73 103t115.5 73.5t152 28q75 0 137.5 -18t108 -58t70.5 -103t25 -154v-533q0 -27 2 -57t6.5 -59t11 -55.5 t14.5 -48.5v-16h-184q-9 20 -14.5 51.5t-8.5 66.5q-19 -28 -43.5 -53t-55 -44t-66 -30t-75.5 -11q-71 0 -128.5 20t-98.5 60t-63 98.5t-22 136.5zM291 316q0 -49 10 -82.5t30 -54t50.5 -29.5t71.5 -9q37 0 70 11t60 28.5t47.5 40t32.5 46.5v258h-93q-64 0 -115.5 -14 t-88 -40.5t-56 -65.5t-19.5 -89z" />
<glyph unicode="b" horiz-adv-x="1010" d="M133 0v1536h176v-573q42 67 103 103t147 36t152.5 -30t112 -92.5t69 -159.5t23.5 -230v-101q0 -129 -23.5 -224.5t-69 -158.5t-111.5 -94.5t-151 -31.5q-91 0 -153.5 38t-104.5 110l-9 -128h-161zM309 282q14 -31 33.5 -58t45 -46.5t57 -30.5t70.5 -11q121 0 173 85.5 t52 267.5v101q0 90 -11.5 156.5t-38 110.5t-70 66t-107.5 22q-76 0 -125.5 -42t-78.5 -106v-515z" />
<glyph unicode="c" horiz-adv-x="946" d="M96 480v122q0 118 25 210.5t76 157t128 98.5t182 34q82 0 148.5 -26.5t114 -77t74.5 -123.5t30 -165h-167q-6 120 -57.5 180t-142.5 60q-70 0 -115 -25t-71.5 -70.5t-37 -109.5t-10.5 -143v-122q0 -80 10 -144.5t36.5 -110t72 -70t116.5 -24.5q39 0 74 12t62 37.5 t43.5 65t19.5 95.5h167q-3 -81 -33.5 -147.5t-80 -114t-114.5 -73.5t-138 -26q-105 0 -182.5 34t-128.5 98t-76 157t-25 211z" />
<glyph unicode="d" horiz-adv-x="1016" d="M95 489v101q0 133 26 230t73.5 159.5t114.5 92.5t148 30t140.5 -32.5t101.5 -93.5v560h177v-1536h-162l-9 116q-42 -66 -103 -101t-146 -35q-80 0 -146.5 31.5t-114 94.5t-74 158.5t-26.5 224.5zM272 489q0 -182 54 -267.5t176 -85.5q74 0 121 37t76 96v546 q-30 57 -77.5 93.5t-118.5 36.5q-123 0 -177 -87t-54 -268v-101z" />
<glyph unicode="e" horiz-adv-x="959" d="M99 463v122q0 143 34 241.5t89.5 160t127.5 88.5t149 27q102 0 174 -33.5t118 -98.5t67 -160t21 -219v-103h-604v-25q0 -174 65.5 -253t188.5 -79q45 0 81 9t66 25.5t55 39t47 49.5l92 -112q-22 -31 -53 -60t-74 -51.5t-98.5 -36.5t-125.5 -14q-97 0 -175 29t-132.5 88.5 t-83.5 150.5t-29 215zM276 640h426v24q-3 63 -13.5 115.5t-33 90.5t-60.5 59t-96 21q-46 0 -85 -14t-68.5 -49.5t-47.5 -95.5t-22 -151z" />
<glyph unicode="f" horiz-adv-x="648" d="M69 939v143h141v114q0 87 21.5 154.5t61.5 113.5t98 69.5t130 23.5q53 0 107 -17l-9 -150q-17 4 -39 6.5t-42 2.5q-72 0 -111.5 -52.5t-39.5 -150.5v-114h185v-143h-185v-939h-177v939h-141z" />
<glyph unicode="g" horiz-adv-x="1009" d="M97 489v101q0 133 25 230t72 159.5t114 92.5t150 30q87 0 148 -36t103 -105l9 121h160v-1091q0 -108 -28.5 -186.5t-80.5 -129.5t-123.5 -76t-157.5 -25q-31 0 -75 8.5t-90.5 25.5t-90 42.5t-73.5 60.5l72 122q58 -57 122 -82.5t121 -25.5q52 0 94 13.5t71.5 44 t45.5 79.5t16 120v125q-42 -62 -101.5 -94.5t-142.5 -32.5q-82 0 -148.5 31.5t-113.5 94.5t-72.5 158.5t-25.5 224.5zM274 489q0 -182 53.5 -267.5t175.5 -85.5q75 0 122 38t76 97v541q-30 58 -77.5 95.5t-118.5 37.5q-123 0 -177 -87t-54 -268v-101z" />
<glyph unicode="h" horiz-adv-x="989" d="M132 0v1536h177v-565q48 62 113.5 96.5t144.5 34.5q66 0 120 -21.5t92 -69t58.5 -122t20.5 -180.5v-709h-176v711q0 127 -42.5 180.5t-127.5 53.5q-66 0 -118.5 -44t-84.5 -115v-786h-177z" />
<glyph unicode="i" horiz-adv-x="469" d="M136 1369q0 45 25 76t75 31t75.5 -31.5t25.5 -75.5q0 -45 -25 -75t-76 -30q-50 0 -75 30t-25 75zM146 0v1082h177v-1082h-177z" />
<glyph unicode="j" horiz-adv-x="458" d="M-23 -271q17 -5 36.5 -6.5t32.5 -1.5q45 0 67.5 33.5t22.5 116.5v1211h177v-1211q0 -150 -58 -229t-180 -79q-21 0 -49.5 5t-47.5 13zM121 1369q0 45 24.5 76t74.5 31t75.5 -31.5t25.5 -75.5q0 -45 -25 -75t-76 -30q-50 0 -74.5 30t-24.5 75z" />
<glyph unicode="k" horiz-adv-x="923" d="M133 0v1536h177v-919l79 109l258 356h212l-344 -452l389 -630h-206l-294 495l-94 -108v-387h-177z" />
<glyph unicode="l" horiz-adv-x="469" d="M146 0v1536h177v-1536h-177z" />
<glyph unicode="m" horiz-adv-x="1541" d="M133 0v1082h166l4 -100q47 57 111.5 88.5t149.5 31.5q82 0 148.5 -37t104.5 -120q46 71 116.5 114t167.5 43q73 0 130 -22.5t96 -70.5t59.5 -122t20.5 -176v-711h-176v712q0 68 -13 113t-37 72t-58 37.5t-76 10.5t-75 -17t-56.5 -47t-38 -70t-18.5 -86v-5v-720h-178v711 q0 63 -12.5 107.5t-36.5 72.5t-58 41t-76 13q-74 0 -119 -36.5t-70 -97.5v-811h-176z" />
<glyph unicode="n" horiz-adv-x="991" d="M132 0v1082h167l5 -117q49 65 115.5 101t147.5 36q66 0 120 -21.5t92 -69t58.5 -122t20.5 -180.5v-709h-176v711q0 127 -42.5 180.5t-127.5 53.5q-66 0 -118.5 -44t-84.5 -115v-786h-177z" />
<glyph unicode="o" horiz-adv-x="1028" d="M95 489v102q0 127 32.5 222.5t89 159.5t132.5 96.5t163 32.5q88 0 165 -32.5t133.5 -96.5t89 -159.5t32.5 -222.5v-102q0 -126 -32.5 -221.5t-89 -159.5t-132.5 -96t-164 -32t-164.5 32t-133 96t-89 159.5t-32.5 221.5zM272 489q0 -90 18.5 -157t51 -111.5t76.5 -67 t96 -22.5q241 0 241 358v102q0 89 -18.5 156t-51 112t-77 68t-96.5 23q-51 0 -95 -23t-76 -68t-50.5 -112t-18.5 -156v-102z" />
<glyph unicode="p" horiz-adv-x="1010" d="M133 -416v1498h160l9 -120q43 68 105.5 104t149.5 36t153.5 -30t111.5 -92.5t68.5 -159.5t23.5 -230v-101q0 -257 -92.5 -383t-261.5 -126q-85 0 -146.5 31.5t-104.5 91.5v-519h-176zM309 255q29 -55 75 -89.5t120 -34.5q121 0 177.5 88t56.5 270v101q0 182 -56 268.5 t-180 86.5q-69 0 -116.5 -35.5t-76.5 -91.5v-563z" />
<glyph unicode="q" horiz-adv-x="1025" d="M95 489v101q0 133 25 230t72 159.5t115 92.5t154 30q81 0 141.5 -32.5t102.5 -93.5l8 106h162v-1498h-177v511q-42 -56 -101 -85.5t-137 -29.5q-86 0 -153.5 31.5t-114.5 94.5t-72 158.5t-25 224.5zM272 489q0 -182 56 -270t178 -88q69 0 115 32.5t77 86.5v580 q-32 53 -78.5 86.5t-112.5 33.5q-123 0 -179 -89.5t-56 -270.5v-101z" />
<glyph unicode="r" horiz-adv-x="623" d="M132 0v1082h172l3 -110q33 60 82.5 95t118.5 35q8 0 18.5 -1.5t20.5 -3.5t18.5 -4.5t12.5 -4.5l1 -172q-21 4 -39 5.5t-41 1.5q-72 0 -118.5 -40t-71.5 -109v-774h-177z" />
<glyph unicode="s" horiz-adv-x="933" d="M99 323h178q2 -57 21 -94t47.5 -59t63.5 -30.5t69 -8.5q88 0 134 39.5t46 106.5q0 30 -11 54.5t-36 47t-64.5 44.5t-97.5 48q-75 31 -134.5 61t-100 66.5t-62 84t-21.5 112.5q0 64 24.5 120t69.5 97.5t108 65.5t141 24q82 0 147 -25t110 -69.5t69 -104.5t24 -129h-176 q0 33 -11.5 64.5t-34 56.5t-54.5 40t-74 15q-45 0 -76.5 -12.5t-51.5 -33t-29.5 -47.5t-9.5 -56q0 -30 8.5 -51.5t29.5 -40.5t57.5 -38t93.5 -44q82 -32 145.5 -64.5t106.5 -71t65 -87.5t22 -114q0 -71 -25.5 -128.5t-72.5 -98t-113 -62t-146 -21.5q-92 0 -163 28.5t-119 76 t-72.5 109.5t-24.5 129z" />
<glyph unicode="t" horiz-adv-x="605" d="M23 939v143h165v262h176v-262h163v-143h-163v-671q0 -42 8 -67.5t21 -39.5t29.5 -18.5t34.5 -4.5t40 4.5t31 7.5l-2 -150q-18 -6 -47.5 -13t-75.5 -7q-43 0 -82 14.5t-68.5 48.5t-47 89.5t-17.5 136.5v670h-165z" />
<glyph unicode="u" horiz-adv-x="990" d="M129 383v699h176v-701q0 -73 13.5 -120.5t35 -75t49 -38t54.5 -10.5q88 0 141 39t81 105v801h177v-1082h-168l-4 95q-42 -55 -105.5 -85t-151.5 -30q-67 0 -122 22.5t-94 71t-60.5 125t-21.5 184.5z" />
<glyph unicode="v" horiz-adv-x="876" d="M46 1082h180l213 -813l205 813h180l-321 -1082h-132z" />
<glyph unicode="w" horiz-adv-x="1331" d="M50 1082h174l168 -752l201 752h140l206 -771l164 771h175l-265 -1082h-141l-211 774l-206 -774h-142z" />
<glyph unicode="x" horiz-adv-x="899" d="M52 0l301 547l-293 535h203l182 -395l185 395h205l-294 -535l301 -547h-203l-191 405l-192 -405h-204z" />
<glyph unicode="y" horiz-adv-x="853" d="M35 1082h193l200 -788l197 788h188l-358 -1249q-12 -40 -33.5 -87t-54.5 -87.5t-79.5 -68t-107.5 -27.5q-10 0 -23 2t-26 4.5t-24.5 5t-18.5 4.5v150q6 -2 19.5 -3t19.5 -1q39 0 69 9t53.5 29.5t41 54.5t31.5 84l31 107z" />
<glyph unicode="z" horiz-adv-x="899" d="M94 0v136l496 793h-492v153h700v-131l-502 -800h522v-151h-724z" />
<glyph unicode="{" horiz-adv-x="627" d="M72 543v145q91 0 131.5 64t40.5 173v207q0 79 15 150.5t50 132t94 107t146 75.5l36 -115q-48 -19 -79.5 -53t-50 -79.5t-26.5 -101t-8 -116.5v-207q0 -101 -35 -182t-112 -128q77 -47 112 -128.5t35 -181.5v-206q0 -62 7.5 -117t26.5 -100.5t50 -79.5t79 -53l-35 -115 q-87 29 -146 76t-94 107t-50 132t-15 150v206q0 54 -9.5 98t-30.5 75t-53.5 48t-78.5 17z" />
<glyph unicode="|" horiz-adv-x="499" d="M175 -270v1726h149v-1726h-149z" />
<glyph unicode="}" horiz-adv-x="627" d="M39 -251q48 19 79.5 53t50.5 79.5t27 100.5t8 117v206q0 105 37.5 185.5t121.5 124.5q-83 43 -121 124.5t-38 185.5v207q0 61 -8 116.5t-27 101t-50.5 79.5t-79.5 53l36 115q88 -29 146.5 -75.5t93.5 -107t50 -132t15 -150.5v-207q0 -54 9.5 -98t30.5 -75t53.5 -47.5 t78.5 -16.5v-145q-46 0 -78.5 -17t-53.5 -48t-30.5 -75t-9.5 -98v-206q0 -78 -15 -150t-50 -132t-93.5 -107t-146.5 -76z" />
<glyph unicode="~" horiz-adv-x="1207" d="M125 436q0 78 21 145t58.5 116t89 77t112.5 28q72 0 130 -36.5t120 -102.5q41 -50 74.5 -74t72.5 -24q30 0 55 15.5t43.5 43.5t28.5 66.5t10 85.5l144 1q0 -77 -21.5 -145t-59 -119t-89 -81t-111.5 -30q-37 0 -68.5 9t-61.5 26t-59.5 43t-61.5 61q-40 47 -74 72.5 t-72 25.5q-62 0 -95 -53.5t-33 -147.5z" />
<glyph unicode="&#xa1;" horiz-adv-x="474" d="M136 996q0 45 25 75t76 30q50 0 75.5 -30t25.5 -75t-25.5 -76t-75.5 -31q-51 0 -76 31t-25 76zM148 -360l13 1044h160l13 -1044h-186z" />
<glyph unicode="&#xa2;" horiz-adv-x="983" d="M103 480v122q0 103 19 187t58 146.5t97.5 102.5t138.5 55v225h177v-223q131 -24 206.5 -123.5t81.5 -261.5h-167q-6 120 -57.5 180t-142.5 60q-70 0 -115 -25t-71.5 -70.5t-37 -109.5t-10.5 -143v-122q0 -80 10 -144.5t36.5 -110t72 -70t116.5 -24.5q39 0 74 12t62 37.5 t43.5 65t19.5 95.5h167q-3 -70 -26 -129.5t-61.5 -105t-90 -76t-110.5 -42.5v-233h-177v234q-80 15 -139 54.5t-97.5 102t-57.5 146.5t-19 188z" />
<glyph unicode="&#xa3;" horiz-adv-x="1046" d="M96 622v157h126l-7 260q0 103 29.5 184.5t81 137.5t122 85.5t153.5 29.5t148.5 -28.5t110.5 -79.5t69 -122.5t24 -158.5h-182q0 63 -15.5 106.5t-42 71.5t-60 40.5t-69.5 12.5q-38 0 -71.5 -18.5t-58.5 -54t-40 -87.5t-15 -119l8 -260h260v-157h-256l7 -220 q-1 -70 -14.5 -134t-40.5 -111h615l-1 -157h-878v157h58q21 6 36 32.5t24 62.5t12.5 76t3.5 73l-6 221h-131z" />
<glyph unicode="&#xa4;" horiz-adv-x="1460" d="M105 109l139 141q-50 75 -77 165.5t-27 192.5q0 106 29.5 199t82.5 170l-147 151l130 136l147 -150q75 57 164 88.5t189 31.5t190 -32t165 -89l149 152l132 -137l-151 -154q52 -77 81 -169.5t29 -196.5q0 -100 -27 -190t-75 -165l143 -144l-132 -136l-136 139 q-76 -63 -169.5 -97.5t-198.5 -34.5q-104 0 -197 34t-169 96l-134 -136zM311 608q0 -95 33.5 -178t91 -145t134.5 -98t165 -36q87 0 164 36t134.5 98t90.5 145t33 178q0 94 -33 177t-90.5 144.5t-134.5 97t-164 35.5q-88 0 -165 -35.5t-134.5 -97t-91 -144.5t-33.5 -177z " />
<glyph unicode="&#xa5;" horiz-adv-x="1087" d="M42 1456h209l287 -640l287 640h209l-347 -720h251v-125h-311v-165h311v-124h-311v-322h-185v322h-306v124h306v165h-306v125h254z" />
<glyph unicode="&#xa6;" horiz-adv-x="491" d="M147 -270v791h186v-791h-186zM147 698v758h186v-758h-186z" />
<glyph unicode="&#xa7;" horiz-adv-x="1100" d="M92 -64l177 2q0 -79 24 -133t62 -87t86 -47t95 -14q57 0 101.5 16.5t75 45t46.5 67.5t16 84q0 46 -14 80.5t-48 63.5t-89.5 55.5t-137.5 56.5q-92 29 -164 64t-122 84t-76.5 116t-26.5 161q0 93 40.5 162.5t113.5 110.5q-57 49 -87 117.5t-30 168.5q0 83 29.5 150.5 t84 115.5t131.5 74t172 26q98 0 175.5 -28.5t131.5 -83t83 -135t29 -184.5h-176q0 58 -16 109t-46.5 89t-76 60t-104.5 22q-62 0 -107 -17t-74.5 -46t-43.5 -68t-14 -82q0 -50 12 -85.5t44 -64t87.5 -54t141.5 -54.5q94 -31 167 -66t123.5 -83.5t76.5 -114.5t26 -159 q0 -96 -41.5 -165t-116.5 -109q59 -49 89.5 -117t30.5 -168q0 -87 -29.5 -155t-84 -115.5t-131.5 -72t-171 -24.5q-82 0 -161.5 22t-142.5 72t-101.5 132.5t-38.5 204.5zM274 553q0 -51 12 -87.5t43.5 -65.5t86.5 -55t140 -56q37 -12 70.5 -24t63.5 -26q60 22 91.5 71.5 t31.5 117.5q0 46 -14 81.5t-47 65.5t-88 57.5t-136 58.5q-38 12 -72 24t-66 26q-60 -20 -88 -70t-28 -118z" />
<glyph unicode="&#xa8;" horiz-adv-x="856" d="M102 1371q0 45 27.5 75.5t81.5 30.5t82 -30.5t28 -75.5t-28 -75t-82 -30t-81.5 30t-27.5 75zM532 1369q0 45 27.5 76t81.5 31t82 -31t28 -76t-28 -75t-82 -30t-81.5 30t-27.5 75z" />
<glyph unicode="&#xa9;" horiz-adv-x="1609" d="M91 729q0 106 25.5 202.5t71.5 179.5t111 150.5t144 115t169.5 73.5t188.5 26t188.5 -26t169 -73.5t143.5 -115t111 -150.5t71.5 -179.5t25.5 -202.5t-25.5 -202.5t-71.5 -180t-111 -151t-143.5 -116t-169 -74.5t-188.5 -26t-188.5 26t-169.5 74.5t-144 116t-111 151 t-71.5 180t-25.5 202.5zM206 729q0 -134 47 -249t127.5 -200t189 -133.5t231.5 -48.5t231 48.5t188.5 133.5t127.5 200t47 249q0 133 -47 247.5t-127.5 199t-188.5 132.5t-231 48t-231.5 -48t-189 -132.5t-127.5 -199t-47 -247.5zM442 670v116q0 86 24 157t69 122t109 79.5 t144 28.5q76 0 137.5 -19.5t104.5 -58.5t66.5 -98t23.5 -137h-146q0 99 -47.5 141.5t-138.5 42.5q-50 0 -87.5 -19t-63 -53t-38.5 -81.5t-13 -103.5v-117q0 -57 13 -104.5t38.5 -81.5t63 -53t87.5 -19q92 0 138.5 42t46.5 143h146q0 -79 -23 -138t-66 -98t-104.5 -58.5 t-137.5 -19.5q-80 0 -144 28t-109 79t-69 122.5t-24 157.5z" />
<glyph unicode="&#xaa;" horiz-adv-x="811" d="M140 918q0 111 70 171t218 60h81v52q0 66 -22 100.5t-70 34.5q-52 0 -81 -27t-29 -78l-153 12q0 51 18.5 93.5t53 73.5t83 48.5t108.5 17.5q55 0 100.5 -17.5t78 -52t50 -86t17.5 -120.5v-314q0 -96 22 -181h-156q-5 16 -8 33t-6 35q-26 -34 -66 -58t-100 -24 q-101 0 -155 62t-54 165zM294 922q0 -44 23 -69t71 -25q32 0 65 18t56 43v148h-80q-36 0 -61.5 -9t-42 -25t-24 -36.5t-7.5 -44.5z" />
<glyph unicode="&#xab;" horiz-adv-x="856" d="M99 539v19l248 389h129l-211 -399l211 -397h-129zM383 539v19l248 389h129l-211 -399l211 -397h-129z" />
<glyph unicode="&#xac;" horiz-adv-x="998" d="M127 639v161h705v-425h-178v264h-527z" />
<glyph unicode="&#xad;" horiz-adv-x="508" d="M47 543v151h413v-151h-413z" />
<glyph unicode="&#xae;" horiz-adv-x="1610" d="M90 729q0 106 25.5 202.5t71.5 179.5t111 150.5t144 115t169.5 73.5t188.5 26t188.5 -26t169 -73.5t143.5 -115t111 -150.5t71.5 -179.5t25.5 -202.5t-25.5 -202.5t-71.5 -180t-111 -151t-143.5 -116t-169 -74.5t-188.5 -26t-188.5 26t-169.5 74.5t-144 116t-111 151 t-71.5 180t-25.5 202.5zM205 729q0 -134 47 -249t127.5 -200t189 -133.5t231.5 -48.5t231 48.5t189 133.5t127.5 200t46.5 249q0 133 -46.5 247.5t-127.5 199t-189 132.5t-231 48t-231.5 -48t-189 -132.5t-127.5 -199t-47 -247.5zM512 316v849h276q74 0 133.5 -16 t101.5 -47.5t64.5 -80t22.5 -112.5q0 -63 -32.5 -109.5t-95.5 -78.5q34 -14 57.5 -35t38 -47.5t21 -58t6.5 -66.5v-55q0 -38 3.5 -71t13.5 -56v-16h-145q-5 13 -8 33t-4.5 41t-1.5 40v30v53q0 72 -33.5 106.5t-113.5 34.5h-163v-338h-141zM653 782h156q32 1 61 9t51 23 t35 37.5t13 52.5q0 37 -9.5 62.5t-30.5 41.5t-55.5 23t-85.5 7h-135v-256z" />
<glyph unicode="&#xaf;" horiz-adv-x="848" d="M125 1313v143h614v-143h-614z" />
<glyph unicode="&#xb0;" horiz-adv-x="765" d="M130 1216q0 53 20.5 100.5t55 83t81 56t98.5 20.5t97.5 -20.5t79.5 -56t54 -83t20 -100.5q0 -54 -20 -100.5t-54 -81t-79.5 -54.5t-97.5 -20t-98.5 20t-81 54.5t-55 81t-20.5 100.5zM255 1216q0 -28 10.5 -51.5t28 -40.5t41 -26.5t50.5 -9.5t50.5 9.5t41 26.5t27 40.5 t9.5 51.5t-9.5 52.5t-27 42.5t-41 28t-50.5 10t-50.5 -10t-41 -28t-28 -42.5t-10.5 -52.5z" />
<glyph unicode="&#xb1;" horiz-adv-x="963" d="M105 703v152h316v412h158v-412h296v-152h-296v-414h-158v414h-316zM136 1v151h701v-151h-701z" />
<glyph unicode="&#xb2;" horiz-adv-x="675" d="M72 1205q0 54 17.5 101.5t50.5 83t80.5 56.5t107.5 21q58 0 104 -16.5t77.5 -47.5t48 -75t16.5 -98q0 -40 -11 -75.5t-32 -70t-51 -69.5t-68 -75l-136 -145h323v-128h-512v108l241 271q55 62 76 105.5t21 76.5q0 49 -24 79.5t-69 30.5q-58 0 -84.5 -38t-26.5 -95h-149z " />
<glyph unicode="&#xb3;" horiz-adv-x="675" d="M69 888h150q0 -45 28.5 -75t79.5 -30q54 0 81.5 30t27.5 81q0 63 -32.5 89t-89.5 26h-72v116h72q57 0 84 30.5t27 78.5q0 44 -24 73.5t-77 29.5q-42 0 -70 -24.5t-28 -67.5h-149q0 51 19 91.5t52 69.5t78 44.5t96 15.5q56 0 102.5 -14.5t79.5 -43t51.5 -70.5t18.5 -97 t-29.5 -100.5t-85.5 -70.5q65 -21 95 -68t30 -116q0 -56 -20 -99t-55.5 -72t-83.5 -44.5t-104 -15.5q-48 0 -93.5 13.5t-80.5 42t-56.5 72.5t-21.5 105z" />
<glyph unicode="&#xb4;" horiz-adv-x="642" d="M123 1240l193 294h224l-268 -294h-149z" />
<glyph unicode="&#xb5;" horiz-adv-x="1021" d="M147 -416v1498h176v-622q0 -103 13 -167.5t36 -100.5t54.5 -49t67.5 -13q81 0 128.5 35.5t73.5 98.5v818h178v-1082h-160l-8 101q-35 -57 -85.5 -89t-119.5 -32q-58 0 -101.5 16t-76.5 51v-463h-176z" />
<glyph unicode="&#xb6;" horiz-adv-x="890" d="M71 988q0 100 27 186t79.5 148.5t129.5 98t177 35.5h245v-1456h-178v520h-67q-100 0 -177 35t-129.5 97.5t-79.5 148.5t-27 187z" />
<glyph unicode="&#xb7;" horiz-adv-x="498" d="M138 729q0 48 26.5 80t79.5 32t80 -32t27 -80q0 -47 -27 -78.5t-80 -31.5t-79.5 31.5t-26.5 78.5z" />
<glyph unicode="&#xb8;" horiz-adv-x="469" d="M119 -134l28 134h125l-10 -52q23 -5 45 -16.5t39.5 -32t28.5 -51t11 -73.5q0 -47 -16.5 -85.5t-48.5 -66.5t-80 -43t-112 -15l-6 107q56 0 92 23t36 76q0 25 -7.5 41.5t-23.5 27t-41 16.5t-60 10z" />
<glyph unicode="&#xb9;" horiz-adv-x="633" d="M121 1218v128l308 117h17v-789h-149v601z" />
<glyph unicode="&#xba;" horiz-adv-x="825" d="M118 1043v80q0 77 21 142t59 112t92.5 73t121.5 26q68 0 122.5 -26t92.5 -73t58.5 -112t20.5 -142v-80q0 -77 -20.5 -142t-58.5 -112t-92 -73t-122 -26t-122.5 26t-92.5 73t-59 112t-21 142zM273 1043q0 -46 8.5 -85t26 -67.5t44 -45t61.5 -16.5t61 16.5t43 45t25.5 67.5 t8.5 85v80q0 45 -8.5 84t-26 67.5t-43.5 45t-61 16.5t-61 -16.5t-43.5 -45t-26 -67.5t-8.5 -84v-80z" />
<glyph unicode="&#xbb;" horiz-adv-x="856" d="M101 152l211 398l-211 399h131l248 -389v-19l-248 -389h-131zM404 152l211 398l-211 399h131l248 -389v-19l-248 -389h-131z" />
<glyph unicode="&#xbc;" horiz-adv-x="1305" d="M82 1208v128l308 117h17v-789h-149v601zM305 184l597 1138l97 -66l-598 -1138zM681 271l310 518h151v-490h84v-130h-84v-169h-148v169h-308zM827 299h167v279l-10 -18z" />
<glyph unicode="&#xbd;" horiz-adv-x="1388" d="M81 1208v128l308 117h17v-789h-149v601zM268 184l597 1138l97 -66l-598 -1138zM751 538q0 54 17.5 101.5t50.5 83t80.5 56.5t107.5 21q58 0 104 -16.5t77.5 -47.5t48 -75t16.5 -98q0 -40 -11 -75.5t-32 -70t-51 -69.5t-68 -75l-136 -145h323v-128h-512v108l241 271 q55 62 76 105.5t21 76.5q0 49 -24 79.5t-69 30.5q-58 0 -84.5 -38t-26.5 -95h-149z" />
<glyph unicode="&#xbe;" horiz-adv-x="1379" d="M111 889h150q0 -45 28.5 -75t79.5 -30q54 0 81.5 30t27.5 81q0 63 -32.5 89t-89.5 26h-72v116h72q57 0 84 30.5t27 78.5q0 44 -24 73.5t-77 29.5q-42 0 -70 -24.5t-28 -67.5h-149q0 51 19 91.5t52 69.5t78 44.5t96 15.5q56 0 102.5 -14.5t79.5 -43t51.5 -70.5t18.5 -97 t-29.5 -100.5t-85.5 -70.5q65 -21 95 -68t30 -116q0 -56 -20 -99t-55.5 -72t-83.5 -44.5t-104 -15.5q-48 0 -93.5 13.5t-80.5 42t-56.5 72.5t-21.5 105zM406 184l597 1138l97 -66l-598 -1138zM750 271l310 518h151v-490h84v-130h-84v-169h-148v169h-308zM896 299h167v279 l-10 -18z" />
<glyph unicode="&#xbf;" horiz-adv-x="863" d="M71 -5q0 68 18.5 128t47.5 113.5t65.5 102t72.5 92.5q42 51 58 112.5t16 136.5h177q-1 -72 -9.5 -122t-26.5 -91t-46 -80t-67 -89q-25 -35 -48.5 -66.5t-41.5 -66t-29 -74.5t-11 -91q0 -109 45.5 -166.5t131.5 -57.5q32 0 63.5 12.5t57 38t41 63.5t15.5 90h176 q-1 -85 -28 -152.5t-74.5 -115t-111.5 -72.5t-139 -25q-84 0 -149.5 25.5t-111 74.5t-69 119.5t-23.5 160.5zM329 997q0 44 25.5 74t75.5 30t75 -30t25 -74q0 -45 -25 -76t-75 -31t-75.5 31t-25.5 76z" />
<glyph unicode="&#xc0;" horiz-adv-x="1180" d="M43 0l469 1456h157l470 -1456h-188l-115 380h-492l-113 -380h-188zM283 1844h223l194 -294h-159zM392 538h397l-199 662z" />
<glyph unicode="&#xc1;" horiz-adv-x="1180" d="M43 0l469 1456h157l470 -1456h-188l-115 380h-492l-113 -380h-188zM392 538h397l-199 662zM492 1550l193 294h224l-268 -294h-149z" />
<glyph unicode="&#xc2;" horiz-adv-x="1180" d="M43 0l469 1456h157l470 -1456h-188l-115 380h-492l-113 -380h-188zM332 1562v12l209 272h105l210 -274v-10h-142l-120 170l-120 -170h-142zM392 538h397l-199 662z" />
<glyph unicode="&#xc3;" horiz-adv-x="1180" d="M43 0l469 1456h157l470 -1456h-188l-115 380h-492l-113 -380h-188zM292 1562q0 55 14 100.5t39 78t59 50.5t73 18q34 0 61 -15t52 -33t51.5 -33t59.5 -15q34 0 57 32.5t23 80.5l115 -12q0 -55 -14.5 -100t-39.5 -76.5t-59 -48.5t-73 -17q-42 0 -69.5 15t-50 32.5 t-46 32.5t-58.5 15q-34 0 -56.5 -32t-22.5 -80zM392 538h397l-199 662z" />
<glyph unicode="&#xc4;" horiz-adv-x="1180" d="M43 0l469 1456h157l470 -1456h-188l-115 380h-492l-113 -380h-188zM273 1681q0 45 27.5 75.5t81.5 30.5t82 -30.5t28 -75.5t-28 -75t-82 -30t-81.5 30t-27.5 75zM392 538h397l-199 662zM703 1679q0 45 27.5 76t81.5 31t82 -31t28 -76t-28 -75t-82 -30t-81.5 30t-27.5 75z " />
<glyph unicode="&#xc5;" horiz-adv-x="1180" d="M43 0l469 1456h157l470 -1456h-188l-115 380h-492l-113 -380h-188zM379 1729q0 43 16.5 81t45.5 66.5t68 44.5t85 16q45 0 84.5 -16t68.5 -44.5t45.5 -66.5t16.5 -81q0 -44 -16.5 -81t-45.5 -64.5t-68.5 -43t-84.5 -15.5q-46 0 -85 15.5t-68 43t-45.5 64.5t-16.5 81z M392 538h397l-199 662zM478 1729q0 -22 8.5 -43t24 -37t36.5 -25.5t47 -9.5q25 0 46.5 9.5t37 25t24 36.5t8.5 44q0 24 -8.5 45t-24 37.5t-37 26t-46.5 9.5q-26 0 -47 -9.5t-36.5 -26t-24 -37.5t-8.5 -45z" />
<glyph unicode="&#xc6;" horiz-adv-x="1663" d="M-2 0l739 1456h827v-152h-580l17 -471h495v-151h-490l19 -531h591v-151h-763l-13 353h-458l-168 -353h-216zM465 527h369l-25 723z" />
<glyph unicode="&#xc7;" horiz-adv-x="1161" d="M124 593v269q0 140 33.5 253.5t97 193.5t155.5 123.5t208 43.5q106 0 187.5 -32t138.5 -94t89 -153t37 -209h-185q-6 86 -23 148t-49 102.5t-80 60t-115 19.5q-80 0 -138 -32.5t-96 -91.5t-56.5 -143t-18.5 -187v-271q0 -96 15.5 -179t50 -145t90.5 -97.5t136 -35.5 q75 0 126.5 18.5t84 58t49.5 101t24 148.5h185q-6 -113 -37.5 -202t-89.5 -151.5t-143.5 -95.5t-198.5 -33q-110 0 -198 43t-150 123t-95.5 193t-33.5 254zM506 -143l28 134h125l-10 -52q23 -5 45 -16.5t39.5 -32t28.5 -51t11 -73.5q0 -47 -16.5 -85.5t-48.5 -66.5t-80 -43 t-112 -15l-6 107q56 0 92 23t36 76q0 25 -7.5 41.5t-23.5 27t-41 16.5t-60 10z" />
<glyph unicode="&#xc8;" horiz-adv-x="1017" d="M157 0v1456h773v-158h-590v-468h515v-157h-515v-516h600v-157h-783zM229 1856h223l194 -294h-159z" />
<glyph unicode="&#xc9;" horiz-adv-x="1017" d="M157 0v1456h773v-158h-590v-468h515v-157h-515v-516h600v-157h-783zM438 1562l193 294h224l-268 -294h-149z" />
<glyph unicode="&#xca;" horiz-adv-x="1017" d="M157 0v1456h773v-158h-590v-468h515v-157h-515v-516h600v-157h-783zM278 1574v12l209 272h105l210 -274v-10h-142l-120 170l-120 -170h-142z" />
<glyph unicode="&#xcb;" horiz-adv-x="1017" d="M157 0v1456h773v-158h-590v-468h515v-157h-515v-516h600v-157h-783zM219 1693q0 45 27.5 75.5t81.5 30.5t82 -30.5t28 -75.5t-28 -75t-82 -30t-81.5 30t-27.5 75zM649 1691q0 45 27.5 76t81.5 31t82 -31t28 -76t-28 -75t-82 -30t-81.5 30t-27.5 75z" />
<glyph unicode="&#xcc;" horiz-adv-x="512" d="M-55 1856h223l194 -294h-159zM165 0v1456h183v-1456h-183z" />
<glyph unicode="&#xcd;" horiz-adv-x="512" d="M153 1562l193 294h224l-268 -294h-149zM165 0v1456h183v-1456h-183z" />
<glyph unicode="&#xce;" horiz-adv-x="512" d="M-6 1574v12l209 272h105l210 -274v-10h-142l-120 170l-120 -170h-142zM165 0v1456h183v-1456h-183z" />
<glyph unicode="&#xcf;" horiz-adv-x="512" d="M-65 1693q0 45 27.5 75.5t81.5 30.5t82 -30.5t28 -75.5t-28 -75t-82 -30t-81.5 30t-27.5 75zM165 0v1456h183v-1456h-183zM365 1691q0 45 27.5 76t81.5 31t82 -31t28 -76t-28 -75t-82 -30t-81.5 30t-27.5 75z" />
<glyph unicode="&#xd0;" horiz-adv-x="1199" d="M48 666v151h139v639h347q123 0 222 -38.5t169 -115t108 -190t38 -262.5v-246q0 -149 -38 -262t-109 -189t-174 -114.5t-233 -38.5h-330v666h-139zM370 157h147q195 0 284 113t89 334v249q0 230 -88.5 337.5t-267.5 107.5h-164v-481h220v-151h-220v-509z" />
<glyph unicode="&#xd1;" horiz-adv-x="1268" d="M157 0v1456h184l585 -1127v1127h182v-1456h-184l-583 1122v-1122h-184zM328 1562q0 55 14 100.5t39 78t59 50.5t73 18q34 0 61 -15t52 -33t51.5 -33t59.5 -15q34 0 57 32.5t23 80.5l115 -12q0 -55 -14.5 -100t-39.5 -76.5t-59 -48.5t-73 -17q-42 0 -69.5 15t-50 32.5 t-46 32.5t-58.5 15q-34 0 -56.5 -32t-22.5 -80z" />
<glyph unicode="&#xd2;" horiz-adv-x="1230" d="M125 600v253q0 154 35.5 270.5t99.5 195t154 118t200 39.5q113 0 203.5 -39.5t154.5 -118t98 -195t34 -270.5v-253q0 -155 -34 -271t-97 -193.5t-153.5 -116.5t-203.5 -39q-110 0 -200 39t-155 116.5t-100.5 193.5t-35.5 271zM307 600q0 -121 22 -207.5t62 -142t97 -81.5 t128 -26q75 0 132 26t95.5 81.5t58 142t19.5 207.5v255q0 120 -20 206.5t-59 142t-96 81.5t-132 26q-71 0 -127.5 -26t-96.5 -81.5t-61.5 -142t-21.5 -206.5v-255zM307 1846h223l194 -294h-159z" />
<glyph unicode="&#xd3;" horiz-adv-x="1230" d="M125 600v253q0 154 35.5 270.5t99.5 195t154 118t200 39.5q113 0 203.5 -39.5t154.5 -118t98 -195t34 -270.5v-253q0 -155 -34 -271t-97 -193.5t-153.5 -116.5t-203.5 -39q-110 0 -200 39t-155 116.5t-100.5 193.5t-35.5 271zM307 600q0 -121 22 -207.5t62 -142t97 -81.5 t128 -26q75 0 132 26t95.5 81.5t58 142t19.5 207.5v255q0 120 -20 206.5t-59 142t-96 81.5t-132 26q-71 0 -127.5 -26t-96.5 -81.5t-61.5 -142t-21.5 -206.5v-255zM516 1552l193 294h224l-268 -294h-149z" />
<glyph unicode="&#xd4;" horiz-adv-x="1230" d="M125 600v253q0 154 35.5 270.5t99.5 195t154 118t200 39.5q113 0 203.5 -39.5t154.5 -118t98 -195t34 -270.5v-253q0 -155 -34 -271t-97 -193.5t-153.5 -116.5t-203.5 -39q-110 0 -200 39t-155 116.5t-100.5 193.5t-35.5 271zM307 600q0 -121 22 -207.5t62 -142t97 -81.5 t128 -26q75 0 132 26t95.5 81.5t58 142t19.5 207.5v255q0 120 -20 206.5t-59 142t-96 81.5t-132 26q-71 0 -127.5 -26t-96.5 -81.5t-61.5 -142t-21.5 -206.5v-255zM356 1564v12l209 272h105l210 -274v-10h-142l-120 170l-120 -170h-142z" />
<glyph unicode="&#xd5;" horiz-adv-x="1230" d="M125 600v253q0 154 35.5 270.5t99.5 195t154 118t200 39.5q113 0 203.5 -39.5t154.5 -118t98 -195t34 -270.5v-253q0 -155 -34 -271t-97 -193.5t-153.5 -116.5t-203.5 -39q-110 0 -200 39t-155 116.5t-100.5 193.5t-35.5 271zM307 600q0 -121 22 -207.5t62 -142t97 -81.5 t128 -26q75 0 132 26t95.5 81.5t58 142t19.5 207.5v255q0 120 -20 206.5t-59 142t-96 81.5t-132 26q-71 0 -127.5 -26t-96.5 -81.5t-61.5 -142t-21.5 -206.5v-255zM316 1564q0 55 14 100.5t39 78t59 50.5t73 18q34 0 61 -15t52 -33t51.5 -33t59.5 -15q34 0 57 32.5t23 80.5 l115 -12q0 -55 -14.5 -100t-39.5 -76.5t-59 -48.5t-73 -17q-42 0 -69.5 15t-50 32.5t-46 32.5t-58.5 15q-34 0 -56.5 -32t-22.5 -80z" />
<glyph unicode="&#xd6;" horiz-adv-x="1230" d="M125 600v253q0 154 35.5 270.5t99.5 195t154 118t200 39.5q113 0 203.5 -39.5t154.5 -118t98 -195t34 -270.5v-253q0 -155 -34 -271t-97 -193.5t-153.5 -116.5t-203.5 -39q-110 0 -200 39t-155 116.5t-100.5 193.5t-35.5 271zM297 1683q0 45 27.5 75.5t81.5 30.5 t82 -30.5t28 -75.5t-28 -75t-82 -30t-81.5 30t-27.5 75zM307 600q0 -121 22 -207.5t62 -142t97 -81.5t128 -26q75 0 132 26t95.5 81.5t58 142t19.5 207.5v255q0 120 -20 206.5t-59 142t-96 81.5t-132 26q-71 0 -127.5 -26t-96.5 -81.5t-61.5 -142t-21.5 -206.5v-255z M727 1681q0 45 27.5 76t81.5 31t82 -31t28 -76t-28 -75t-82 -30t-81.5 30t-27.5 75z" />
<glyph unicode="&#xd7;" horiz-adv-x="964" d="M91 1000l113 123l272 -330l272 330l112 -123l-278 -337l276 -334l-113 -123l-270 327l-269 -327l-113 123l275 334z" />
<glyph unicode="&#xd8;" horiz-adv-x="1231" d="M125 600v253q0 154 35.5 270.5t99.5 195t154 118t200 39.5q187 0 309 -108l78 148h130l-127 -243q48 -77 74 -181.5t26 -238.5v-253q0 -155 -34 -271t-97 -193.5t-153.5 -116.5t-203.5 -39q-146 0 -255 68l-73 -141h-132l114 217q-69 78 -107 196.5t-38 279.5zM307 600 q0 -98 14 -172.5t41 -128.5l477 908q-39 54 -95.5 79t-129.5 25q-71 0 -127.5 -26t-96.5 -81.5t-61.5 -142t-21.5 -206.5v-255zM440 198q36 -29 80.5 -42t95.5 -13q75 0 132 26t95.5 81.5t58 142t19.5 207.5v255q0 125 -23 217z" />
<glyph unicode="&#xd9;" horiz-adv-x="1150" d="M130 430v1026h182v-1026q0 -85 19 -141.5t53.5 -90.5t83 -48t108.5 -14t109 14t83.5 48t53.5 90.5t19 141.5v1026h184v-1026q0 -123 -37 -208.5t-99 -139.5t-143 -78t-170 -24q-94 0 -175.5 24t-141.5 78t-94.5 139.5t-34.5 208.5zM264 1844h223l194 -294h-159z" />
<glyph unicode="&#xda;" horiz-adv-x="1150" d="M130 430v1026h182v-1026q0 -85 19 -141.5t53.5 -90.5t83 -48t108.5 -14t109 14t83.5 48t53.5 90.5t19 141.5v1026h184v-1026q0 -123 -37 -208.5t-99 -139.5t-143 -78t-170 -24q-94 0 -175.5 24t-141.5 78t-94.5 139.5t-34.5 208.5zM473 1550l193 294h224l-268 -294h-149z " />
<glyph unicode="&#xdb;" horiz-adv-x="1150" d="M130 430v1026h182v-1026q0 -85 19 -141.5t53.5 -90.5t83 -48t108.5 -14t109 14t83.5 48t53.5 90.5t19 141.5v1026h184v-1026q0 -123 -37 -208.5t-99 -139.5t-143 -78t-170 -24q-94 0 -175.5 24t-141.5 78t-94.5 139.5t-34.5 208.5zM313 1562v12l209 272h105l210 -274v-10 h-142l-120 170l-120 -170h-142z" />
<glyph unicode="&#xdc;" horiz-adv-x="1150" d="M130 430v1026h182v-1026q0 -85 19 -141.5t53.5 -90.5t83 -48t108.5 -14t109 14t83.5 48t53.5 90.5t19 141.5v1026h184v-1026q0 -123 -37 -208.5t-99 -139.5t-143 -78t-170 -24q-94 0 -175.5 24t-141.5 78t-94.5 139.5t-34.5 208.5zM254 1681q0 45 27.5 75.5t81.5 30.5 t82 -30.5t28 -75.5t-28 -75t-82 -30t-81.5 30t-27.5 75zM684 1679q0 45 27.5 76t81.5 31t82 -31t28 -76t-28 -75t-82 -30t-81.5 30t-27.5 75z" />
<glyph unicode="&#xdd;" horiz-adv-x="1074" d="M30 1456h208l298 -731l298 731h207l-414 -913v-543h-183v543zM438 1550l193 294h224l-268 -294h-149z" />
<glyph unicode="&#xde;" horiz-adv-x="1055" d="M154 0v1456h177v-293h218q100 0 178 -32t130.5 -89t80 -135t27.5 -169q0 -92 -27.5 -170t-80 -134.5t-130.5 -88.5t-178 -32h-218v-313h-177zM331 465h218q64 0 109 23t74 61.5t42.5 87t13.5 99.5q0 52 -13.5 101.5t-42.5 88t-74 62t-109 23.5h-217l-1 1v-547z" />
<glyph unicode="&#xdf;" horiz-adv-x="1069" d="M133 0v1111q0 110 25 193t70 138.5t107.5 83.5t137.5 28q72 0 132 -20t103.5 -62t67.5 -105.5t24 -150.5q0 -54 -8 -94.5t-20 -73t-26.5 -59.5t-26.5 -53.5t-20 -54.5t-8 -62q0 -46 21.5 -83t53.5 -71t69.5 -68.5t69.5 -75t53.5 -90.5t21.5 -114q0 -86 -23 -149.5 t-66 -105t-103 -62t-134 -20.5q-35 0 -72 6t-71.5 16t-62.5 23t-44 27l39 155q13 -11 34.5 -24t47 -24.5t54 -19.5t56.5 -8q48 0 80 13.5t52 37.5t28.5 56t8.5 69q0 47 -21.5 85t-53.5 72.5t-70 69t-70 76t-53.5 92.5t-21.5 119q0 60 19 105.5t41.5 87t41.5 85.5t19 102 q0 100 -43 150.5t-110 50.5q-83 0 -128 -70.5t-45 -220.5v-1111h-176z" />
<glyph unicode="&#xe0;" horiz-adv-x="981" d="M114 295q0 78 27 144t80 114t133 75.5t186 27.5h123v115q0 97 -43 138t-131 41q-43 0 -76.5 -13.5t-56.5 -36.5t-35 -53.5t-12 -64.5h-177q0 58 25.5 115.5t73 103t115.5 73.5t152 28q75 0 137.5 -18t108 -58t70.5 -103t25 -154v-533q0 -27 2 -57t6.5 -59t11 -55.5 t14.5 -48.5v-16h-184q-9 20 -14.5 51.5t-8.5 66.5q-19 -28 -43.5 -53t-55 -44t-66 -30t-75.5 -11q-71 0 -128.5 20t-98.5 60t-63 98.5t-22 136.5zM198 1534h223l194 -294h-159zM291 316q0 -49 10 -82.5t30 -54t50.5 -29.5t71.5 -9q37 0 70 11t60 28.5t47.5 40t32.5 46.5v258 h-93q-64 0 -115.5 -14t-88 -40.5t-56 -65.5t-19.5 -89z" />
<glyph unicode="&#xe1;" horiz-adv-x="981" d="M114 295q0 78 27 144t80 114t133 75.5t186 27.5h123v115q0 97 -43 138t-131 41q-43 0 -76.5 -13.5t-56.5 -36.5t-35 -53.5t-12 -64.5h-177q0 58 25.5 115.5t73 103t115.5 73.5t152 28q75 0 137.5 -18t108 -58t70.5 -103t25 -154v-533q0 -27 2 -57t6.5 -59t11 -55.5 t14.5 -48.5v-16h-184q-9 20 -14.5 51.5t-8.5 66.5q-19 -28 -43.5 -53t-55 -44t-66 -30t-75.5 -11q-71 0 -128.5 20t-98.5 60t-63 98.5t-22 136.5zM291 316q0 -49 10 -82.5t30 -54t50.5 -29.5t71.5 -9q37 0 70 11t60 28.5t47.5 40t32.5 46.5v258h-93q-64 0 -115.5 -14 t-88 -40.5t-56 -65.5t-19.5 -89zM407 1240l193 294h224l-268 -294h-149z" />
<glyph unicode="&#xe2;" horiz-adv-x="981" d="M114 295q0 78 27 144t80 114t133 75.5t186 27.5h123v115q0 97 -43 138t-131 41q-43 0 -76.5 -13.5t-56.5 -36.5t-35 -53.5t-12 -64.5h-177q0 58 25.5 115.5t73 103t115.5 73.5t152 28q75 0 137.5 -18t108 -58t70.5 -103t25 -154v-533q0 -27 2 -57t6.5 -59t11 -55.5 t14.5 -48.5v-16h-184q-9 20 -14.5 51.5t-8.5 66.5q-19 -28 -43.5 -53t-55 -44t-66 -30t-75.5 -11q-71 0 -128.5 20t-98.5 60t-63 98.5t-22 136.5zM247 1252v12l209 272h105l210 -274v-10h-142l-120 170l-120 -170h-142zM291 316q0 -49 10 -82.5t30 -54t50.5 -29.5t71.5 -9 q37 0 70 11t60 28.5t47.5 40t32.5 46.5v258h-93q-64 0 -115.5 -14t-88 -40.5t-56 -65.5t-19.5 -89z" />
<glyph unicode="&#xe3;" horiz-adv-x="981" d="M114 295q0 78 27 144t80 114t133 75.5t186 27.5h123v115q0 97 -43 138t-131 41q-43 0 -76.5 -13.5t-56.5 -36.5t-35 -53.5t-12 -64.5h-177q0 58 25.5 115.5t73 103t115.5 73.5t152 28q75 0 137.5 -18t108 -58t70.5 -103t25 -154v-533q0 -27 2 -57t6.5 -59t11 -55.5 t14.5 -48.5v-16h-184q-9 20 -14.5 51.5t-8.5 66.5q-19 -28 -43.5 -53t-55 -44t-66 -30t-75.5 -11q-71 0 -128.5 20t-98.5 60t-63 98.5t-22 136.5zM207 1252q0 55 14 100.5t39 78t59 50.5t73 18q34 0 61 -15t52 -33t51.5 -33t59.5 -15q34 0 57 32.5t23 80.5l115 -12 q0 -55 -14.5 -100t-39.5 -76.5t-59 -48.5t-73 -17q-42 0 -69.5 15t-50 32.5t-46 32.5t-58.5 15q-34 0 -56.5 -32t-22.5 -80zM291 316q0 -49 10 -82.5t30 -54t50.5 -29.5t71.5 -9q37 0 70 11t60 28.5t47.5 40t32.5 46.5v258h-93q-64 0 -115.5 -14t-88 -40.5t-56 -65.5 t-19.5 -89z" />
<glyph unicode="&#xe4;" horiz-adv-x="981" d="M114 295q0 78 27 144t80 114t133 75.5t186 27.5h123v115q0 97 -43 138t-131 41q-43 0 -76.5 -13.5t-56.5 -36.5t-35 -53.5t-12 -64.5h-177q0 58 25.5 115.5t73 103t115.5 73.5t152 28q75 0 137.5 -18t108 -58t70.5 -103t25 -154v-533q0 -27 2 -57t6.5 -59t11 -55.5 t14.5 -48.5v-16h-184q-9 20 -14.5 51.5t-8.5 66.5q-19 -28 -43.5 -53t-55 -44t-66 -30t-75.5 -11q-71 0 -128.5 20t-98.5 60t-63 98.5t-22 136.5zM188 1371q0 45 27.5 75.5t81.5 30.5t82 -30.5t28 -75.5t-28 -75t-82 -30t-81.5 30t-27.5 75zM291 316q0 -49 10 -82.5t30 -54 t50.5 -29.5t71.5 -9q37 0 70 11t60 28.5t47.5 40t32.5 46.5v258h-93q-64 0 -115.5 -14t-88 -40.5t-56 -65.5t-19.5 -89zM618 1369q0 45 27.5 76t81.5 31t82 -31t28 -76t-28 -75t-82 -30t-81.5 30t-27.5 75z" />
<glyph unicode="&#xe5;" horiz-adv-x="981" d="M114 295q0 78 27 144t80 114t133 75.5t186 27.5h123v115q0 97 -43 138t-131 41q-43 0 -76.5 -13.5t-56.5 -36.5t-35 -53.5t-12 -64.5h-177q0 58 25.5 115.5t73 103t115.5 73.5t152 28q75 0 137.5 -18t108 -58t70.5 -103t25 -154v-533q0 -27 2 -57t6.5 -59t11 -55.5 t14.5 -48.5v-16h-184q-9 20 -14.5 51.5t-8.5 66.5q-19 -28 -43.5 -53t-55 -44t-66 -30t-75.5 -11q-71 0 -128.5 20t-98.5 60t-63 98.5t-22 136.5zM291 316q0 -49 10 -82.5t30 -54t50.5 -29.5t71.5 -9q37 0 70 11t60 28.5t47.5 40t32.5 46.5v258h-93q-64 0 -115.5 -14 t-88 -40.5t-56 -65.5t-19.5 -89zM294 1419q0 43 16.5 81t45.5 66.5t68 44.5t85 16q45 0 84.5 -16t68.5 -44.5t45.5 -66.5t16.5 -81q0 -44 -16.5 -81t-45.5 -64.5t-68.5 -43t-84.5 -15.5q-46 0 -85 15.5t-68 43t-45.5 64.5t-16.5 81zM393 1419q0 -22 8.5 -43t24 -37 t36.5 -25.5t47 -9.5q25 0 46.5 9.5t37 25t24 36.5t8.5 44q0 24 -8.5 45t-24 37.5t-37 26t-46.5 9.5q-26 0 -47 -9.5t-36.5 -26t-24 -37.5t-8.5 -45z" />
<glyph unicode="&#xe6;" horiz-adv-x="1491" d="M83 304q0 157 96 244t283 87h177v85q0 107 -43.5 168.5t-123.5 61.5q-43 0 -78 -15.5t-60 -41.5t-38.5 -60.5t-13.5 -73.5l-175 19q0 70 26.5 129.5t74.5 102.5t115.5 67.5t148.5 24.5q95 0 168 -38t117 -115q53 73 124.5 113t156.5 40q92 0 162.5 -34t118 -97.5 t72 -153.5t24.5 -202v-118h-602q2 -77 18.5 -144t49 -116.5t82 -78t116.5 -28.5q51 0 90.5 10.5t71 26t56 34.5t45.5 36l59 -136q-12 -13 -38 -33.5t-66 -40t-94.5 -33.5t-123.5 -14q-112 0 -196.5 45.5t-138.5 126.5q-22 -32 -55.5 -63t-78.5 -55t-102 -39t-127 -15 q-72 0 -127.5 23t-93.5 65t-57.5 102t-19.5 134zM260 300q0 -36 9 -67t28.5 -54t49 -36t70.5 -13q29 0 60 9.5t60 26t55.5 38t46.5 44.5v247h-175q-50 0 -88 -16t-64 -43t-39 -62t-13 -74zM816 640h423v31q0 57 -10.5 107.5t-34 88.5t-62 60.5t-94.5 22.5q-48 0 -86 -23.5 t-66 -65.5t-46 -98.5t-24 -122.5z" />
<glyph unicode="&#xe7;" horiz-adv-x="946" d="M96 480v122q0 118 25 210.5t76 157t128 98.5t182 34q82 0 148.5 -26.5t114 -77t74.5 -123.5t30 -165h-167q-6 120 -57.5 180t-142.5 60q-70 0 -115 -25t-71.5 -70.5t-37 -109.5t-10.5 -143v-122q0 -80 10 -144.5t36.5 -110t72 -70t116.5 -24.5q39 0 74 12t62 37.5 t43.5 65t19.5 95.5h167q-3 -81 -33.5 -147.5t-80 -114t-114.5 -73.5t-138 -26q-105 0 -182.5 34t-128.5 98t-76 157t-25 211zM379 -143l28 134h125l-10 -52q23 -5 45 -16.5t39.5 -32t28.5 -51t11 -73.5q0 -47 -16.5 -85.5t-48.5 -66.5t-80 -43t-112 -15l-6 107q56 0 92 23 t36 76q0 25 -7.5 41.5t-23.5 27t-41 16.5t-60 10z" />
<glyph unicode="&#xe8;" horiz-adv-x="959" d="M99 463v122q0 143 34 241.5t89.5 160t127.5 88.5t149 27q102 0 174 -33.5t118 -98.5t67 -160t21 -219v-103h-604v-25q0 -174 65.5 -253t188.5 -79q45 0 81 9t66 25.5t55 39t47 49.5l92 -112q-22 -31 -53 -60t-74 -51.5t-98.5 -36.5t-125.5 -14q-97 0 -175 29t-132.5 88.5 t-83.5 150.5t-29 215zM183 1534h223l194 -294h-159zM276 640h426v24q-3 63 -13.5 115.5t-33 90.5t-60.5 59t-96 21q-46 0 -85 -14t-68.5 -49.5t-47.5 -95.5t-22 -151z" />
<glyph unicode="&#xe9;" horiz-adv-x="959" d="M99 463v122q0 143 34 241.5t89.5 160t127.5 88.5t149 27q102 0 174 -33.5t118 -98.5t67 -160t21 -219v-103h-604v-25q0 -174 65.5 -253t188.5 -79q45 0 81 9t66 25.5t55 39t47 49.5l92 -112q-22 -31 -53 -60t-74 -51.5t-98.5 -36.5t-125.5 -14q-97 0 -175 29t-132.5 88.5 t-83.5 150.5t-29 215zM276 640h426v24q-3 63 -13.5 115.5t-33 90.5t-60.5 59t-96 21q-46 0 -85 -14t-68.5 -49.5t-47.5 -95.5t-22 -151zM392 1240l193 294h224l-268 -294h-149z" />
<glyph unicode="&#xea;" horiz-adv-x="959" d="M99 463v122q0 143 34 241.5t89.5 160t127.5 88.5t149 27q102 0 174 -33.5t118 -98.5t67 -160t21 -219v-103h-604v-25q0 -174 65.5 -253t188.5 -79q45 0 81 9t66 25.5t55 39t47 49.5l92 -112q-22 -31 -53 -60t-74 -51.5t-98.5 -36.5t-125.5 -14q-97 0 -175 29t-132.5 88.5 t-83.5 150.5t-29 215zM232 1252v12l209 272h105l210 -274v-10h-142l-120 170l-120 -170h-142zM276 640h426v24q-3 63 -13.5 115.5t-33 90.5t-60.5 59t-96 21q-46 0 -85 -14t-68.5 -49.5t-47.5 -95.5t-22 -151z" />
<glyph unicode="&#xeb;" horiz-adv-x="959" d="M99 463v122q0 143 34 241.5t89.5 160t127.5 88.5t149 27q102 0 174 -33.5t118 -98.5t67 -160t21 -219v-103h-604v-25q0 -174 65.5 -253t188.5 -79q45 0 81 9t66 25.5t55 39t47 49.5l92 -112q-22 -31 -53 -60t-74 -51.5t-98.5 -36.5t-125.5 -14q-97 0 -175 29t-132.5 88.5 t-83.5 150.5t-29 215zM173 1371q0 45 27.5 75.5t81.5 30.5t82 -30.5t28 -75.5t-28 -75t-82 -30t-81.5 30t-27.5 75zM276 640h426v24q-3 63 -13.5 115.5t-33 90.5t-60.5 59t-96 21q-46 0 -85 -14t-68.5 -49.5t-47.5 -95.5t-22 -151zM603 1369q0 45 27.5 76t81.5 31t82 -31 t28 -76t-28 -75t-82 -30t-81.5 30t-27.5 75z" />
<glyph unicode="&#xec;" horiz-adv-x="481" d="M-71 1533h223l194 -294h-159zM146 0v1082h177v-1082h-177z" />
<glyph unicode="&#xed;" horiz-adv-x="481" d="M137 1239l193 294h224l-268 -294h-149zM146 0v1082h177v-1082h-177z" />
<glyph unicode="&#xee;" horiz-adv-x="481" d="M-22 1251v12l209 272h105l210 -274v-10h-142l-120 170l-120 -170h-142zM146 0v1082h177v-1082h-177z" />
<glyph unicode="&#xef;" horiz-adv-x="481" d="M-81 1370q0 45 27.5 75.5t81.5 30.5t82 -30.5t28 -75.5t-28 -75t-82 -30t-81.5 30t-27.5 75zM146 0v1082h177v-1082h-177zM349 1368q0 45 27.5 76t81.5 31t82 -31t28 -76t-28 -75t-82 -30t-81.5 30t-27.5 75z" />
<glyph unicode="&#xf0;" horiz-adv-x="1051" d="M118 467q0 115 29 209.5t80 161t120.5 103t150.5 36.5q66 0 122.5 -27.5t100.5 -72.5q-22 98 -61 176.5t-91 140.5l-181 -143l-68 99l164 130q-59 49 -125.5 83.5t-137.5 57.5l54 159q198 -53 347 -190l159 126l68 -100l-144 -114q102 -125 159.5 -293t57.5 -376v-98 q0 -123 -30 -225.5t-83.5 -175.5t-127 -113.5t-160.5 -40.5q-89 0 -163.5 38t-127.5 103.5t-82.5 154.5t-29.5 191zM295 467q0 -62 15 -122t44 -107.5t72 -77t99 -29.5q51 0 92 30.5t69.5 84.5t44 128t15.5 161v100q0 15 -0.5 30.5t-1.5 29.5q-11 25 -29.5 48.5t-44 41.5 t-57.5 29t-71 11q-58 0 -103.5 -25t-77.5 -71.5t-49 -113t-17 -148.5z" />
<glyph unicode="&#xf1;" horiz-adv-x="991" d="M132 0v1082h167l5 -117q49 65 115.5 101t147.5 36q66 0 120 -21.5t92 -69t58.5 -122t20.5 -180.5v-709h-176v711q0 127 -42.5 180.5t-127.5 53.5q-66 0 -118.5 -44t-84.5 -115v-786h-177zM198 1252q0 55 14 100.5t39 78t59 50.5t73 18q34 0 61 -15t52 -33t51.5 -33 t59.5 -15q34 0 57 32.5t23 80.5l115 -12q0 -55 -14.5 -100t-39.5 -76.5t-59 -48.5t-73 -17q-42 0 -69.5 15t-50 32.5t-46 32.5t-58.5 15q-34 0 -56.5 -32t-22.5 -80z" />
<glyph unicode="&#xf2;" horiz-adv-x="1028" d="M95 489v102q0 127 32.5 222.5t89 159.5t132.5 96.5t163 32.5q88 0 165 -32.5t133.5 -96.5t89 -159.5t32.5 -222.5v-102q0 -126 -32.5 -221.5t-89 -159.5t-132.5 -96t-164 -32t-164.5 32t-133 96t-89 159.5t-32.5 221.5zM191 1534h223l194 -294h-159zM272 489 q0 -90 18.5 -157t51 -111.5t76.5 -67t96 -22.5q241 0 241 358v102q0 89 -18.5 156t-51 112t-77 68t-96.5 23q-51 0 -95 -23t-76 -68t-50.5 -112t-18.5 -156v-102z" />
<glyph unicode="&#xf3;" horiz-adv-x="1028" d="M95 489v102q0 127 32.5 222.5t89 159.5t132.5 96.5t163 32.5q88 0 165 -32.5t133.5 -96.5t89 -159.5t32.5 -222.5v-102q0 -126 -32.5 -221.5t-89 -159.5t-132.5 -96t-164 -32t-164.5 32t-133 96t-89 159.5t-32.5 221.5zM272 489q0 -90 18.5 -157t51 -111.5t76.5 -67 t96 -22.5q241 0 241 358v102q0 89 -18.5 156t-51 112t-77 68t-96.5 23q-51 0 -95 -23t-76 -68t-50.5 -112t-18.5 -156v-102zM400 1240l193 294h224l-268 -294h-149z" />
<glyph unicode="&#xf4;" horiz-adv-x="1028" d="M95 489v102q0 127 32.5 222.5t89 159.5t132.5 96.5t163 32.5q88 0 165 -32.5t133.5 -96.5t89 -159.5t32.5 -222.5v-102q0 -126 -32.5 -221.5t-89 -159.5t-132.5 -96t-164 -32t-164.5 32t-133 96t-89 159.5t-32.5 221.5zM240 1252v12l209 272h105l210 -274v-10h-142 l-120 170l-120 -170h-142zM272 489q0 -90 18.5 -157t51 -111.5t76.5 -67t96 -22.5q241 0 241 358v102q0 89 -18.5 156t-51 112t-77 68t-96.5 23q-51 0 -95 -23t-76 -68t-50.5 -112t-18.5 -156v-102z" />
<glyph unicode="&#xf5;" horiz-adv-x="1028" d="M95 489v102q0 127 32.5 222.5t89 159.5t132.5 96.5t163 32.5q88 0 165 -32.5t133.5 -96.5t89 -159.5t32.5 -222.5v-102q0 -126 -32.5 -221.5t-89 -159.5t-132.5 -96t-164 -32t-164.5 32t-133 96t-89 159.5t-32.5 221.5zM200 1252q0 55 14 100.5t39 78t59 50.5t73 18 q34 0 61 -15t52 -33t51.5 -33t59.5 -15q34 0 57 32.5t23 80.5l115 -12q0 -55 -14.5 -100t-39.5 -76.5t-59 -48.5t-73 -17q-42 0 -69.5 15t-50 32.5t-46 32.5t-58.5 15q-34 0 -56.5 -32t-22.5 -80zM272 489q0 -90 18.5 -157t51 -111.5t76.5 -67t96 -22.5q241 0 241 358v102 q0 89 -18.5 156t-51 112t-77 68t-96.5 23q-51 0 -95 -23t-76 -68t-50.5 -112t-18.5 -156v-102z" />
<glyph unicode="&#xf6;" horiz-adv-x="1028" d="M95 489v102q0 127 32.5 222.5t89 159.5t132.5 96.5t163 32.5q88 0 165 -32.5t133.5 -96.5t89 -159.5t32.5 -222.5v-102q0 -126 -32.5 -221.5t-89 -159.5t-132.5 -96t-164 -32t-164.5 32t-133 96t-89 159.5t-32.5 221.5zM181 1371q0 45 27.5 75.5t81.5 30.5t82 -30.5 t28 -75.5t-28 -75t-82 -30t-81.5 30t-27.5 75zM272 489q0 -90 18.5 -157t51 -111.5t76.5 -67t96 -22.5q241 0 241 358v102q0 89 -18.5 156t-51 112t-77 68t-96.5 23q-51 0 -95 -23t-76 -68t-50.5 -112t-18.5 -156v-102zM611 1369q0 45 27.5 76t81.5 31t82 -31t28 -76 t-28 -75t-82 -30t-81.5 30t-27.5 75z" />
<glyph unicode="&#xf7;" horiz-adv-x="1024" d="M79 600v184h839v-184h-839zM396 281q0 48 26.5 80t79.5 32t80 -32t27 -80q0 -46 -27 -77.5t-80 -31.5t-79.5 31.5t-26.5 77.5zM396 1098q0 48 26.5 80t79.5 32t80 -32t27 -80q0 -47 -27 -78t-80 -31t-79.5 31t-26.5 78z" />
<glyph unicode="&#xf8;" horiz-adv-x="1022" d="M95 489v102q0 127 32.5 222.5t89 159.5t132.5 96.5t163 32.5q91 0 170 -35l59 142h113l-82 -198q74 -63 117 -167.5t43 -252.5v-102q0 -126 -32.5 -221.5t-89 -159.5t-132.5 -96t-164 -32q-84 0 -157 29l-60 -144h-113l81 197q-78 62 -124 168.5t-46 258.5zM272 489 q0 -86 16.5 -150.5t46.5 -109.5l286 691q-25 14 -52.5 22t-56.5 8q-51 0 -95 -23t-76 -68t-50.5 -112t-18.5 -156v-102zM417 154q44 -23 97 -23q241 0 241 358v102q0 78 -14.5 139.5t-40.5 106.5z" />
<glyph unicode="&#xf9;" horiz-adv-x="990" d="M129 383v699h176v-701q0 -73 13.5 -120.5t35 -75t49 -38t54.5 -10.5q88 0 141 39t81 105v801h177v-1082h-168l-4 95q-42 -55 -105.5 -85t-151.5 -30q-67 0 -122 22.5t-94 71t-60.5 125t-21.5 184.5zM183 1534h223l194 -294h-159z" />
<glyph unicode="&#xfa;" horiz-adv-x="990" d="M129 383v699h176v-701q0 -73 13.5 -120.5t35 -75t49 -38t54.5 -10.5q88 0 141 39t81 105v801h177v-1082h-168l-4 95q-42 -55 -105.5 -85t-151.5 -30q-67 0 -122 22.5t-94 71t-60.5 125t-21.5 184.5zM392 1240l193 294h224l-268 -294h-149z" />
<glyph unicode="&#xfb;" horiz-adv-x="990" d="M129 383v699h176v-701q0 -73 13.5 -120.5t35 -75t49 -38t54.5 -10.5q88 0 141 39t81 105v801h177v-1082h-168l-4 95q-42 -55 -105.5 -85t-151.5 -30q-67 0 -122 22.5t-94 71t-60.5 125t-21.5 184.5zM232 1252v12l209 272h105l210 -274v-10h-142l-120 170l-120 -170h-142z " />
<glyph unicode="&#xfc;" horiz-adv-x="990" d="M129 383v699h176v-701q0 -73 13.5 -120.5t35 -75t49 -38t54.5 -10.5q88 0 141 39t81 105v801h177v-1082h-168l-4 95q-42 -55 -105.5 -85t-151.5 -30q-67 0 -122 22.5t-94 71t-60.5 125t-21.5 184.5zM173 1371q0 45 27.5 75.5t81.5 30.5t82 -30.5t28 -75.5t-28 -75 t-82 -30t-81.5 30t-27.5 75zM603 1369q0 45 27.5 76t81.5 31t82 -31t28 -76t-28 -75t-82 -30t-81.5 30t-27.5 75z" />
<glyph unicode="&#xfd;" horiz-adv-x="853" d="M35 1082h193l200 -788l197 788h188l-358 -1249q-12 -40 -33.5 -87t-54.5 -87.5t-79.5 -68t-107.5 -27.5q-10 0 -23 2t-26 4.5t-24.5 5t-18.5 4.5v150q6 -2 19.5 -3t19.5 -1q39 0 69 9t53.5 29.5t41 54.5t31.5 84l31 107zM343 1240l193 294h224l-268 -294h-149z" />
<glyph unicode="&#xfe;" horiz-adv-x="1041" d="M141 0v1536h177v-563q42 63 103 96t145 33q87 0 153.5 -30t111.5 -92.5t68.5 -159.5t23.5 -230v-101q0 -257 -92.5 -383t-261.5 -126q-85 0 -146.5 31.5t-104.5 91.5v-519h-176v416h-1zM318 255q29 -55 75 -89.5t120 -34.5q121 0 177.5 88t56.5 270v101q0 182 -56 268.5 t-180 86.5q-69 0 -116.5 -35.5t-76.5 -91.5v-563z" />
<glyph unicode="&#xff;" horiz-adv-x="853" d="M35 1082h193l200 -788l197 788h188l-358 -1249q-12 -40 -33.5 -87t-54.5 -87.5t-79.5 -68t-107.5 -27.5q-10 0 -23 2t-26 4.5t-24.5 5t-18.5 4.5v150q6 -2 19.5 -3t19.5 -1q39 0 69 9t53.5 29.5t41 54.5t31.5 84l31 107zM124 1371q0 45 27.5 75.5t81.5 30.5t82 -30.5 t28 -75.5t-28 -75t-82 -30t-81.5 30t-27.5 75zM554 1369q0 45 27.5 76t81.5 31t82 -31t28 -76t-28 -75t-82 -30t-81.5 30t-27.5 75z" />
<glyph unicode="&#x152;" horiz-adv-x="1693" d="M107 576v304q0 132 34 242t96 189t149 122.5t193 43.5q63 0 124 -6.5t117 -14.5h703v-158h-590v-468h515v-157h-515v-516h600v-157h-713q-56 -8 -116 -14.5t-123 -6.5q-106 0 -193 43.5t-149.5 122.5t-97 189t-34.5 242zM283 576q0 -109 21 -192t60 -139.5t94 -85 t123 -28.5q44 0 86 3.5t83 9.5v1167q-41 7 -83.5 10.5t-87.5 3.5q-68 0 -123 -28.5t-93.5 -84.5t-59 -138.5t-20.5 -191.5v-306z" />
<glyph unicode="&#x153;" horiz-adv-x="1592" d="M102 529v22q0 118 27.5 218.5t79.5 174.5t127.5 116t172.5 42q110 0 192.5 -53t134.5 -146q55 94 134.5 146.5t169.5 52.5q97 0 168 -36t117 -100t68 -152.5t22 -194.5v-122h-588q2 -77 17.5 -144t45.5 -116.5t74 -78t104 -28.5q89 0 150.5 31.5t102.5 76.5l70 -126 q-20 -24 -49.5 -47.5t-69 -42.5t-90.5 -30.5t-114 -11.5q-112 0 -196 51t-138 142q-53 -90 -134 -141.5t-190 -51.5q-97 0 -173 41.5t-128 115t-79.5 174t-27.5 218.5zM279 529q0 -81 13 -153t41 -127t72 -87t105 -32t104.5 32t71.5 87t41 127t13 153v22q0 80 -13 152.5 t-41 127t-72 87t-105 32.5t-104.5 -32.5t-71.5 -87t-41 -127t-13 -152.5v-22zM932 649h406v26q0 54 -11 104t-35 88t-61.5 60.5t-90.5 22.5q-40 0 -74.5 -23t-61.5 -63t-46 -95.5t-26 -119.5z" />
<glyph unicode="&#x178;" horiz-adv-x="1074" d="M30 1456h208l298 -731l298 731h207l-414 -913v-543h-183v543zM219 1681q0 45 27.5 75.5t81.5 30.5t82 -30.5t28 -75.5t-28 -75t-82 -30t-81.5 30t-27.5 75zM649 1679q0 45 27.5 76t81.5 31t82 -31t28 -76t-28 -75t-82 -30t-81.5 30t-27.5 75z" />
<glyph unicode="&#x2c6;" horiz-adv-x="877" d="M165 1252v12l209 272h105l210 -274v-10h-142l-120 170l-120 -170h-142z" />
<glyph unicode="&#x2dc;" horiz-adv-x="875" d="M129 1248q0 55 14 100.5t39 78t59 50.5t73 18q34 0 61 -15t52 -33t51.5 -33t59.5 -15q34 0 57 32.5t23 80.5l115 -12q0 -55 -14.5 -100t-39.5 -76.5t-59 -48.5t-73 -17q-42 0 -69.5 15t-50 32.5t-46 32.5t-58.5 15q-34 0 -56.5 -32t-22.5 -80z" />
<glyph unicode="&#x2000;" horiz-adv-x="968" />
<glyph unicode="&#x2001;" horiz-adv-x="1937" />
<glyph unicode="&#x2002;" horiz-adv-x="968" />
<glyph unicode="&#x2003;" horiz-adv-x="1937" />
<glyph unicode="&#x2004;" horiz-adv-x="645" />
<glyph unicode="&#x2005;" horiz-adv-x="484" />
<glyph unicode="&#x2006;" horiz-adv-x="322" />
<glyph unicode="&#x2007;" horiz-adv-x="322" />
<glyph unicode="&#x2008;" horiz-adv-x="242" />
<glyph unicode="&#x2009;" horiz-adv-x="387" />
<glyph unicode="&#x200a;" horiz-adv-x="107" />
<glyph unicode="&#x2010;" horiz-adv-x="508" d="M47 543v151h413v-151h-413z" />
<glyph unicode="&#x2011;" horiz-adv-x="508" d="M47 543v151h413v-151h-413z" />
<glyph unicode="&#x2012;" horiz-adv-x="508" d="M47 543v151h413v-151h-413z" />
<glyph unicode="&#x2013;" horiz-adv-x="1172" d="M161 651v151h842v-151h-842z" />
<glyph unicode="&#x2014;" horiz-adv-x="1389" d="M159 651v151h1122v-151h-1122z" />
<glyph unicode="&#x2018;" horiz-adv-x="398" d="M100 1073v120q0 45 10.5 94.5t30.5 97.5t49 92t67 78l100 -72q-40 -66 -61 -135.5t-21 -151.5v-123h-175z" />
<glyph unicode="&#x2019;" horiz-adv-x="398" d="M56 1118q39 66 60 135.5t21 151.5v131h175v-128q0 -46 -10.5 -95.5t-30.5 -97.5t-49 -91.5t-67 -77.5z" />
<glyph unicode="&#x201a;" horiz-adv-x="399" d="M48 -210q40 66 60 135.5t20 149.5v106h177v-103q0 -45 -10.5 -94t-30.5 -97t-49.5 -92t-66.5 -78z" />
<glyph unicode="&#x201c;" horiz-adv-x="684" d="M109 1073v120q0 45 10.5 94.5t30.5 97.5t49 92t67 78l100 -72q-40 -66 -61 -135.5t-21 -151.5v-123h-175zM394 1073v120q0 45 10.5 94.5t30.5 97.5t49 92t67 78l100 -72q-40 -66 -61 -135.5t-21 -151.5v-123h-175z" />
<glyph unicode="&#x201d;" horiz-adv-x="691" d="M68 1118q39 66 60 135.5t21 151.5v131h175v-128q0 -46 -10.5 -95.5t-30.5 -97.5t-49 -91.5t-67 -77.5zM346 1118q39 66 60 135.5t21 151.5v131h175v-128q0 -46 -10.5 -95.5t-30.5 -97.5t-49 -91.5t-67 -77.5z" />
<glyph unicode="&#x201e;" horiz-adv-x="668" d="M48 -229q40 71 60 144.5t20 159.5v171h177v-168q0 -47 -10.5 -99t-30.5 -102t-49.5 -96t-66.5 -82zM317 -229q40 71 60 144.5t20 159.5v171h177v-168q0 -47 -10.5 -99t-30.5 -102t-49.5 -96t-67.5 -82z" />
<glyph unicode="&#x2022;" horiz-adv-x="690" d="M138 732v61q0 43 14.5 79.5t40.5 62.5t63.5 41t84.5 15q48 0 86 -15t64.5 -41t40.5 -62.5t14 -79.5v-61q0 -43 -14 -79t-40.5 -62.5t-64 -41t-85.5 -14.5q-47 0 -84.5 14.5t-64 41t-41 62.5t-14.5 79z" />
<glyph unicode="&#x2026;" horiz-adv-x="1209" d="M143 97q0 48 28.5 80t85.5 32t86.5 -32t29.5 -80q0 -46 -29.5 -77t-86.5 -31t-85.5 31t-28.5 77zM517 97q0 48 28.5 80t85.5 32t86.5 -32t29.5 -80q0 -46 -29.5 -77t-86.5 -31t-85.5 31t-28.5 77zM873 97q0 48 28.5 80t85.5 32t86.5 -32t29.5 -80q0 -46 -29.5 -77 t-86.5 -31t-85.5 31t-28.5 77z" />
<glyph unicode="&#x202f;" horiz-adv-x="387" />
<glyph unicode="&#x2039;" horiz-adv-x="557" d="M111 541v19l248 389h129l-211 -399l211 -397h-129z" />
<glyph unicode="&#x203a;" horiz-adv-x="557" d="M92 152l211 398l-211 399h131l248 -389v-19l-248 -389h-131z" />
<glyph unicode="&#x205f;" horiz-adv-x="484" />
<glyph unicode="&#x20ac;" d="M103 541v124h146v137h-146v125h146q4 136 39 239t94 172t140.5 103.5t178.5 34.5q54 0 104 -8.5t102 -22.5l-20 -162q-42 16 -88.5 25.5t-95.5 9.5q-121 0 -193 -96t-78 -295h311v-125h-311v-137h311v-124h-311q1 -103 21 -179t55.5 -126.5t85 -75t110.5 -24.5 q49 0 95 8.5t88 25.5l20 -160q-48 -14 -99.5 -22t-105.5 -8q-99 0 -181 35t-142 105t-94 175.5t-36 245.5h-146z" />
<glyph unicode="&#x2122;" horiz-adv-x="1121" d="M105 1375v81h323v-81h-120v-456h-82v456h-121zM493 919v537h101l116 -399l116 399h101v-537h-81v394l-114 -394h-44l-114 393v-393h-81z" />
<glyph unicode="&#x25fc;" horiz-adv-x="1080" d="M0 0v1080h1080v-1080h-1080z" />
<glyph unicode="&#xfb02;" horiz-adv-x="1117" d="M69 939v143h141v114q0 87 21.5 154.5t61.5 113.5t98 69.5t130 23.5q53 0 107 -17l-9 -150q-17 4 -39 6.5t-42 2.5q-72 0 -111.5 -52.5t-39.5 -150.5v-114h185v-143h-185v-939h-177v939h-141zM794 0v1536h177v-1536h-177z" />
<glyph unicode="&#xfb03;" horiz-adv-x="1651" d="M69 939v143h141v114q0 87 21.5 154.5t61.5 113.5t98 69.5t130 23.5q53 0 107 -17l-9 -150q-17 4 -39 6.5t-42 2.5q-72 0 -111.5 -52.5t-39.5 -150.5v-114h185v-143h-185v-939h-177v939h-141zM688 939v143h141v94q0 92 24 163t68.5 119.5t108.5 73.5t144 25 q63 0 120 -17.5t120 -43.5l-30 -156q-35 18 -87 34t-109 16q-100 0 -140.5 -53t-40.5 -161v-94h175v-143h-175v-939h-178v939h-141zM1322 0v1082h178v-1082h-178z" />
<glyph unicode="&#xfb04;" horiz-adv-x="1765" d="M69 939v143h141v114q0 87 21.5 154.5t61.5 113.5t98 69.5t130 23.5q53 0 107 -17l-9 -150q-17 4 -39 6.5t-42 2.5q-72 0 -111.5 -52.5t-39.5 -150.5v-114h185v-143h-185v-939h-177v939h-141zM717 939v143h141v114q0 87 21.5 154.5t61.5 113.5t98 69.5t130 23.5 q53 0 107 -17l-9 -150q-17 4 -39 6.5t-42 2.5q-72 0 -111.5 -52.5t-39.5 -150.5v-114h185v-143h-185v-939h-177v939h-141zM1442 0v1536h177v-1536h-177z" />
</font>
</defs>
</svg>
