<?xml version="1.0" standalone="no"?>
<!DOCTYPE svg PUBLIC "-//W3C//DTD SVG 1.1//EN" "http://www.w3.org/Graphics/SVG/1.1/DTD/svg11.dtd" >
<svg xmlns="http://www.w3.org/2000/svg">
<metadata></metadata>
<defs>
<font id="roboto_condensedlight_italic" horiz-adv-x="976" >
<font-face units-per-em="2048" ascent="1536" descent="-512" />
<missing-glyph horiz-adv-x="456" />
<glyph unicode="&#xfb01;" horiz-adv-x="950" d="M95 0l171 982h-146l18 100h145l16 113q10 73 36 140t69.5 117.5t105.5 79.5t143 27q60 -2 117 -19.5t111 -42.5l-31 -104q-46 26 -94.5 40.5t-102.5 15.5q-57 0 -99.5 -20t-71.5 -54.5t-46.5 -80.5t-25.5 -98l-16 -114h202l-18 -100h-201l-170 -982h-112zM569 0l188 1082 h111l-188 -1082h-111z" />
<glyph horiz-adv-x="0" />
<glyph unicode="&#xd;" horiz-adv-x="456" />
<glyph horiz-adv-x="0" />
<glyph horiz-adv-x="0" />
<glyph horiz-adv-x="49" />
<glyph unicode="&#x9;" horiz-adv-x="49" />
<glyph unicode=" "  horiz-adv-x="456" />
<glyph unicode="&#x09;" horiz-adv-x="456" />
<glyph unicode="&#xa0;" horiz-adv-x="456" />
<glyph unicode="!" horiz-adv-x="435" d="M52 71q2 31 23 56.5t54 26.5q35 1 53 -25t16 -58q-2 -31 -23.5 -55t-53.5 -25q-34 -1 -52.5 23.5t-16.5 56.5zM126 406l177 1050h115l-189 -1050h-103z" />
<glyph unicode="&#x22;" horiz-adv-x="580" d="M212 1081l54 321l21 134h97l-23 -146l-68 -309h-81zM440 1081l56 329l20 126h97l-23 -144l-68 -311h-82z" />
<glyph unicode="#" horiz-adv-x="1085" d="M40 410l17 95h218l144 437h-225l17 98h239l138 416h93l-138 -416h243l138 416h94l-138 -416h182l-18 -98h-196l-144 -437h204l-17 -95h-218l-134 -410h-94l135 410h-242l-135 -410h-94l135 410h-204zM368 505h242l145 437h-242z" />
<glyph unicode="$" d="M86 419h110q-5 -59 2 -118t31.5 -106t69 -77.5t114.5 -31.5q61 -1 112 20.5t89.5 60t62.5 90t30 109.5t-6.5 104t-39.5 83t-67 66t-89 53q-68 33 -121 72t-89 88.5t-52.5 112t-10.5 142.5q6 78 33 145t72.5 118t108.5 84t142 42l36 202h94l-36 -206q80 -15 128 -60.5 t73 -107.5t30 -135t-2 -142h-109q5 52 1 111t-24 109.5t-59.5 84.5t-106.5 36q-61 1 -109 -21.5t-82.5 -61.5t-54.5 -90t-26 -107q-6 -60 6 -106t39.5 -82t68.5 -64.5t92 -53.5q67 -33 120.5 -72t89 -88.5t51.5 -111.5t10 -141q-6 -81 -34.5 -148t-76 -117t-113 -81.5 t-145.5 -41.5l-33 -189h-92l34 190q-85 12 -140.5 53.5t-87 101t-41.5 132.5t-3 150z" />
<glyph unicode="%" horiz-adv-x="1280" d="M196 1099l7 76q6 54 25.5 108.5t53.5 98.5t81.5 70.5t109.5 25.5q60 -2 100 -30.5t64 -72t32.5 -96.5t5.5 -103l-8 -77q-6 -54 -25.5 -108t-53 -97.5t-81 -70t-108.5 -24.5q-59 1 -99.5 29.5t-65 71.5t-33.5 95.5t-5 103.5zM233 175l774 1132l63 -51l-772 -1135z M286 1097q-2 -32 1 -68t16 -67t37.5 -52t64.5 -22q42 -1 72.5 18.5t51.5 50.5t33 68.5t17 72.5l7 79q3 31 -0.5 68t-16 68.5t-37.5 53t-65 22.5q-42 1 -73 -19t-52 -51.5t-33 -69.5t-16 -73zM648 279l7 77q6 54 25.5 108.5t53 98t80.5 70t109 25.5q60 -2 100.5 -30 t64.5 -71.5t33 -96t5 -103.5l-7 -78q-6 -54 -25.5 -108.5t-53.5 -98t-81.5 -70t-108.5 -24.5q-60 1 -100 29.5t-64 72t-33 96.5t-5 103zM736 277q-3 -32 0.5 -68.5t16 -68t37 -53t65.5 -22.5q42 -1 73.5 19t52.5 51.5t33 69.5t16 73l8 80q3 32 0 69t-16 68t-38 52t-66 22 q-43 1 -74 -18.5t-52 -50.5t-33 -69t-16 -73z" />
<glyph unicode="&#x26;" horiz-adv-x="1077" d="M71 364q6 69 33 129t67.5 111.5t90.5 96.5t103 84l13 9q-20 40 -37 81.5t-29 84.5t-17.5 87t-1.5 90q6 66 28.5 128t61.5 109.5t95.5 75.5t129.5 27q58 -2 102.5 -25t73.5 -61.5t43 -88t10 -104.5q-4 -50 -21.5 -94t-44.5 -83t-61 -73.5t-71 -64.5l-128 -103l243 -453 q48 75 77.5 156t43.5 169h99q-15 -117 -54 -221.5t-112 -197.5l124 -233h-124l-74 140q-35 -35 -73.5 -64.5t-81.5 -51t-89.5 -33.5t-97.5 -11q-82 1 -145 32t-104.5 83t-60 121t-11.5 148zM183 364q-7 -56 3.5 -106t37.5 -88.5t70.5 -61.5t102.5 -24q43 -1 82.5 11t75 32.5 t67 47.5t60.5 56l-251 469l-7 12l-40 -34q-34 -30 -67.5 -65t-61 -75t-47 -83.5t-25.5 -90.5zM401 1069.5q4 -35.5 13 -70t22 -68t28 -65.5l116 95q28 23 53.5 49t46 55t34 62.5t16.5 71.5q3 33 -3.5 64t-23 55.5t-42.5 39.5t-62 16q-47 0 -82 -21t-59.5 -55t-38.5 -75.5 t-18 -81.5q-4 -36 0 -71.5z" />
<glyph unicode="'" horiz-adv-x="348" d="M190 1089l54 308l22 139h101l-23 -145l-63 -302h-91z" />
<glyph unicode="(" horiz-adv-x="588" d="M105.5 212.5q-2.5 95.5 3.5 186.5t18 170l2 16q14 91 36 189.5t54 197.5t74.5 195t97.5 182.5t122.5 159t150.5 125.5l17 -85q-69 -56 -124.5 -125.5t-99.5 -148.5t-78.5 -164.5t-60.5 -173.5t-44.5 -176t-31.5 -171l-3 -20q-10 -68 -18.5 -150t-11 -170.5t3.5 -178.5 t25 -174t53 -158t87 -129l-34 -79q-65 59 -109.5 137.5t-72.5 167.5t-41 185t-15.5 191.5z" />
<glyph unicode=")" horiz-adv-x="599" d="M-106 -390q68 56 123.5 126t100 149t78.5 165t60 174.5t44.5 176.5t31.5 171l3 20q10 69 18 151t10 170.5t-4.5 178.5t-25 174.5t-52.5 158.5t-86 130l33 77q64 -59 108.5 -137t72.5 -167.5t41.5 -186t16 -192.5t-4 -187.5t-17.5 -169.5l-2 -15q-14 -92 -36 -190.5 t-53.5 -197t-73.5 -193.5t-96.5 -180.5t-122 -159t-149.5 -127.5z" />
<glyph unicode="*" horiz-adv-x="853" d="M105 1109l46 100l305 -124l54 371h104l-66 -368l332 125l16 -109l-342 -114l172 -295l-89 -60l-160 303l-244 -300l-79 67l257 298z" />
<glyph unicode="+" horiz-adv-x="992" d="M84 627l20 115h349l81 464h112l-81 -464h356l-21 -115h-354l-84 -481h-113l84 481h-349z" />
<glyph unicode="," horiz-adv-x="390" d="M-83 -217q51 59 86.5 122.5t49.5 141.5l25 143h116l-22 -140q-14 -97 -60.5 -179t-119.5 -146z" />
<glyph unicode="-" horiz-adv-x="523" d="M54 590l18 103h395l-18 -103h-395z" />
<glyph unicode="." horiz-adv-x="484" d="M49 73q2 35 27.5 60t60.5 26q37 1 59.5 -24.5t20.5 -61.5q-3 -35 -28.5 -58t-60.5 -24q-18 0 -33 6t-25.5 17t-16.5 26t-4 33z" />
<glyph unicode="/" horiz-adv-x="716" d="M-88 -125l771 1581h103l-769 -1581h-105z" />
<glyph unicode="0" d="M107 348q-4 69 0.5 136.5t12.5 123.5l37 244q9 64 24.5 136t39.5 142t58.5 134t83 112t112 75.5t145.5 25.5q79 -2 131.5 -34t85.5 -82.5t48.5 -115t19.5 -133t-1 -136.5t-12 -124l-38 -243q-10 -64 -25.5 -136.5t-39 -143.5t-58 -135t-83 -112.5t-112 -76.5t-146.5 -25 q-78 2 -131 34t-85.5 83t-47.5 116.5t-19 134.5zM211 396.5q0 -55.5 7.5 -111t28 -100t57 -73t94.5 -30.5q62 -3 110 21t84 65.5t61 96t42.5 112t28 114.5t17.5 103l43 275q5 38 10.5 89t5.5 106.5t-7.5 109.5t-28.5 97.5t-57.5 71t-94.5 30.5q-63 3 -110.5 -20.5t-83.5 -64 t-61 -94t-42.5 -110.5t-28 -113.5t-17.5 -102.5l-42 -275q-5 -37 -10.5 -89t-5.5 -107.5z" />
<glyph unicode="1" d="M258 1158l22 121l436 182h22l-250 -1461h-111l226 1305z" />
<glyph unicode="2" d="M34 0l16 100l467 535q40 47 83.5 98.5t81 107.5t64.5 116t35 124q6 52 -0.5 103.5t-29 93t-62.5 67.5t-100 28q-72 2 -125.5 -27t-91 -77.5t-60 -109.5t-32.5 -122l-108 -1q10 85 42.5 165t85.5 142t127 99t168 35q82 -2 142 -33.5t98 -84t53 -121.5t8 -146 q-8 -77 -38.5 -148.5t-74 -138t-95 -128t-100.5 -116.5l-400 -458h614l-16 -103h-752z" />
<glyph unicode="3" d="M65 394h109q-6 -57 3.5 -111.5t35.5 -98t70 -71.5t109 -30q70 -2 124.5 23t93 69t61 102.5t28.5 122.5q6 63 -4.5 115t-38.5 90t-74.5 60t-111.5 24l-111 1l19 104l98 -2q65 1 120.5 22.5t97.5 60t68.5 91.5t33.5 118q6 53 -0.5 104.5t-28.5 92t-62 66t-101 27.5 q-66 2 -116.5 -23t-87.5 -67t-60 -96.5t-34 -112.5l-107 -1q11 81 44 154.5t85.5 129.5t123.5 88.5t159 30.5q84 -2 143.5 -35.5t96 -88.5t50 -126t6.5 -147q-6 -59 -27.5 -110.5t-55.5 -94t-79 -76t-97 -57.5q51 -23 84 -59t52 -80.5t24.5 -95.5t0.5 -103 q-8 -87 -40.5 -165t-87 -136.5t-129.5 -92t-168 -30.5q-87 2 -150.5 37t-103.5 92t-56.5 131t-8.5 154z" />
<glyph unicode="4" d="M33 366l10 71l719 1019h123l-172 -986h182l-18 -104h-181l-64 -366h-111l64 366h-552zM183 470h420l140 805l-40 -61z" />
<glyph unicode="5" d="M118 384l104 -1q-1 -54 8 -107t33 -95.5t65 -69.5t104 -29q79 -3 134.5 33t92 93t56 127t26.5 135q4 36 3.5 76t-7.5 78.5t-21 73.5t-37 62t-56.5 43.5t-79.5 17.5q-73 2 -128.5 -25.5t-107.5 -75.5l-87 29l178 707h602l-20 -114h-503l-132 -488q48 38 105.5 59t119.5 20 q61 -1 107.5 -21.5t79.5 -55t54 -80t31.5 -97t12.5 -104.5t-3 -103q-9 -90 -38 -179.5t-81 -160.5t-128.5 -114t-179.5 -40q-85 3 -144.5 38t-96.5 91.5t-52.5 128.5t-13.5 148z" />
<glyph unicode="6" d="M108 399q-2 61 5 116l17 127q14 98 39 197.5t63.5 191t92 171.5t126 138.5t164.5 92.5t207 34h19l-12 -107h-13q-84 0 -153 -22t-124.5 -62t-99 -94t-77.5 -118t-59.5 -134t-44.5 -142q28 37 61.5 68.5t72 54t82 34.5t91.5 11q61 -1 107 -23t78.5 -58t53.5 -83t31.5 -99 t12.5 -106t-3 -103q-5 -57 -20 -117t-39 -116.5t-58.5 -106.5t-79 -87.5t-100 -58.5t-122.5 -19q-69 2 -120.5 27t-88.5 66t-60 94.5t-35 112.5t-14 120zM218.5 428q-0.5 -46 5.5 -93t20 -92t39 -80t61.5 -57t88.5 -23q50 -2 90.5 16t72.5 48.5t56.5 71t41.5 85t27 90 t14 85.5q4 36 4 77t-6 82t-19.5 79t-36.5 67.5t-56.5 47.5t-80.5 20q-49 1 -98 -18t-91 -52t-73 -77t-43 -91l-12 -102q-4 -38 -4.5 -84z" />
<glyph unicode="7" d="M152 0l713 1352h-667l17 104h784l-9 -69l-718 -1387h-120z" />
<glyph unicode="8" d="M69 378q6 66 28.5 122.5t59.5 104t86.5 84t108.5 62.5q-40 27 -67 63t-43 78t-21 88t-1 92q7 82 37.5 156.5t81.5 130.5t122 88t159 30q81 -2 140 -35t96 -86.5t52 -122.5t8 -143q-6 -60 -26 -112t-52.5 -95.5t-76.5 -78.5t-96 -61q46 -27 78.5 -65t52 -84t26.5 -96.5 t3 -102.5q-8 -89 -42 -165.5t-90 -133t-132.5 -88t-168.5 -29.5q-85 2 -149 34.5t-105 86.5t-58.5 125.5t-10.5 152.5zM179 377q-6 -57 4 -110t37 -93.5t71.5 -65.5t107.5 -26q68 -2 123.5 22.5t96 68t65.5 101t31 121.5q5 55 -5.5 108.5t-37.5 95.5t-71 68.5t-105 28.5 q-68 2 -123.5 -24t-96.5 -70.5t-66 -103t-31 -121.5zM331 1073q-5 -50 3 -98.5t31.5 -87t62 -63.5t95.5 -26q61 -2 111 22.5t86 66t58 95t27 109.5q5 49 -3.5 98.5t-32 89.5t-62.5 66t-95 28q-63 2 -112.5 -23.5t-85.5 -68t-57 -97t-26 -111.5z" />
<glyph unicode="9" d="M155.5 856q-1.5 54 3.5 102q6 57 21 118.5t39.5 119.5t59 110t80 90.5t102 60t124.5 20.5q75 -2 128.5 -30t89 -73.5t55.5 -104.5t28 -123t7 -129t-8 -122l-16 -115q-14 -98 -37.5 -195t-60 -184.5t-88 -163t-122 -130.5t-161 -86.5t-204.5 -31.5h-25l13 106h18 q131 0 222.5 46.5t154.5 125.5t102.5 181.5t66.5 214.5q-28 -38 -61.5 -72.5t-72.5 -60t-84 -40.5t-95 -13q-61 1 -106.5 24t-78 60.5t-52.5 86t-30.5 101.5t-12 107zM265 887.5q0 -41.5 5.5 -83.5t18.5 -81.5t35.5 -70.5t55 -50.5t78.5 -20.5q51 -2 101.5 20t94 58t75.5 83 t44 95l7 72q3 38 5 86.5t-2 99t-16 100t-35.5 88t-60.5 63t-92 26.5q-51 2 -92 -16.5t-74.5 -50.5t-58.5 -74t-42.5 -88t-28.5 -92.5t-15 -87.5q-3 -34 -3 -75.5z" />
<glyph unicode=":" horiz-adv-x="410" d="M35 73q2 35 27.5 60t60.5 26q37 1 59.5 -24.5t20.5 -61.5q-3 -35 -28.5 -58t-60.5 -24q-18 0 -33 6t-25.5 17t-16.5 26t-4 33zM196 995q2 35 27.5 60t60.5 26q37 1 59.5 -24.5t20.5 -61.5q-3 -35 -28.5 -58t-60.5 -24q-18 0 -33 6t-25.5 17t-16.5 26t-4 33z" />
<glyph unicode=";" horiz-adv-x="380" d="M-81 -217q51 59 86.5 122.5t49.5 141.5l25 143h116l-22 -140q-14 -97 -60.5 -179t-119.5 -146zM185 995q2 35 27.5 60t60.5 26q37 1 59.5 -24.5t20.5 -61.5q-3 -35 -28.5 -58t-60.5 -24q-18 0 -33 6t-25.5 17t-16.5 26t-4 33z" />
<glyph unicode="&#x3c;" horiz-adv-x="901" d="M82 611l17 98l742 379l-25 -136l-611 -300l508 -299l-22 -122z" />
<glyph unicode="=" horiz-adv-x="970" d="M107 417l20 108h683l-20 -108h-683zM179 828l19 108h683l-19 -108h-683z" />
<glyph unicode="&#x3e;" horiz-adv-x="915" d="M56 226l24 133l624 303l-521 301l22 120l627 -379l-18 -98z" />
<glyph unicode="?" horiz-adv-x="812" d="M176 1115q11 73 39.5 139.5t74.5 116.5t109 79t143 27q76 -2 128.5 -34.5t83 -84t41.5 -116.5t4 -132q-6 -68 -30 -127t-59.5 -111.5t-79.5 -99.5t-92 -92q-61 -57 -93 -125.5t-47 -149.5l-100 -1q7 58 21.5 107t37 92.5t54 83.5t72.5 81q37 37 71.5 75t61.5 79t45.5 87 t24.5 101q5 43 1.5 88.5t-20.5 83t-49.5 61.5t-84.5 26q-56 1 -98 -20t-72.5 -57t-50 -82t-29.5 -94zM219 71q2 31 22 56.5t54 26.5q17 0 30.5 -7t22.5 -18.5t13 -26.5t3 -31q-3 -31 -24 -55t-53 -25q-35 -1 -52.5 23.5t-15.5 56.5z" />
<glyph unicode="@" horiz-adv-x="1568" d="M72 271.5q5 105.5 22 201.5q19 107 55 219.5t89.5 219t124.5 200t160 163t196 109t232 37.5q124 -2 212.5 -43t148 -109t92 -157.5t45 -189t7 -204t-21.5 -201.5q-9 -51 -24 -111.5t-37.5 -121t-54 -116t-73 -98.5t-94.5 -68t-118 -23q-42 1 -73 16.5t-52.5 40.5 t-32.5 59t-12 73q-22 -35 -48.5 -69t-59 -61.5t-70.5 -44t-84 -15.5q-52 1 -85 25t-52 62t-26 85.5t-7 96t5 93.5t11 79q9 53 26.5 116t43.5 127t61 123.5t80.5 105.5t101.5 73t124 25q70 -2 120 -31.5t96 -78.5l-131 -569q-3 -19 -6 -44t-3.5 -51.5t2.5 -53t13.5 -47 t28.5 -34.5t47 -15q51 -2 91 20.5t71 60t54 87t39 100t26.5 99t16.5 85.5q14 86 21.5 179t0.5 182.5t-32 169.5t-75 141t-128 98t-191 39q-111 2 -206 -34t-173.5 -99.5t-141 -149t-109.5 -181t-79 -196t-49 -194.5q-15 -80 -21.5 -172.5t1 -185t32 -177.5t73.5 -151 t124.5 -106t185.5 -41q76 -1 148 20t138 57l19 -82q-67 -46 -147.5 -67t-161.5 -20q-124 1 -213 44t-148.5 114t-92 164t-45 195t-7.5 207.5zM530 219.5q2 -37.5 12.5 -68.5t31 -51.5t56.5 -22.5q47 -3 87 21t72 62t54.5 82.5t34.5 82.5l124 527q-49 43 -113 46 q-56 2 -101 -21t-80.5 -62.5t-62 -91t-46 -105.5t-32.5 -106.5t-20 -93.5q-4 -21 -9 -54t-7.5 -70t-0.5 -74.5z" />
<glyph unicode="A" horiz-adv-x="1099" d="M-64 0l703 1456h106l197 -1456h-114l-51 407h-527l-192 -407h-122zM300 514h463l-96 776z" />
<glyph unicode="B" horiz-adv-x="1074" d="M62 0l252 1456l351 -1q86 -2 151.5 -28.5t107.5 -74.5q44 -47 62 -115q13 -47 13 -104q0 -24 -3 -50q-11 -117 -75 -199.5t-170 -127.5q51 -19 85.5 -55.5t54 -82.5t25.5 -98q4 -32 4 -64q0 -19 -1 -38q-8 -94 -42.5 -171.5t-92.5 -132.5t-136 -85q-76 -29 -168 -29h-6 h-412zM193 106l286 -1q70 0 127 23t99 64.5t68 99t34 125.5q2 23 2 45q-1 31 -5 60q-8 50 -32.5 88.5t-66.5 61.5t-102 26l-307 1zM314 804l252 -2q66 0 121 20t96 56.5t66 89.5t32 119q3 23 3 45q0 90 -44 144q-54 68 -178 71l-253 1z" />
<glyph unicode="C" horiz-adv-x="1133" d="M120 442v7q0 65 9 127l50 313q11 73 32 145.5t53.5 138.5t76.5 122.5t101 97.5q56 41 126 63q64 21 140 21h14q105 -3 176.5 -42t113.5 -104q44 -65 60 -151q13 -66 12 -136q0 -22 -1 -44h-115q1 19 1 37q-1 52 -7 100q-8 66 -35.5 116.5t-78.5 82t-133 33.5h-13 q-94 0 -162 -39q-74 -42 -124 -111t-79.5 -155.5t-42.5 -172.5l-49 -316q-7 -49 -9 -103l-2 -32q0 -38 5 -76q6 -54 21.5 -103t44.5 -87t73.5 -62t108.5 -26q12 -1 23 0q76 0 133 23q65 27 110 76.5t74 118.5t49 149l109 1q-20 -103 -59 -191t-100.5 -152t-147.5 -99 q-79 -32 -181 -32h-18q-80 2 -139 29t-101 71.5t-67.5 103t-38.5 124.5t-13 134z" />
<glyph unicode="D" horiz-adv-x="1142" d="M62 0l252 1456l326 -1q123 -3 207.5 -53t133.5 -130t65 -184q8 -54 7 -111q0 -51 -6 -104l-45 -291q-19 -123 -66.5 -229.5t-123.5 -185.5t-180 -123q-102 -44 -230 -44h-6h-334zM193 106l207 -1q108 0 192 36.5t144.5 101t98.5 151.5t54 188l46 295q7 52 7 102 q0 34 -3 67q-8 83 -41.5 149t-97 107.5t-163.5 44.5l-228 1z" />
<glyph unicode="E" horiz-adv-x="997" d="M62 0l252 1456h739l-19 -108h-625l-95 -545h549l-19 -106h-548l-103 -591h631l-19 -106h-743z" />
<glyph unicode="F" horiz-adv-x="984" d="M61 0l253 1456h738l-19 -108h-624l-98 -562h544l-19 -108h-543l-118 -678h-114z" />
<glyph unicode="G" horiz-adv-x="1189" d="M131 426v25q0 58 7 115l53 334q11 75 32 147.5t53.5 137t76 119t100.5 93.5t127 60q65 19 141 19h15q97 -2 167.5 -35.5t116 -91t66.5 -135.5q17 -68 17 -147v-23l-112 1v10q0 61 -11 115q-13 59 -44 102t-81.5 68.5t-124.5 27.5h-14q-93 0 -162 -36q-74 -39 -125 -105 t-81 -151.5t-43 -173.5l-53 -337q-7 -52 -8 -107v-12q0 -50 8 -96q8 -53 27 -100.5t51.5 -83t79.5 -57t112 -22.5h11q86 0 162 29q81 31 150 91l67 379h-310l20 107h423l-85 -524q-40 -49 -91 -85t-108.5 -59.5t-119.5 -34.5q-57 -10 -114 -10h-10q-81 1 -143.5 25.5 t-107.5 66.5t-74 98.5t-44 121t-17 134.5z" />
<glyph unicode="H" horiz-adv-x="1231" d="M61 0l253 1456h114l-114 -653h661l113 653h115l-253 -1456h-115l122 697h-661l-121 -697h-114z" />
<glyph unicode="I" horiz-adv-x="495" d="M82 0l253 1456h113l-253 -1456h-113z" />
<glyph unicode="J" horiz-adv-x="967" d="M41 401h114q-3 -31 -3 -61q0 -25 2 -50q5 -56 26.5 -101t63 -73.5t108.5 -30.5h9q66 0 117 29q53 31 90.5 81.5t59.5 113t31 123.5l174 1024h115l-175 -1023q-12 -87 -44 -169.5t-85.5 -147t-127.5 -102.5q-70 -36 -159 -36h-14q-91 3 -152.5 38.5t-97.5 94t-48 133.5 q-7 46 -7 93q0 32 3 64z" />
<glyph unicode="K" horiz-adv-x="1100" d="M61 0l253 1456h114l-134 -766l189 198l530 568h150l-611 -654l388 -802h-129l-345 716l-202 -199l-89 -517h-114z" />
<glyph unicode="L" horiz-adv-x="932" d="M62 0l252 1456h115l-235 -1350h583l-19 -106h-696z" />
<glyph unicode="M" horiz-adv-x="1495" d="M61 0l253 1456h146l206 -1275l650 1275h152l-253 -1456h-114l110 634l117 615l-645 -1249h-87l-212 1257l-99 -625l-110 -632h-114z" />
<glyph unicode="N" horiz-adv-x="1234" d="M61 0l253 1456h111l452 -1244l216 1244h113l-253 -1456h-110l-451 1242l-216 -1242h-115z" />
<glyph unicode="O" horiz-adv-x="1182" d="M116 431v14q0 63 8 125l50 314q17 112 57 219.5t107 191.5t163 134q91 47 210 47h14q82 -2 143.5 -27.5t105 -68t70.5 -100t40.5 -122.5t14.5 -135v-14q0 -63 -8 -125l-50 -313q-12 -75 -33 -148.5t-53.5 -140t-76.5 -123t-102 -97.5q-58 -40 -128 -62q-65 -20 -142 -20 h-14q-82 2 -143.5 27.5t-105.5 68t-71.5 99t-41 121.5t-14.5 135zM230 462q0 -9 -1 -19q1 -45 7 -89q8 -52 25 -100t48.5 -84t78 -58t111.5 -24h14q95 0 165 38q75 41 126 110t80.5 157t42.5 177l50 318q7 52 9 108v19q0 45 -6 88q-7 52 -24.5 99t-48.5 83t-77.5 57.5 t-112.5 23.5h-14q-61 0 -111 -16q-56 -18 -100.5 -52t-79 -80.5t-59 -100.5t-41 -113t-25.5 -118l-49 -317q-6 -51 -8 -107z" />
<glyph unicode="P" horiz-adv-x="1081" d="M61 0l253 1456l404 -1q93 -3 160 -37t108.5 -91.5t57.5 -134.5q11 -52 12 -108q0 -27 -3 -56q-9 -100 -45.5 -181t-97 -138t-143 -87.5t-183.5 -30.5l-306 1l-103 -592h-114zM296 699l293 -2q75 0 136.5 24.5t106.5 68t72.5 104t35.5 133.5q3 27 3 53q0 34 -5 66 q-9 56 -36 100t-73.5 71t-114.5 30l-305 1z" />
<glyph unicode="Q" horiz-adv-x="1182" d="M113 432v14q0 63 8 124l49 314q17 112 57 219.5t106.5 191.5t162.5 134q91 47 210 47h14q82 -2 143.5 -27.5t105.5 -68t71 -99.5t40.5 -122t14.5 -135v-15q0 -63 -8 -125l-50 -314q-13 -81 -35 -158t-58.5 -145t-89.5 -125.5t-126 -100.5l174 -222l-85 -74l-198 252 q-34 -8 -67 -12t-68 -4q-81 1 -142 26.5t-104 68.5t-70.5 100t-40.5 122t-14 134zM226 462v-14q0 -48 6 -94q7 -52 24.5 -99.5t49 -83.5t78 -58.5t111.5 -24.5h14q95 0 165 38q75 41 126 110t80.5 156.5t43.5 177.5l49 318q7 53 9 108v19q0 45 -6 89q-7 52 -24 99 t-48.5 82.5t-78.5 57t-113 23.5h-14q-61 0 -110 -16q-56 -18 -101 -52t-79 -80.5t-58.5 -100.5t-41 -113t-25.5 -118l-49 -317q-7 -52 -8 -107z" />
<glyph unicode="R" horiz-adv-x="1102" d="M59 0l253 1456l380 -1q93 -3 160.5 -36t110.5 -88.5t61 -131.5q12 -50 11 -106q0 -29 -3 -58q-7 -72 -31 -135t-64 -115t-94.5 -92t-121.5 -64l188 -616l-1 -13h-122l-177 606h-330l-105 -606h-115zM297 712l289 -2q70 1 128 26.5t100.5 70t69 103.5t34.5 126q3 26 3 51 q0 35 -6 67q-10 55 -37.5 97t-74.5 67.5t-114 28.5l-281 1z" />
<glyph unicode="S" horiz-adv-x="1037" d="M62 416h113q-2 -20 -2 -39q-1 -49 11 -91q16 -60 51.5 -104t90.5 -69.5t129 -26.5h12q57 0 110 17q58 19 103 55t74.5 88.5t36.5 118.5q2 19 2 37q-1 45 -13 81q-18 50 -53.5 86.5t-86 63.5t-107.5 50q-71 28 -133.5 64t-108 84.5t-69.5 112.5q-19 50 -19 111q0 18 2 37 q7 88 45 159.5t99 122t139 77.5q73 25 152 25h12q91 -2 160.5 -38t115.5 -96q44 -60 64 -138q14 -57 15 -119q0 -22 -2 -45h-114q2 22 2 43q1 41 -7 79q-12 58 -42 103.5t-79.5 73t-119.5 29.5h-6q-59 0 -113 -18q-56 -18 -100 -54t-72 -87t-35 -115q-2 -17 -2 -32 q1 -43 15 -78q20 -47 56.5 -82.5t85.5 -61.5t101 -46q75 -29 138.5 -66.5t108.5 -88.5t68 -118q18 -51 18 -114q0 -19 -2 -40q-7 -91 -46 -163.5t-101 -123t-142 -76.5q-74 -25 -156 -25h-12q-95 2 -170 36t-126 92t-75 137q-18 59 -18 126q0 23 2 46z" />
<glyph unicode="T" horiz-adv-x="1045" d="M189 1348l20 108h916l-19 -108h-401l-234 -1348h-115l234 1348h-401z" />
<glyph unicode="U" horiz-adv-x="1143" d="M120 429l175 1027h113l-174 -1028q-4 -33 -3 -65q0 -35 4 -67q9 -61 38 -107t80 -73.5t128 -29.5h18q71 0 127 21q64 24 109.5 70t74 110t39.5 141l174 1028h115l-175 -1026q-14 -101 -52.5 -185t-100.5 -144q-62 -61 -146 -93q-77 -30 -173 -29h-18q-100 2 -171.5 37 t-115.5 95q-44 59 -60 141q-10 49 -10 103q0 36 4 74z" />
<glyph unicode="V" horiz-adv-x="1084" d="M179 1456h116l171 -1274v-17l6 17l568 1274h129l-670 -1456h-107z" />
<glyph unicode="W" horiz-adv-x="1542" d="M203 1456h113l46 -1063l-1 -204l74 201l419 1066h102l82 -1075l8 -196l70 214l374 1057h118l-529 -1456h-108l-87 1139l-6 124l-47 -128l-447 -1135h-109z" />
<glyph unicode="X" horiz-adv-x="1074" d="M-34 0l522 744l-276 712h127l228 -612l420 612h141l-506 -724l284 -732h-129l-236 631l-434 -631h-141z" />
<glyph unicode="Y" horiz-adv-x="1048" d="M188 1456h127l211 -789l489 789h136l-587 -915l-94 -541h-114l97 555z" />
<glyph unicode="Z" horiz-adv-x="1047" d="M-3 0l16 101l890 1248h-676l17 107h813l-15 -97l-893 -1253h723l-17 -106h-858z" />
<glyph unicode="[" horiz-adv-x="457" d="M6 -312l308 1976h280l-17 -104h-168l-277 -1768h170l-17 -104h-279z" />
<glyph unicode="\" horiz-adv-x="711" d="M207 1456h103l220 -1581h-102z" />
<glyph unicode="]" horiz-adv-x="457" d="M-124 -312l17 104h170l276 1768h-170l17 104h280l-309 -1976h-281z" />
<glyph unicode="^" horiz-adv-x="743" d="M98 729l371 727h81l117 -727h-101l-80 562l-277 -562h-111z" />
<glyph unicode="_" horiz-adv-x="775" d="M-103 -103l19 103h726l-18 -103h-727z" />
<glyph unicode="`" horiz-adv-x="577" d="M248 1525h133l142 -280h-100z" />
<glyph unicode="a" horiz-adv-x="945" d="M47 276q6 91 46 158t102 110.5t140.5 65t162.5 21.5l184 -1l22 152q2 20 2 39q0 73 -34 119q-44 58 -148 59h-6q-47 -1 -88 -15q-43 -16 -76.5 -44t-56.5 -68t-33 -88l-109 1q10 71 44 130.5t85 101.5q50 43 114 65q62 22 131 21h6q74 -1 129.5 -24.5t91.5 -66.5 q36 -42 50 -101q10 -40 9 -86q0 -22 -2 -46l-91 -552q-9 -56 -9 -108t2 -107l-2 -12h-114q-2 20 -2 40q-1 17 1 35q4 37 10 75q-29 -38 -62.5 -69.5t-72.5 -54.5q-39 -24 -83 -36q-41 -12 -86 -11h-7q-66 1 -115 23.5t-80.5 62.5t-45.5 94q-10 40 -10 84q0 16 1 33zM161 285 q-1 -16 -1 -30q0 -26 4 -49q7 -36 25.5 -62.5t50.5 -42t77 -16.5h7q46 1 88 13q44 14 82.5 39t70.5 60t56 76l45 264l-154 1q-62 0 -122 -13.5t-108.5 -44t-81 -78.5t-39.5 -117z" />
<glyph unicode="b" d="M38 0l267 1536h110l-113 -605q52 79 124 126q69 45 160 45h8q69 -2 117.5 -25.5t79.5 -62.5t47 -90q18 -51 24 -107q5 -40 5 -82q1 -17 -1 -33q-2 -58 -9 -111l-13 -100q-8 -59 -22 -120.5t-36 -119t-54 -108t-75 -87.5q-43 -38 -99 -58q-51 -19 -116 -18h-13 q-87 2 -153 43.5t-101 122.5l-34 -146h-103zM195 263q24 -81 79 -127.5t141 -49.5h13q49 0 88 14q44 16 78 45.5t57.5 69.5t40.5 85.5t27 94t16 95.5l13 104q4 40 7 84q2 24 2 48q1 20 -1 40q-2 44 -12 85.5t-32 73.5t-57.5 51.5t-89.5 20.5h-6q-46 0 -86 -14 q-42 -15 -76.5 -41.5t-62 -62.5t-49.5 -78z" />
<glyph unicode="c" horiz-adv-x="911" d="M70 361q0 4 -1 8q0 56 7 111l16 122q13 96 44 187.5t85.5 162t134.5 112.5q75 39 176 38h15q82 -3 139.5 -35.5t91.5 -84.5q34 -54 48 -122q10 -53 11 -109q0 -17 -1 -34h-107q1 16 1 33q0 34 -4 68q-6 50 -28 89.5t-60.5 64t-98.5 27.5h-14q-79 1 -133 -31 q-60 -34 -98 -91.5t-59 -129.5t-31 -145l-16 -123q-6 -43 -8 -89q-1 -18 -1 -34q0 -28 3 -54q4 -44 16.5 -83t36.5 -68.5t61.5 -48t92.5 -20.5h12q54 0 95 16q46 18 80 52.5t56 81.5t35 102h104q-13 -75 -45 -140.5t-81 -114t-115 -75.5q-61 -25 -136 -25h-11 q-71 1 -123 22.5t-88.5 57.5t-58.5 84t-32.5 103t-10.5 115z" />
<glyph unicode="d" horiz-adv-x="979" d="M80 380q2 58 8 110l13 100q8 60 22 122t36 119.5t54 108t76 87t101 56.5q52 18 117 18h13q86 -3 149.5 -44.5t97.5 -120.5l108 600h111l-267 -1536h-103l26 138q-26 -37 -57 -66.5t-67 -50.5t-77 -32q-38 -10 -80 -10h-8q-68 1 -115.5 25.5t-79 64t-48.5 91t-24 107.5 q-6 46 -6 93v20zM192 316q2 -44 12 -85.5t31.5 -73.5t57 -51.5t88.5 -20.5h7q42 0 78 11q40 12 73.5 34.5t62 53.5t52.5 68l94 563q-23 80 -74.5 128.5t-138.5 52.5h-13q-48 0 -88 -14q-44 -16 -78 -45t-58.5 -69.5t-41 -86.5t-27 -94.5t-16.5 -95.5l-13 -103q-4 -40 -7 -84 q-2 -27 -2 -53q0 -17 1 -35z" />
<glyph unicode="e" horiz-adv-x="919" d="M73 470l15 123q12 93 44.5 185.5t88 165.5t135.5 117q75 41 174 41h14q100 -3 160.5 -46.5t91 -111.5t35.5 -152q2 -28 2 -56q0 -56 -7 -111l-13 -94h-619l-10 -62q-6 -46 -7 -94q-1 -19 1 -37q4 -68 28 -124t71.5 -93t126.5 -39h9q75 0 137 30q64 32 121 86l52 -76 q-63 -74 -147 -109q-79 -33 -171 -33h-10q-104 2 -170.5 45.5t-103.5 112.5t-47 156q-5 45 -6 90q0 43 5 86zM202 635h515l5 30q5 38 5 78q0 17 -1 35q-3 58 -22.5 106t-59.5 80t-107 35h-14q-71 -1 -123 -29q-56 -32 -95.5 -84t-64 -118.5t-38.5 -132.5z" />
<glyph unicode="f" horiz-adv-x="607" d="M109 0l170 982h-144l17 100h145l19 133q9 67 31.5 130t61.5 111t95 76q54 28 127 28h5q29 -1 56 -6.5t55 -13.5l-20 -101q-46 13 -90 14q-50 0 -86.5 -20.5t-61.5 -54.5t-40 -76.5t-21 -85.5l-20 -134h206l-18 -100h-205l-171 -982h-111z" />
<glyph unicode="g" d="M11 -277l61 78q43 -58 100.5 -93t130.5 -37h12q64 0 112 19q53 22 89.5 62t59 95.5t32.5 120.5l32 166q-54 -73 -124 -115q-67 -40 -155 -40h-8q-68 1 -115.5 25.5t-79 64t-48.5 91t-24 107.5q-5 45 -5 92q0 11 1 21q1 58 7 110l13 100q8 60 22 122t36 119.5t54 108 t75.5 87.5t100.5 57q52 18 117 18h13q88 -3 152 -47t97 -125l36 152h103l-189 -1108q-12 -87 -42.5 -162.5t-81.5 -130.5t-123 -85q-66 -28 -150 -28h-17q-43 1 -85 12.5t-80 31.5t-71 48t-58 63zM192 316q2 -44 12 -85.5t31.5 -73t57 -51.5t88.5 -21h7q42 0 79 11 q40 13 74 35.5t62.5 54.5t51.5 70l92 555q-22 81 -73 131t-138 54h-13q-77 0 -131 -34q-58 -36 -94.5 -95t-56.5 -132.5t-29 -143.5l-13 -103q-4 -39 -7 -83q-2 -24 -2 -48q0 -20 2 -41z" />
<glyph unicode="h" horiz-adv-x="965" d="M38 0l267 1536h111l-116 -624q27 39 59 74t69.5 61.5t81.5 40.5q41 14 88 14h6q55 -1 94.5 -18.5t66 -47t41.5 -69t22 -83.5q7 -41 7 -83q-1 -3 -1 -7q0 -46 -5 -90l-118 -704h-109l117 706q3 30 5 64v23q0 22 -2 43q-3 32 -12 61t-27 51t-45.5 35.5t-67.5 14.5h-4 q-48 0 -92 -20q-46 -22 -85.5 -57t-68.5 -79.5t-43 -89.5l-128 -752h-111z" />
<glyph unicode="i" horiz-adv-x="428" d="M50 0l188 1082h111l-188 -1082h-111zM276 1394q3 36 23.5 55.5t53.5 27.5q33 -6 52 -26q16 -17 17 -47q0 -5 -1 -10q-2 -36 -23 -55t-54 -27q-34 6 -52 26q-17 18 -16 49v7z" />
<glyph unicode="j" horiz-adv-x="433" d="M-234 -419l13 101q18 -6 36 -10.5t38 -5.5h5q41 0 70 17q30 18 50.5 47.5t32 66.5t17.5 74l206 1211h111l-206 -1211q-8 -60 -26.5 -116.5t-52 -100.5t-82.5 -70q-46 -24 -109 -24h-10q-25 1 -47.5 7t-45.5 14zM272 1394q1 15 6.5 29.5t15.5 26.5t23 19.5t30 7.5t30.5 -7 t22.5 -18.5t12 -26.5q3 -12 3 -24v-7q-2 -31 -23 -56t-54 -26q-17 0 -30 6.5t-21 18t-12 26.5q-3 12 -3 25v6z" />
<glyph unicode="k" horiz-adv-x="871" d="M38 0l267 1536h111l-168 -967l100 106l397 407h146l-454 -463l293 -619h-123l-251 539l-135 -129l-71 -410h-112z" />
<glyph unicode="l" horiz-adv-x="428" d="M50 0l267 1536h111l-267 -1536h-111z" />
<glyph unicode="m" horiz-adv-x="1524" d="M34 0l188 1082h106l-33 -162q27 40 59 73.5t70 58t82 38.5q41 13 87 12h7q95 -2 156.5 -53.5t76.5 -145.5q28 42 62.5 79t74.5 64t86 42q44 14 94 14h7q56 -1 96.5 -18t68 -46t44 -67.5t24 -82.5t7.5 -91t-5 -92l-118 -705h-111l118 707q4 40 4 82v17q-1 52 -16.5 94 t-50 69.5t-95.5 28.5h-5q-54 0 -100 -23q-48 -24 -86 -63t-63.5 -89t-35.5 -102l-124 -721h-111l119 716q4 37 4 75q-1 11 -1 23q-2 50 -18 90t-50 66t-94 28h-5q-48 0 -92 -20q-46 -20 -83 -54.5t-64 -79t-40 -90.5l-129 -754h-111z" />
<glyph unicode="n" horiz-adv-x="966" d="M38 0l188 1082h106l-35 -172q27 40 59.5 75.5t70.5 61.5q38 25 82 41q41 15 89 15h6q55 -1 94.5 -19t66 -47.5t41.5 -69t22 -83.5q7 -41 7 -83q-1 -3 -1 -7q0 -46 -5 -90l-118 -704h-109l117 706q3 30 5 64v23q0 22 -2 43q-3 32 -12.5 61t-27 51t-45.5 35.5t-68 14.5h-4 q-47 0 -91 -20q-46 -22 -85.5 -57t-68.5 -79.5t-43 -89.5l-128 -752h-111z" />
<glyph unicode="o" horiz-adv-x="985" d="M80 368q0 10 -1 21q0 48 6 95l14 111q13 93 46 185.5t89 165t136 116.5q75 41 175 41h14q69 -2 120.5 -24.5t88 -59.5t59 -86.5t34 -105t12.5 -115.5v-16q0 -51 -5 -100l-14 -112q-9 -62 -26 -124.5t-44 -119t-64.5 -105.5t-85.5 -84t-108 -55q-54 -18 -118 -17h-13 q-68 2 -119.5 24.5t-88.5 59.5t-59.5 86t-34 104.5t-13.5 114.5zM190 398v-8q0 -41 6 -81q6 -44 19 -84t37.5 -71t61.5 -50.5t89 -21.5h13q76 0 131 33q60 36 100.5 94.5t63 131t32.5 143.5l15 113q4 41 5 85v13q-1 38 -5 75q-6 44 -19.5 84.5t-38 72t-61 51t-88.5 21.5h-12 q-47 -1 -87 -15q-45 -16 -80.5 -45.5t-63 -69.5t-47 -85.5t-32 -94t-18.5 -93.5l-15 -114q-6 -40 -6 -84z" />
<glyph unicode="p" d="M-34 -416l260 1498l102 1l-29 -148q54 77 125 123q69 44 161 44h8q69 -1 117.5 -24.5t79.5 -62.5t47.5 -90.5t22.5 -107.5q5 -40 5 -82q0 -16 -1 -33q-2 -58 -8 -111l-13 -100q-8 -59 -22 -120.5t-36 -119t-53.5 -108t-75 -87.5t-99.5 -58q-51 -18 -115 -18h-13 q-83 2 -150 39t-105 112l-98 -547h-110zM192 245q26 -76 80.5 -118t135.5 -45h13q77 0 131 34q59 37 96 96.5t57 133t29 144.5l13 103q4 39 7 84q2 23 2 45t-2 44q-3 45 -13.5 86t-33 73t-58.5 51.5t-89 20.5h-6q-44 0 -81 -13q-40 -13 -73.5 -37.5t-61.5 -57.5t-50 -72z " />
<glyph unicode="q" horiz-adv-x="983" d="M80 380q2 57 8 110l12 100q8 61 22 123.5t36.5 120t55 107.5t76.5 86.5t102 56.5q52 18 117 18h13q85 -3 148.5 -43.5t98.5 -117.5l34 141h104l-260 -1498h-112l102 542q-54 -69 -123 -108q-67 -38 -151 -38h-9q-68 1 -116 25t-79.5 63t-49 90t-23.5 108q-6 45 -6 92v22z M192 315q3 -45 13 -86.5t32 -73.5t57.5 -52t88.5 -21h7q41 0 76 10q39 12 72 33t61 50.5t52 65.5l98 585q-25 75 -77 122t-134 51h-13q-49 0 -89 -14q-45 -16 -79 -46t-58.5 -70.5t-41.5 -86.5t-27.5 -95t-16.5 -96l-13 -103q-5 -39 -8 -84q-1 -22 -1 -44t1 -45z" />
<glyph unicode="r" horiz-adv-x="610" d="M38 0l188 1082h109l-35 -162q22 38 49.5 72.5t60.5 60t73 39.5q35 13 76 13h12q18 -1 35.5 -5.5t34.5 -9.5l-16 -110q-17 3 -34 5.5t-34 2.5h-5q-48 0 -92 -19q-46 -20 -82.5 -53.5t-62.5 -77t-39 -90.5l-127 -748h-111z" />
<glyph unicode="s" horiz-adv-x="897" d="M48 296l111 -1v-14q0 -89 49 -141q53 -56 154 -57q45 0 87 12t76 36t56.5 60t28.5 83q2 11 2 22q0 30 -13 56q-17 34 -45.5 61t-64 48t-68.5 38q-48 26 -95.5 53.5t-84 63t-57.5 81.5q-18 39 -18 89q0 10 1 20q4 69 34.5 124t78 94t108.5 59q58 19 121 19h6 q70 -2 126 -25.5t93.5 -65t55.5 -99.5q14 -45 14 -98q0 -14 -1 -29h-110q1 10 1 20q0 34 -8 63q-10 38 -34 66.5t-60 45t-83 17.5h-6q-39 1 -77 -11q-40 -12 -71.5 -36.5t-52.5 -59.5t-27 -80q-1 -10 -2 -19q0 -31 13 -55q16 -32 43.5 -56t62 -43t66.5 -36q51 -27 100 -56 t86.5 -66t59.5 -85q18 -40 18 -94q0 -10 -1 -20q-5 -73 -36.5 -129.5t-80.5 -94.5q-50 -38 -114 -58q-58 -18 -120 -18h-13q-70 1 -129 23.5t-101 63.5t-63 99q-17 47 -17 103q0 13 1 27z" />
<glyph unicode="t" horiz-adv-x="586" d="M101 982l17 100h162l49 276h110l-48 -276h179l-17 -100h-179l-120 -720q-3 -24 -4 -53.5t5 -55.5t23 -44t50 -19q20 -1 39 2t39 5l-7 -100q-43 -15 -89 -15h-11q-58 1 -90.5 28t-48 68.5t-17.5 91.5q-1 16 -1 32q0 32 3 62l118 718h-162z" />
<glyph unicode="u" horiz-adv-x="966" d="M102 297q0 47 5 92l116 693h110l-116 -696q-5 -39 -5 -85v-9q0 -52 14 -97t45 -76.5t89 -33.5h12q42 0 82 12q46 14 85 41t68.5 65.5t43.5 85.5l136 793h111l-187 -1082h-108l28 128q-53 -73 -127 -112q-70 -37 -159 -37h-9q-56 1 -96 20t-67 49.5t-42.5 71t-22 85.5 t-6.5 92z" />
<glyph unicode="v" horiz-adv-x="853" d="M126 1082h109l119 -903l399 903h117l-497 -1082h-88z" />
<glyph unicode="w" horiz-adv-x="1306" d="M153 1082h103l46 -836l-4 -61l24 66l358 831h93l70 -829v-72l26 74l324 827h117l-446 -1082h-92l-77 860v27l-8 -28l-373 -859h-95z" />
<glyph unicode="x" horiz-adv-x="864" d="M-41 0l399 557l-212 525h122l161 -435l297 435h136l-386 -537l222 -545h-122l-169 452l-313 -452h-135z" />
<glyph unicode="y" horiz-adv-x="841" d="M-84 -424l12 101q12 -2 24.5 -5t25.5 -3h10q40 0 72 15q35 16 62 44t47.5 64t36.5 74l66 149l-144 1067h117l104 -894l405 894h122l-585 -1256q-20 -47 -46 -94.5t-60.5 -86t-79.5 -62.5q-43 -23 -98 -23h-5q-22 0 -43.5 5t-42.5 11z" />
<glyph unicode="z" horiz-adv-x="864" d="M-5 0l15 96l665 881h-513l17 105h650l-15 -96l-669 -883h564l-17 -103h-697z" />
<glyph unicode="{" horiz-adv-x="602" d="M66 541l12 106q57 3 97 24t67.5 55.5t43 80.5t22.5 98l31 227q12 84 37.5 156.5t67.5 132t103 104.5t143 74l15 -82q-62 -25 -106 -65t-74 -90t-47.5 -109t-26.5 -121l-32 -227q-14 -104 -61.5 -184.5t-143.5 -128.5q37 -25 59.5 -60.5t34 -76.5t12.5 -84.5t-3 -85.5 l-30 -226q-7 -53 -7 -109t13 -107.5t43.5 -94t84.5 -68.5l-31 -81q-72 31 -117.5 79.5t-70 109.5t-30 130.5t2.5 141.5l31 226q5 45 3.5 89t-16 79.5t-44.5 59t-83 27.5z" />
<glyph unicode="|" horiz-adv-x="448" d="M35 -270l270 1726h101l-270 -1726h-101z" />
<glyph unicode="}" horiz-adv-x="602" d="M-115 -321q61 25 105 64t74.5 89t48.5 108t27 120l31 225q14 106 63 186.5t148 127.5q-40 24 -63.5 58.5t-35 75.5t-13.5 85.5t3 86.5l31 228q7 54 7.5 110.5t-12.5 108.5t-43 95t-85 69l31 79q72 -30 117.5 -79.5t69.5 -110.5t29 -131t-4 -142l-30 -228 q-5 -45 -3.5 -88.5t16 -79t44.5 -58.5t83 -27l-12 -106q-57 -3 -97.5 -24.5t-68 -56.5t-43 -81t-22.5 -98l-30 -225q-11 -83 -36 -155t-67 -131t-102 -104.5t-141 -74.5z" />
<glyph unicode="~" horiz-adv-x="1190" d="M111 449q7 58 26.5 119t53.5 110.5t84.5 80.5t120.5 30q37 -1 70 -13.5t61.5 -32.5t53.5 -46t47 -53q16 -20 33 -40t36 -36.5t42 -27t51 -10.5q47 -1 79.5 21.5t54 57.5t34 76.5t19.5 79.5l87 1q-6 -58 -25 -119.5t-52.5 -112t-83.5 -82.5t-119 -31q-38 1 -70.5 13 t-61 32.5t-53 46t-47.5 53.5q-16 19 -32.5 39t-36 36.5t-42.5 27t-50 11.5q-47 1 -79 -20.5t-53 -55.5t-33 -75t-18 -79z" />
<glyph unicode="&#xa1;" horiz-adv-x="424" d="M-13 -359l188 1048h102l-175 -1048h-115zM205 1021q2 31 23 56t54 26q17 0 30 -6.5t22 -18t13.5 -26.5t3.5 -31q-2 -31 -23 -56.5t-55 -26.5q-17 0 -30 7t-22 18.5t-13 26.5t-3 31z" />
<glyph unicode="&#xa2;" horiz-adv-x="958" d="M89.5 318.5q-4.5 80.5 4.5 161.5l16 122q12 91 40.5 178t78 156.5t121.5 114t171 50.5l38 217h111l-40 -224q64 -14 108.5 -49.5t71.5 -86t37.5 -112.5t6.5 -129h-107q3 52 -3.5 101.5t-28 89t-60 64t-98.5 27.5q-87 3 -146.5 -31.5t-98 -91.5t-59.5 -129t-31 -145 l-16 -123q-5 -43 -7.5 -88.5t1.5 -89t16.5 -82.5t36.5 -68.5t61.5 -48t92.5 -20.5q61 -2 107 16.5t80 52.5t56 81t35 102h104q-12 -71 -41 -133t-73.5 -109.5t-104 -77t-132.5 -34.5l-40 -225h-111l41 232q-83 17 -133 66t-75.5 117t-30 148.5z" />
<glyph unicode="&#xa3;" horiz-adv-x="1005" d="M-7 0l19 105l73 -1q34 16 56.5 46.5t37 67.5t21.5 77t12 74l38 275h-149l19 107h146l40 288q10 80 39.5 159.5t79 142t119.5 100.5t162 35q81 -2 136 -36.5t87.5 -88.5t43.5 -123t4 -140h-113q4 48 -0.5 97.5t-24 90t-56 66.5t-94.5 28q-66 2 -114 -29t-80 -80.5 t-50.5 -109.5t-25.5 -114l-39 -286h278l-19 -107h-275l-38 -274q-11 -73 -34 -140.5t-70 -125.5l610 2l-19 -106h-820z" />
<glyph unicode="&#xa4;" horiz-adv-x="1447" d="M12 68l182 155q-79 182 -53 378q16 118 66 219.5t130 187.5l-132 173l94 84l130 -169q86 64 183.5 102t206.5 36q97 -2 186.5 -37.5t158.5 -104.5l197 173l73 -96l-196 -169q42 -91 57 -188.5t1 -197.5q-14 -112 -61.5 -209.5t-122.5 -180.5l129 -168l-94 -84l-124 159 q-87 -70 -188 -111.5t-215 -39.5q-101 2 -193.5 40t-161.5 112l-180 -158zM252 599q-12 -92 7.5 -182t67.5 -161.5t123.5 -116.5t176.5 -48q108 -3 203.5 40.5t170 117.5t122.5 169.5t62 197.5q8 61 2 121.5t-25.5 116t-51.5 103.5t-76.5 84t-100.5 57t-122 23 q-108 3 -203.5 -40t-170 -116t-123.5 -168.5t-62 -197.5z" />
<glyph unicode="&#xa5;" horiz-adv-x="1048" d="M77 324l16 90h331l36 202h-333l17 91h296l-236 749h124l210 -706l455 706h138l-496 -749h290l-17 -91h-334l-35 -202h335l-16 -90h-334l-57 -324h-115l57 324h-332z" />
<glyph unicode="&#xa6;" horiz-adv-x="441" d="M2 -270l134 772h120l-135 -772h-119zM170 698l132 758h119l-132 -758h-119z" />
<glyph unicode="&#xa7;" horiz-adv-x="1061" d="M-12 -64l110 2q-7 -65 4 -124t41 -104t79.5 -72.5t121.5 -28.5q60 -2 114 15.5t97 51t70.5 82t35.5 110.5q7 61 -10.5 104.5t-51.5 75.5t-80.5 55t-97.5 42q-71 27 -133.5 60.5t-107.5 80t-68 109t-15 148.5q4 53 22.5 97t48.5 79.5t69.5 62.5t87.5 47q-31 28 -51 60.5 t-31 68.5t-13.5 74.5t0.5 78.5q7 87 45 155.5t97 115.5t135 71.5t160 22.5q94 -2 160.5 -37.5t106 -94t54.5 -135.5t6 -164h-110q6 59 -2.5 117t-35 104t-72.5 75t-114 31q-61 1 -115.5 -15.5t-97 -49.5t-70 -81.5t-34.5 -110.5q-8 -63 9 -108t50.5 -77.5t80.5 -56 t100 -44.5q71 -27 133.5 -59.5t107.5 -77.5t68 -106.5t15 -146.5q-10 -107 -74.5 -176.5t-161.5 -107.5q65 -55 87 -129t15 -156q-8 -87 -44.5 -156t-95 -116.5t-134.5 -71.5t-161 -22q-96 2 -166 36t-114 91.5t-61.5 135.5t-8.5 169zM208 545q-8 -66 11 -112t55.5 -79 t87 -56.5t105.5 -44.5q52 -19 98 -39q45 9 84 27t70 45.5t51 65t26 84.5q8 63 -12.5 109.5t-58.5 80t-88 57.5t-102 44q-29 11 -56.5 21t-55.5 23q-91 -18 -147.5 -75t-67.5 -151z" />
<glyph unicode="&#xa8;" horiz-adv-x="865" d="M262 1395q2 34 26 58t59 25q35 0 57.5 -24t19.5 -59q-2 -34 -26.5 -57t-58.5 -24q-35 -1 -57 22.5t-20 58.5zM686 1394q2 34 26 58t59 25t57 -23.5t20 -59.5q-2 -34 -26.5 -57t-59.5 -24q-34 0 -56 23t-20 58z" />
<glyph unicode="&#xa9;" horiz-adv-x="1598" d="M123 722q11 99 46 194t89 179.5t125.5 155t156 121.5t181 78.5t200.5 25.5q99 -1 184 -31t153 -81t118.5 -121t81.5 -152t42.5 -172.5t0.5 -183.5q-12 -99 -46.5 -194t-88.5 -179.5t-125 -155.5t-155.5 -122t-181 -79t-200.5 -26q-100 2 -184.5 31.5t-153 81t-119 122 t-81.5 152.5t-42.5 172.5t-0.5 183.5zM206.5 562.5q8.5 -79.5 34.5 -152t69 -135t101.5 -108.5t132 -73t161.5 -28q92 -2 177.5 23t160.5 70.5t138.5 108.5t112 138t80 159t42.5 171q10 80 1.5 159t-34.5 151t-69 133.5t-101.5 107.5t-132 72.5t-160.5 28.5 q-92 2 -177 -22.5t-160.5 -69.5t-139 -107.5t-112 -137t-80 -158.5t-42.5 -171q-11 -80 -2.5 -159.5zM473 679l10 98q9 75 37 146t75 125t112.5 86t148.5 31q71 -2 124 -25.5t87 -65t48.5 -98.5t9.5 -125h-98q4 48 -3.5 88.5t-28.5 70t-56 46t-87 17.5q-62 1 -109.5 -24.5 t-80.5 -67.5t-52 -95t-26 -108l-11 -100q-5 -49 0.5 -100.5t26 -93.5t58 -69.5t96.5 -29.5q55 -2 95.5 13t69.5 44.5t47.5 71t27.5 91.5l94 1q-9 -71 -34.5 -130t-68 -100.5t-101.5 -64t-134 -20.5q-80 2 -135.5 36.5t-89 89t-46 123t-6.5 139.5z" />
<glyph unicode="&#xaa;" horiz-adv-x="788" d="M199 901q3 63 29 108.5t67 74.5t94.5 43t111.5 14l110 -1l9 63q3 28 2.5 58.5t-9.5 56t-29.5 42.5t-56.5 18q-71 3 -111.5 -36.5t-54.5 -104.5l-101 7q8 53 31 96.5t58.5 74.5t81.5 47t101 15q58 -1 96.5 -25.5t60.5 -63.5t29.5 -88.5t2.5 -99.5l-49 -314q-7 -46 -9 -91 t1 -91l-97 -1q-1 23 -0.5 46t2.5 46q-36 -44 -82.5 -74.5t-105.5 -30.5q-47 0 -81.5 16.5t-57.5 45t-34 67t-9 82.5zM301 905q-5 -54 20.5 -87t82.5 -33q26 0 49.5 9t45 23t40 32t34.5 36l29 172l-99 1q-37 -1 -71.5 -9.5t-62 -27t-46 -47.5t-22.5 -69z" />
<glyph unicode="&#xab;" horiz-adv-x="813" d="M103 527l2 20l303 379h101l-296 -396l153 -382h-85zM359 527l2 20l303 379h101l-296 -396l153 -382h-85z" />
<glyph unicode="&#xac;" horiz-adv-x="962" d="M131 668l19 109h668l-68 -392h-112l50 283h-557z" />
<glyph unicode="&#xad;" horiz-adv-x="523" d="M54 590l18 103h395l-18 -103h-395z" />
<glyph unicode="&#xae;" horiz-adv-x="1603" d="M118 722q12 99 46.5 194.5t88.5 179.5t125.5 154.5t156 121.5t181 78.5t200.5 25.5q99 -1 184 -31t153.5 -81t119 -121t82 -152t43 -172.5t0.5 -183.5q-12 -99 -46.5 -194t-88.5 -180t-125.5 -155.5t-156.5 -121.5t-181.5 -79t-200.5 -26q-100 2 -184.5 31.5t-153 81 t-119 122t-81.5 152.5t-42.5 172.5t-0.5 183.5zM201.5 562.5q8.5 -79.5 34.5 -152t69 -135t102 -108.5t132.5 -73t160.5 -28q92 -2 177.5 22.5t160.5 70t138.5 108.5t112 138.5t80 159.5t42.5 171q10 80 2 159.5t-34 151.5t-69 133.5t-102 107t-132.5 72t-160.5 28.5 q-92 2 -177 -22.5t-160.5 -69.5t-139 -107.5t-112 -137t-80.5 -158.5t-43 -171q-10 -80 -1.5 -159.5zM490 321l132 839l244 -1q56 -2 106 -16t86.5 -43t55.5 -73.5t15 -107.5q-3 -39 -16.5 -70t-36 -56t-51 -45.5t-61.5 -36.5q30 -15 49 -36.5t29 -48t12.5 -56.5t-0.5 -61 l-6 -45q-4 -33 -3 -64t2 -63l-2 -16h-98q-5 36 -3.5 72t6.5 72l5 44q7 75 -20.5 113.5t-104.5 42.5l-187 1l-55 -345h-98zM657 758l170 -1q37 1 72 11.5t63.5 30t48 49t24.5 69.5q6 45 -5 73.5t-34.5 45.5t-57 24t-72.5 8l-160 1z" />
<glyph unicode="&#xaf;" horiz-adv-x="770" d="M224 1357l16 99h556l-16 -99h-556z" />
<glyph unicode="&#xb0;" horiz-adv-x="761" d="M247 1217q2 51 23.5 98.5t57 83.5t82 57.5t99.5 20.5q48 -1 88 -21.5t68 -54t42.5 -77t12.5 -89.5q-2 -51 -23 -98t-55.5 -82.5t-80.5 -56.5t-99 -20q-49 1 -89.5 20.5t-69 52.5t-43.5 76t-13 90zM337 1219q-3 -30 5 -57t25 -47.5t41.5 -32.5t55.5 -12q34 0 63 13.5 t51 36t36 52t17 61.5q3 30 -4.5 57.5t-24 48.5t-41 33.5t-55.5 12.5q-34 0 -63.5 -13.5t-52 -36.5t-36.5 -53t-17 -63z" />
<glyph unicode="&#xb1;" horiz-adv-x="935" d="M31 0l19 104h683l-19 -104h-683zM109 727l16 103h333l69 437h101l-69 -437h316l-17 -103h-314l-69 -438h-101l69 438h-334z" />
<glyph unicode="&#xb2;" horiz-adv-x="654" d="M106 665l14 81l278 279q21 22 44.5 47.5t44 53.5t35 58t18.5 63q3 27 -1 50.5t-16 41.5t-32 28.5t-49 10.5q-37 0 -64.5 -13t-47 -35.5t-32 -51.5t-19.5 -61l-95 -1q7 52 27.5 98t53.5 80t77.5 54t100.5 19q49 0 87 -17t63.5 -46t38 -69t9.5 -88q-3 -45 -21.5 -86 t-46 -77.5t-60 -70t-62.5 -63.5l-204 -196h347l-16 -89h-472z" />
<glyph unicode="&#xb3;" horiz-adv-x="654" d="M128 885h96q-3 -61 27.5 -101t95.5 -41q33 0 61.5 10.5t50 30.5t35 47t16.5 60q6 68 -30.5 99.5t-99.5 33.5l-68 1l8 81h64q32 1 61 11t51.5 28t37.5 44t18 60q6 56 -22 92t-86 36q-62 0 -99.5 -37.5t-52.5 -92.5h-97q7 48 28 89t53 70t74.5 45.5t93.5 15.5q48 0 87 -16 t66 -44t40.5 -67.5t10.5 -87.5q-5 -69 -46 -114t-99 -74q56 -23 79.5 -70t20.5 -106q-3 -54 -24.5 -97.5t-56.5 -74.5t-81.5 -47t-98.5 -15t-93 18.5t-68.5 47.5t-41.5 72t-11 93z" />
<glyph unicode="&#xb4;" horiz-adv-x="569" d="M216 1245l230 280l151 -1l-269 -278z" />
<glyph unicode="&#xb5;" horiz-adv-x="981" d="M-27 -416l260 1498h110l-105 -633q-4 -31 -7 -69.5t-2 -79t8 -79t23.5 -69t45.5 -50t74 -20.5q50 -2 95.5 13.5t83 44t64 69t39.5 89.5l134 784h111l-188 -1082h-97l25 147q-23 -38 -51 -69t-61 -53.5t-72.5 -34.5t-85.5 -11q-68 2 -119.5 32t-81.5 91l-94 -518h-109z " />
<glyph unicode="&#xb6;" horiz-adv-x="846" d="M151 980q10 99 46.5 185.5t97 151.5t144 102.5t187.5 37.5l201 -1l-253 -1456h-111l91 520l-74 1q-97 3 -163.5 42.5t-106.5 103.5t-54 145t-5 168z" />
<glyph unicode="&#xb7;" horiz-adv-x="463" d="M169 717q1 16 7 31.5t16.5 27.5t24.5 19.5t31 7.5q18 0 32 -7t23 -19t13 -28t3 -32q-2 -32 -23.5 -57t-56.5 -26t-53.5 24.5t-16.5 58.5z" />
<glyph unicode="&#xb8;" horiz-adv-x="456" d="M-65 -357q30 1 60.5 8.5t55.5 22.5t42.5 38.5t21.5 57.5q4 31 -5 49t-26.5 28.5t-41 15.5t-48.5 9l42 128h85l-21 -66q60 -14 84.5 -58t22.5 -104q-3 -57 -27.5 -96t-62.5 -63.5t-85.5 -36.5t-96.5 -14v81z" />
<glyph unicode="&#xb9;" horiz-adv-x="602" d="M233 1258l18 98l282 103l16 1l-130 -790h-102l115 656z" />
<glyph unicode="&#xba;" horiz-adv-x="802" d="M204 1033l9 98q7 63 30 126t62 112.5t94 79.5t127 28q69 -2 114.5 -34t72 -81.5t35 -110.5t3.5 -119l-10 -99q-8 -63 -30.5 -125.5t-60.5 -112t-93 -79t-127 -27.5q-69 2 -115 34t-72 81.5t-35 109.5t-4 119zM304 951.5q2 -42.5 15.5 -79t41.5 -61.5t76 -26q50 -2 86 21 t60.5 59.5t38 81t18.5 86.5l11 100q3 37 1 79.5t-16 79t-41.5 61.5t-75.5 27q-50 1 -86 -21.5t-60.5 -59t-38 -81t-18.5 -86.5l-11 -101q-3 -37 -1 -79.5z" />
<glyph unicode="&#xbb;" horiz-adv-x="809" d="M30 161l295 396l-152 387h87l178 -382l-3 -21l-303 -380h-102zM294 161l295 396l-152 387h87l178 -382l-3 -21l-303 -380h-102z" />
<glyph unicode="&#xbc;" horiz-adv-x="1260" d="M218 1252l18 98l282 103l16 1l-130 -790h-102l115 656zM222 183l774 1132l61 -51l-772 -1135zM578 186l6 68l409 535h105l-89 -513h101l-16 -90h-101l-33 -186h-96l33 186h-319zM693 276h219l71 377l-31 -46z" />
<glyph unicode="&#xbd;" horiz-adv-x="1317" d="M186 183l774 1132l61 -51l-772 -1135zM207 1252l18 98l282 103l16 1l-130 -790h-102l115 656zM622 0l14 81l278 279q21 22 44.5 47.5t44 53.5t35 58t18.5 63q3 27 -1 50.5t-16 41.5t-32 28.5t-49 10.5q-37 0 -64.5 -13t-47 -35.5t-32 -51.5t-19.5 -61l-95 -1 q7 52 27.5 98t53.5 80t77.5 54t100.5 19q49 0 87 -17t63.5 -46t38 -69t9.5 -88q-3 -45 -21.5 -86t-46 -77.5t-60 -70t-62.5 -63.5l-204 -196h347l-16 -89h-472z" />
<glyph unicode="&#xbe;" horiz-adv-x="1345" d="M167 885h96q-3 -61 27.5 -101t95.5 -41q33 0 61.5 10.5t50 30.5t35 47t16.5 60q6 68 -30.5 99.5t-99.5 33.5l-68 1l8 81h64q32 1 61 11t51.5 28t37.5 44t18 60q6 56 -22 92t-86 36q-62 0 -99.5 -37.5t-52.5 -92.5h-97q7 48 28 89t53 70t74.5 45.5t93.5 15.5q48 0 87 -16 t66 -44t40.5 -67.5t10.5 -87.5q-5 -69 -46 -114t-99 -74q56 -23 79.5 -70t20.5 -106q-3 -54 -24.5 -97.5t-56.5 -74.5t-81.5 -47t-98.5 -15t-93 18.5t-68.5 47.5t-41.5 72t-11 93zM337 183l774 1132l61 -51l-772 -1135zM667 186l6 68l409 535h105l-89 -513h101l-16 -90h-101 l-33 -186h-96l33 186h-319zM782 276h219l71 377l-31 -46z" />
<glyph unicode="&#xbf;" horiz-adv-x="819" d="M-16 -18q7 71 32 133t62 118t83.5 106.5t96.5 97.5q28 27 48 55.5t34 59t23 64t16 71.5l103 2q-7 -55 -19.5 -100.5t-33 -85.5t-49 -77.5t-67.5 -76.5q-39 -41 -75.5 -81t-65.5 -83.5t-49 -93t-26 -108.5q-5 -45 -1 -91t22 -83t52 -60.5t88 -24.5q55 -2 97 20t72 58 t49 82.5t28 94.5h108q-11 -73 -38.5 -140t-72.5 -117t-108 -79t-144 -27q-77 2 -130.5 33t-86 82t-44 116t-4.5 135zM415 1021q3 31 24 55.5t53 25.5q17 0 30.5 -6.5t22 -18t12.5 -26t3 -30.5q-2 -31 -22.5 -56.5t-53.5 -26.5q-35 -1 -53 25t-16 58z" />
<glyph unicode="&#xc0;" horiz-adv-x="1099" d="M-64 0l703 1456h106l197 -1456h-114l-51 407h-527l-192 -407h-122zM300 514h463l-96 776zM508 1840h133l142 -280h-100z" />
<glyph unicode="&#xc1;" horiz-adv-x="1099" d="M-64 0l703 1456h106l197 -1456h-114l-51 407h-527l-192 -407h-122zM300 514h463l-96 776zM640 1560l230 280l151 -1l-269 -278z" />
<glyph unicode="&#xc2;" horiz-adv-x="1099" d="M-64 0l703 1456h106l197 -1456h-114l-51 407h-527l-192 -407h-122zM300 514h463l-96 776zM487 1573l1 13l233 255h68l162 -257l-1 -12l-98 1l-100 180l-167 -179z" />
<glyph unicode="&#xc3;" horiz-adv-x="1099" d="M-64 0l703 1456h106l197 -1456h-114l-51 407h-527l-192 -407h-122zM300 514h463l-96 776zM443 1591q5 37 18 75.5t34.5 70t54 51t76.5 18.5q35 0 61.5 -18t51 -39t50.5 -38t59 -17q25 0 43 11.5t31 29t21.5 39t13.5 41.5l77 -5q-5 -38 -17.5 -76.5t-34 -70t-54 -51 t-76.5 -19.5q-24 0 -43.5 8.5t-36.5 21.5t-33 27.5t-32.5 27t-35 20.5t-40.5 8q-25 -1 -42.5 -12t-30 -27.5t-20.5 -37.5t-14 -41z" />
<glyph unicode="&#xc4;" horiz-adv-x="1099" d="M-64 0l703 1456h106l197 -1456h-114l-51 407h-527l-192 -407h-122zM300 514h463l-96 776zM452 1710q2 34 26 58t59 25q35 0 57.5 -24t19.5 -59q-2 -34 -26.5 -57t-58.5 -24q-35 -1 -57 22.5t-20 58.5zM876 1709q2 34 26 58t59 25t57 -23.5t20 -59.5q-2 -34 -26.5 -57 t-59.5 -24q-34 0 -56 23t-20 58z" />
<glyph unicode="&#xc5;" horiz-adv-x="1099" d="M-64 0l703 1456h106l197 -1456h-114l-51 407h-527l-192 -407h-122zM300 514h463l-96 776zM554 1708q1 40 17 76.5t43 64.5t63.5 44t77.5 16q38 0 70.5 -15t56 -40t36.5 -59t12 -71q-1 -41 -17.5 -76.5t-43.5 -62t-63 -42t-77 -15.5q-38 0 -70.5 14t-56 38t-36.5 57 t-12 71zM631 1710q-2 -22 3.5 -42t18.5 -35t31.5 -23.5t41.5 -8.5q25 0 47 10t39 26.5t28 38.5t14 46q2 22 -3.5 43t-18 36.5t-31.5 24.5t-43 9q-25 0 -47 -10.5t-39 -27.5t-28 -39.5t-13 -47.5z" />
<glyph unicode="&#xc6;" horiz-adv-x="1576" d="M-81 0l971 1456h724l-19 -104h-565l-76 -542h481l-18 -104h-476l-85 -603h573l-18 -103h-679l54 388h-472l-253 -388h-142zM387 503h415l113 809z" />
<glyph unicode="&#xc7;" horiz-adv-x="1133" d="M120.5 441.5q-0.5 68.5 8.5 134.5l50 313q11 73 32 145.5t53.5 138.5t76.5 122.5t101 97.5t126.5 63.5t153.5 20.5q105 -3 176.5 -42t114 -104t59 -150.5t11.5 -180.5h-115q3 71 -5.5 137t-36 116.5t-78.5 82t-133 33.5q-101 3 -174.5 -39t-124 -111t-80 -155.5 t-42.5 -172.5l-49 -316q-7 -49 -9.5 -103.5t3.5 -108t21.5 -102.5t44.5 -87t73.5 -62t108.5 -26q91 -4 156 23t110 76.5t74 118.5t49 149l109 1q-20 -103 -59 -191t-100.5 -152t-147.5 -99t-199 -32q-80 2 -139 29t-101 71.5t-67.5 103t-38 124t-13 134zM324 -366 q30 1 60.5 8.5t55.5 22.5t42.5 38.5t21.5 57.5q4 31 -5 49t-26.5 28.5t-41 15.5t-48.5 9l42 128h85l-21 -66q60 -14 84.5 -58t22.5 -104q-3 -57 -27.5 -96t-62.5 -63.5t-85.5 -36.5t-96.5 -14v81z" />
<glyph unicode="&#xc8;" horiz-adv-x="997" d="M62 0l252 1456h739l-19 -108h-625l-95 -545h549l-19 -106h-548l-103 -591h631l-19 -106h-743zM486 1846h133l142 -280h-100z" />
<glyph unicode="&#xc9;" horiz-adv-x="997" d="M62 0l252 1456h739l-19 -108h-625l-95 -545h549l-19 -106h-548l-103 -591h631l-19 -106h-743zM618 1566l230 280l151 -1l-269 -278z" />
<glyph unicode="&#xca;" horiz-adv-x="997" d="M62 0l252 1456h739l-19 -108h-625l-95 -545h549l-19 -106h-548l-103 -591h631l-19 -106h-743zM465 1579l1 13l233 255h68l162 -257l-1 -12l-98 1l-100 180l-167 -179z" />
<glyph unicode="&#xcb;" horiz-adv-x="997" d="M62 0l252 1456h739l-19 -108h-625l-95 -545h549l-19 -106h-548l-103 -591h631l-19 -106h-743zM430 1716q2 34 26 58t59 25q35 0 57.5 -24t19.5 -59q-2 -34 -26.5 -57t-58.5 -24q-35 -1 -57 22.5t-20 58.5zM854 1715q2 34 26 58t59 25t57 -23.5t20 -59.5q-2 -34 -26.5 -57 t-59.5 -24q-34 0 -56 23t-20 58z" />
<glyph unicode="&#xcc;" horiz-adv-x="495" d="M82 0l253 1456h113l-253 -1456h-113zM205 1846h133l142 -280h-100z" />
<glyph unicode="&#xcd;" horiz-adv-x="495" d="M82 0l253 1456h113l-253 -1456h-113zM336 1566l230 280l151 -1l-269 -278z" />
<glyph unicode="&#xce;" horiz-adv-x="495" d="M82 0l253 1456h113l-253 -1456h-113zM184 1579l1 13l233 255h68l162 -257l-1 -12l-98 1l-100 180l-167 -179z" />
<glyph unicode="&#xcf;" horiz-adv-x="495" d="M82 0l253 1456h113l-253 -1456h-113zM149 1716q2 34 26 58t59 25q35 0 57.5 -24t19.5 -59q-2 -34 -26.5 -57t-58.5 -24q-35 -1 -57 22.5t-20 58.5zM573 1715q2 34 26 58t59 25t57 -23.5t20 -59.5q-2 -34 -26.5 -57t-59.5 -24q-34 0 -56 23t-20 58z" />
<glyph unicode="&#xd0;" horiz-adv-x="1172" d="M86 689l19 104h124l115 663l326 -1q123 -3 207.5 -53t133.5 -130.5t64.5 -184t1.5 -214.5l-45 -291q-19 -123 -66.5 -229.5t-123.5 -185.5t-180 -123.5t-236 -43.5h-334l119 689h-125zM223 106l207 -1q108 0 192 36.5t144.5 101t98.5 151.5t54 188l46 295q12 86 4 169 t-41.5 149t-97 107.5t-163.5 44.5l-228 1l-97 -555h268l-18 -104h-268z" />
<glyph unicode="&#xd1;" horiz-adv-x="1234" d="M61 0l253 1456h111l452 -1244l216 1244h113l-253 -1456h-110l-451 1242l-216 -1242h-115zM507 1591q5 37 18 75.5t34.5 70t54 51t76.5 18.5q35 0 61.5 -18t51 -39t50.5 -38t59 -17q25 0 43 11.5t31 29t21.5 39t13.5 41.5l77 -5q-5 -38 -17.5 -76.5t-34 -70t-54 -51 t-76.5 -19.5q-24 0 -43.5 8.5t-36.5 21.5t-33 27.5t-32.5 27t-35 20.5t-40.5 8q-25 -1 -42.5 -12t-30 -27.5t-20.5 -37.5t-14 -41z" />
<glyph unicode="&#xd2;" horiz-adv-x="1182" d="M116 431q-1 70 8 139l50 314q17 112 57 219.5t107 191.5t163 134t224 47q82 -2 143.5 -27.5t105 -68t70.5 -100t40.5 -122.5t14.5 -135t-8 -139l-50 -313q-12 -75 -33 -148.5t-53.5 -140t-76.5 -123t-101.5 -97t-128 -62.5t-156.5 -20q-82 2 -143.5 27.5t-105.5 68 t-71.5 99t-41 121.5t-14.5 135zM229.5 461.5q-1.5 -55.5 6 -108t25 -100t49 -83.5t78 -58t111.5 -24q104 -3 179 38t126 110t80.5 157t42.5 177l50 318q7 52 8.5 107.5t-5.5 107.5t-24.5 99t-48.5 83t-77.5 57.5t-112.5 23.5q-69 2 -125 -16t-100.5 -52t-79 -80.5 t-59 -100.5t-41 -113t-25.5 -118l-49 -317q-7 -52 -8.5 -107.5zM548 1851h133l142 -280h-100z" />
<glyph unicode="&#xd3;" horiz-adv-x="1182" d="M116 431q-1 70 8 139l50 314q17 112 57 219.5t107 191.5t163 134t224 47q82 -2 143.5 -27.5t105 -68t70.5 -100t40.5 -122.5t14.5 -135t-8 -139l-50 -313q-12 -75 -33 -148.5t-53.5 -140t-76.5 -123t-101.5 -97t-128 -62.5t-156.5 -20q-82 2 -143.5 27.5t-105.5 68 t-71.5 99t-41 121.5t-14.5 135zM229.5 461.5q-1.5 -55.5 6 -108t25 -100t49 -83.5t78 -58t111.5 -24q104 -3 179 38t126 110t80.5 157t42.5 177l50 318q7 52 8.5 107.5t-5.5 107.5t-24.5 99t-48.5 83t-77.5 57.5t-112.5 23.5q-69 2 -125 -16t-100.5 -52t-79 -80.5 t-59 -100.5t-41 -113t-25.5 -118l-49 -317q-7 -52 -8.5 -107.5zM680 1571l230 280l151 -1l-269 -278z" />
<glyph unicode="&#xd4;" horiz-adv-x="1182" d="M116 431q-1 70 8 139l50 314q17 112 57 219.5t107 191.5t163 134t224 47q82 -2 143.5 -27.5t105 -68t70.5 -100t40.5 -122.5t14.5 -135t-8 -139l-50 -313q-12 -75 -33 -148.5t-53.5 -140t-76.5 -123t-101.5 -97t-128 -62.5t-156.5 -20q-82 2 -143.5 27.5t-105.5 68 t-71.5 99t-41 121.5t-14.5 135zM229.5 461.5q-1.5 -55.5 6 -108t25 -100t49 -83.5t78 -58t111.5 -24q104 -3 179 38t126 110t80.5 157t42.5 177l50 318q7 52 8.5 107.5t-5.5 107.5t-24.5 99t-48.5 83t-77.5 57.5t-112.5 23.5q-69 2 -125 -16t-100.5 -52t-79 -80.5 t-59 -100.5t-41 -113t-25.5 -118l-49 -317q-7 -52 -8.5 -107.5zM527 1584l1 13l233 255h68l162 -257l-1 -12l-98 1l-100 180l-167 -179z" />
<glyph unicode="&#xd5;" horiz-adv-x="1182" d="M116 431q-1 70 8 139l50 314q17 112 57 219.5t107 191.5t163 134t224 47q82 -2 143.5 -27.5t105 -68t70.5 -100t40.5 -122.5t14.5 -135t-8 -139l-50 -313q-12 -75 -33 -148.5t-53.5 -140t-76.5 -123t-101.5 -97t-128 -62.5t-156.5 -20q-82 2 -143.5 27.5t-105.5 68 t-71.5 99t-41 121.5t-14.5 135zM229.5 461.5q-1.5 -55.5 6 -108t25 -100t49 -83.5t78 -58t111.5 -24q104 -3 179 38t126 110t80.5 157t42.5 177l50 318q7 52 8.5 107.5t-5.5 107.5t-24.5 99t-48.5 83t-77.5 57.5t-112.5 23.5q-69 2 -125 -16t-100.5 -52t-79 -80.5 t-59 -100.5t-41 -113t-25.5 -118l-49 -317q-7 -52 -8.5 -107.5zM483 1602q5 37 18 75.5t34.5 70t54 51t76.5 18.5q35 0 61.5 -18t51 -39t50.5 -38t59 -17q25 0 43 11.5t31 29t21.5 39t13.5 41.5l77 -5q-5 -38 -17.5 -76.5t-34 -70t-54 -51t-76.5 -19.5q-24 0 -43.5 8.5 t-36.5 21.5t-33 27.5t-32.5 27t-35 20.5t-40.5 8q-25 -1 -42.5 -12t-30 -27.5t-20.5 -37.5t-14 -41z" />
<glyph unicode="&#xd6;" horiz-adv-x="1182" d="M116 431q-1 70 8 139l50 314q17 112 57 219.5t107 191.5t163 134t224 47q82 -2 143.5 -27.5t105 -68t70.5 -100t40.5 -122.5t14.5 -135t-8 -139l-50 -313q-12 -75 -33 -148.5t-53.5 -140t-76.5 -123t-101.5 -97t-128 -62.5t-156.5 -20q-82 2 -143.5 27.5t-105.5 68 t-71.5 99t-41 121.5t-14.5 135zM229.5 461.5q-1.5 -55.5 6 -108t25 -100t49 -83.5t78 -58t111.5 -24q104 -3 179 38t126 110t80.5 157t42.5 177l50 318q7 52 8.5 107.5t-5.5 107.5t-24.5 99t-48.5 83t-77.5 57.5t-112.5 23.5q-69 2 -125 -16t-100.5 -52t-79 -80.5 t-59 -100.5t-41 -113t-25.5 -118l-49 -317q-7 -52 -8.5 -107.5zM492 1721q2 34 26 58t59 25q35 0 57.5 -24t19.5 -59q-2 -34 -26.5 -57t-58.5 -24q-35 -1 -57 22.5t-20 58.5zM916 1720q2 34 26 58t59 25t57 -23.5t20 -59.5q-2 -34 -26.5 -57t-59.5 -24q-34 0 -56 23t-20 58z " />
<glyph unicode="&#xd7;" horiz-adv-x="926" d="M22 191l354 363l-220 350l81 77l216 -346l338 346l61 -89l-341 -350l228 -363l-81 -76l-225 358l-349 -358z" />
<glyph unicode="&#xd8;" horiz-adv-x="1182" d="M34 -83l155 226q-27 43 -43 94t-23.5 106t-7 112.5t8.5 114.5l50 314q17 112 57 219.5t107 191.5t163 134t224 47q102 -3 171 -40.5t114 -99.5l117 169h94l-168 -245q35 -83 43 -181t-5 -195l-50 -313q-12 -75 -33 -148.5t-53.5 -140t-76.5 -123t-101.5 -97t-128 -62.5 t-156.5 -20q-82 2 -143 27t-105 67l-108 -157h-102zM230.5 404.5q2.5 -41.5 10 -81t21.5 -74.5l679 986q-29 56 -83.5 92t-140.5 39q-69 2 -125 -16t-100.5 -52t-79 -80.5t-59 -100.5t-41 -113t-25.5 -118l-49 -317q-5 -40 -7.5 -81.5t0 -83zM309 170q32 -36 78 -58t112 -24 q104 -3 179 38t126 110t80.5 157t42.5 177l50 318q8 63 8.5 128.5t-12.5 125.5z" />
<glyph unicode="&#xd9;" horiz-adv-x="1143" d="M120 429l175 1027h113l-174 -1028q-8 -71 1 -132t38 -107t80 -73.5t128 -29.5q81 -3 144.5 21t109.5 70t74.5 110t39.5 141l174 1028h115l-175 -1026q-14 -101 -52.5 -185t-100.5 -144t-146.5 -92.5t-190.5 -29.5q-100 2 -171.5 37t-115.5 95t-60.5 141.5t-5.5 176.5z M533 1840h133l142 -280h-100z" />
<glyph unicode="&#xda;" horiz-adv-x="1143" d="M120 429l175 1027h113l-174 -1028q-8 -71 1 -132t38 -107t80 -73.5t128 -29.5q81 -3 144.5 21t109.5 70t74.5 110t39.5 141l174 1028h115l-175 -1026q-14 -101 -52.5 -185t-100.5 -144t-146.5 -92.5t-190.5 -29.5q-100 2 -171.5 37t-115.5 95t-60.5 141.5t-5.5 176.5z M665 1560l230 280l151 -1l-269 -278z" />
<glyph unicode="&#xdb;" horiz-adv-x="1143" d="M120 429l175 1027h113l-174 -1028q-8 -71 1 -132t38 -107t80 -73.5t128 -29.5q81 -3 144.5 21t109.5 70t74.5 110t39.5 141l174 1028h115l-175 -1026q-14 -101 -52.5 -185t-100.5 -144t-146.5 -92.5t-190.5 -29.5q-100 2 -171.5 37t-115.5 95t-60.5 141.5t-5.5 176.5z M512 1573l1 13l233 255h68l162 -257l-1 -12l-98 1l-100 180l-167 -179z" />
<glyph unicode="&#xdc;" horiz-adv-x="1143" d="M120 429l175 1027h113l-174 -1028q-8 -71 1 -132t38 -107t80 -73.5t128 -29.5q81 -3 144.5 21t109.5 70t74.5 110t39.5 141l174 1028h115l-175 -1026q-14 -101 -52.5 -185t-100.5 -144t-146.5 -92.5t-190.5 -29.5q-100 2 -171.5 37t-115.5 95t-60.5 141.5t-5.5 176.5z M477 1710q2 34 26 58t59 25q35 0 57.5 -24t19.5 -59q-2 -34 -26.5 -57t-58.5 -24q-35 -1 -57 22.5t-20 58.5zM901 1709q2 34 26 58t59 25t57 -23.5t20 -59.5q-2 -34 -26.5 -57t-59.5 -24q-34 0 -56 23t-20 58z" />
<glyph unicode="&#xdd;" horiz-adv-x="1048" d="M188 1456h127l211 -789l489 789h136l-587 -915l-94 -541h-114l97 555zM611 1554l230 280l151 -1l-269 -278z" />
<glyph unicode="&#xde;" horiz-adv-x="1037" d="M60 0l253 1456h111l-53 -303l248 -1q87 -3 150.5 -36t104 -88t57 -128t9.5 -155q-8 -93 -44 -170.5t-94.5 -133.5t-137.5 -87.5t-173 -31.5l-263 1l-57 -323h-111zM245 427l250 -2q69 1 127 25.5t101.5 67.5t71 101t35.5 126q7 57 -2 110.5t-35 95.5t-70 68t-107 29 l-263 1z" />
<glyph unicode="&#xdf;" horiz-adv-x="1029" d="M35 0l192 1127q7 50 20 101t33 98t48.5 87.5t66 70.5t85 46.5t106.5 14.5q63 -2 111 -26.5t79.5 -65t45 -94.5t8.5 -115q-5 -60 -28 -112.5t-50 -103.5t-51.5 -102.5t-32.5 -110.5q-7 -47 6.5 -88.5t37 -80t52.5 -75.5t53 -76.5t39.5 -83t11.5 -94.5q-5 -72 -33 -134.5 t-74.5 -108t-109 -71.5t-135.5 -24q-65 1 -131.5 20.5t-115.5 62.5l42 102q38 -38 90.5 -60.5t106.5 -22.5q51 -1 94.5 17t76.5 50t53.5 75t26.5 92t-8 91t-38 80.5t-53 75t-53.5 76t-38.5 83t-9 95.5q6 59 29.5 110.5t51 101.5t51.5 101t30 109q4 35 -1.5 70.5t-21.5 65 t-44 49t-68 21.5q-65 3 -109.5 -26.5t-73 -76.5t-44 -104t-22.5 -109l-191 -1128h-111z" />
<glyph unicode="&#xe0;" horiz-adv-x="945" d="M47 276q6 91 46 158t102 110.5t140.5 65t162.5 21.5l184 -1l22 152q11 100 -32.5 157.5t-147.5 59.5q-51 1 -94 -14.5t-76.5 -44t-56.5 -68.5t-33 -88l-109 1q10 71 44 130.5t84.5 101.5t115 64.5t136.5 21.5q74 -1 129.5 -24.5t91 -66t50 -101.5t7.5 -132l-91 -552 q-9 -56 -9 -108t2 -107l-2 -12h-114q-4 38 -0.5 75t9.5 75q-29 -38 -62.5 -69.5t-72.5 -54.5t-83 -35.5t-93 -11.5q-66 1 -115 23.5t-80.5 62.5t-45.5 94t-9 117zM161 285q-4 -43 3 -79t25.5 -62.5t50.5 -42t77 -16.5q50 -1 94.5 12.5t83 39t70.5 60.5t56 76l45 264l-154 1 q-62 0 -122 -13.5t-108.5 -44t-81 -78.5t-39.5 -117zM398 1525h133l142 -280h-100z" />
<glyph unicode="&#xe1;" horiz-adv-x="945" d="M47 276q6 91 46 158t102 110.5t140.5 65t162.5 21.5l184 -1l22 152q11 100 -32.5 157.5t-147.5 59.5q-51 1 -94 -14.5t-76.5 -44t-56.5 -68.5t-33 -88l-109 1q10 71 44 130.5t84.5 101.5t115 64.5t136.5 21.5q74 -1 129.5 -24.5t91 -66t50 -101.5t7.5 -132l-91 -552 q-9 -56 -9 -108t2 -107l-2 -12h-114q-4 38 -0.5 75t9.5 75q-29 -38 -62.5 -69.5t-72.5 -54.5t-83 -35.5t-93 -11.5q-66 1 -115 23.5t-80.5 62.5t-45.5 94t-9 117zM161 285q-4 -43 3 -79t25.5 -62.5t50.5 -42t77 -16.5q50 -1 94.5 12.5t83 39t70.5 60.5t56 76l45 264l-154 1 q-62 0 -122 -13.5t-108.5 -44t-81 -78.5t-39.5 -117zM530 1245l230 280l151 -1l-269 -278z" />
<glyph unicode="&#xe2;" horiz-adv-x="945" d="M47 276q6 91 46 158t102 110.5t140.5 65t162.5 21.5l184 -1l22 152q11 100 -32.5 157.5t-147.5 59.5q-51 1 -94 -14.5t-76.5 -44t-56.5 -68.5t-33 -88l-109 1q10 71 44 130.5t84.5 101.5t115 64.5t136.5 21.5q74 -1 129.5 -24.5t91 -66t50 -101.5t7.5 -132l-91 -552 q-9 -56 -9 -108t2 -107l-2 -12h-114q-4 38 -0.5 75t9.5 75q-29 -38 -62.5 -69.5t-72.5 -54.5t-83 -35.5t-93 -11.5q-66 1 -115 23.5t-80.5 62.5t-45.5 94t-9 117zM161 285q-4 -43 3 -79t25.5 -62.5t50.5 -42t77 -16.5q50 -1 94.5 12.5t83 39t70.5 60.5t56 76l45 264l-154 1 q-62 0 -122 -13.5t-108.5 -44t-81 -78.5t-39.5 -117zM377 1258l1 13l233 255h68l162 -257l-1 -12l-98 1l-100 180l-167 -179z" />
<glyph unicode="&#xe3;" horiz-adv-x="945" d="M47 276q6 91 46 158t102 110.5t140.5 65t162.5 21.5l184 -1l22 152q11 100 -32.5 157.5t-147.5 59.5q-51 1 -94 -14.5t-76.5 -44t-56.5 -68.5t-33 -88l-109 1q10 71 44 130.5t84.5 101.5t115 64.5t136.5 21.5q74 -1 129.5 -24.5t91 -66t50 -101.5t7.5 -132l-91 -552 q-9 -56 -9 -108t2 -107l-2 -12h-114q-4 38 -0.5 75t9.5 75q-29 -38 -62.5 -69.5t-72.5 -54.5t-83 -35.5t-93 -11.5q-66 1 -115 23.5t-80.5 62.5t-45.5 94t-9 117zM161 285q-4 -43 3 -79t25.5 -62.5t50.5 -42t77 -16.5q50 -1 94.5 12.5t83 39t70.5 60.5t56 76l45 264l-154 1 q-62 0 -122 -13.5t-108.5 -44t-81 -78.5t-39.5 -117zM333 1276q5 37 18 75.5t34.5 70t54 51t76.5 18.5q35 0 61.5 -18t51 -39t50.5 -38t59 -17q25 0 43 11.5t31 29t21.5 39t13.5 41.5l77 -5q-5 -38 -17.5 -76.5t-34 -70t-54 -51t-76.5 -19.5q-24 0 -43.5 8.5t-36.5 21.5 t-33 27.5t-32.5 27t-35 20.5t-40.5 8q-25 -1 -42.5 -12t-30 -27.5t-20.5 -37.5t-14 -41z" />
<glyph unicode="&#xe4;" horiz-adv-x="945" d="M47 276q6 91 46 158t102 110.5t140.5 65t162.5 21.5l184 -1l22 152q11 100 -32.5 157.5t-147.5 59.5q-51 1 -94 -14.5t-76.5 -44t-56.5 -68.5t-33 -88l-109 1q10 71 44 130.5t84.5 101.5t115 64.5t136.5 21.5q74 -1 129.5 -24.5t91 -66t50 -101.5t7.5 -132l-91 -552 q-9 -56 -9 -108t2 -107l-2 -12h-114q-4 38 -0.5 75t9.5 75q-29 -38 -62.5 -69.5t-72.5 -54.5t-83 -35.5t-93 -11.5q-66 1 -115 23.5t-80.5 62.5t-45.5 94t-9 117zM161 285q-4 -43 3 -79t25.5 -62.5t50.5 -42t77 -16.5q50 -1 94.5 12.5t83 39t70.5 60.5t56 76l45 264l-154 1 q-62 0 -122 -13.5t-108.5 -44t-81 -78.5t-39.5 -117zM342 1395q2 34 26 58t59 25q35 0 57.5 -24t19.5 -59q-2 -34 -26.5 -57t-58.5 -24q-35 -1 -57 22.5t-20 58.5zM766 1394q2 34 26 58t59 25t57 -23.5t20 -59.5q-2 -34 -26.5 -57t-59.5 -24q-34 0 -56 23t-20 58z" />
<glyph unicode="&#xe5;" horiz-adv-x="945" d="M47 276q6 91 46 158t102 110.5t140.5 65t162.5 21.5l184 -1l22 152q11 100 -32.5 157.5t-147.5 59.5q-51 1 -94 -14.5t-76.5 -44t-56.5 -68.5t-33 -88l-109 1q10 71 44 130.5t84.5 101.5t115 64.5t136.5 21.5q74 -1 129.5 -24.5t91 -66t50 -101.5t7.5 -132l-91 -552 q-9 -56 -9 -108t2 -107l-2 -12h-114q-4 38 -0.5 75t9.5 75q-29 -38 -62.5 -69.5t-72.5 -54.5t-83 -35.5t-93 -11.5q-66 1 -115 23.5t-80.5 62.5t-45.5 94t-9 117zM161 285q-4 -43 3 -79t25.5 -62.5t50.5 -42t77 -16.5q50 -1 94.5 12.5t83 39t70.5 60.5t56 76l45 264l-154 1 q-62 0 -122 -13.5t-108.5 -44t-81 -78.5t-39.5 -117zM444 1393q1 40 17 76.5t43 64.5t63.5 44t77.5 16q38 0 70.5 -15t56 -40t36.5 -59t12 -71q-1 -41 -17.5 -76.5t-43.5 -62t-63 -42t-77 -15.5q-38 0 -70.5 14t-56 38t-36.5 57t-12 71zM521 1395q-2 -22 3.5 -42t18.5 -35 t31.5 -23.5t41.5 -8.5q25 0 47 10t39 26.5t28 38.5t14 46q2 22 -3.5 43t-18 36.5t-31.5 24.5t-43 9q-25 0 -47 -10.5t-39 -27.5t-28 -39.5t-13 -47.5z" />
<glyph unicode="&#xe6;" horiz-adv-x="1459" d="M34 286q6 86 40.5 151t89 108.5t126.5 65.5t154 22l210 -1l12 89q5 45 2.5 93t-18 88.5t-48 67.5t-88.5 29q-54 1 -99 -16t-79 -48.5t-56.5 -75t-32.5 -93.5l-106 12q10 74 43 135t83.5 103.5t116 65.5t140.5 21q48 -2 89.5 -16t74 -40t54.5 -63.5t31 -84.5 q28 41 62 78.5t74 66t86.5 44.5t100.5 15q94 -2 153.5 -46t90.5 -111.5t38 -149t-2 -159.5l-15 -101h-609l-5 -27q-6 -41 -8 -88.5t3.5 -94.5t19.5 -90t40 -76.5t64.5 -54t93.5 -21.5q82 -2 150.5 31.5t130.5 84.5l32 -90q-62 -67 -145 -99t-174 -30q-50 1 -95.5 14.5 t-84 39t-67.5 62.5t-47 85q-66 -96 -162.5 -150.5t-214.5 -52.5q-67 1 -116 26t-80 66t-44.5 96.5t-8.5 118.5zM146 282q-4 -42 4 -78.5t28 -63.5t52 -42.5t77 -16.5q41 -1 80 11t75 33t67 48.5t57 57.5l52 303l-195 2q-57 -1 -108.5 -18.5t-91.5 -50t-65.5 -79.5 t-31.5 -106zM764 636h502l5 32q5 35 5.5 72.5t-5.5 74t-19 69.5t-34.5 58t-53.5 40t-76 17q-48 2 -88 -13.5t-72.5 -43.5t-58 -64.5t-45.5 -77.5t-34.5 -83.5t-25.5 -80.5z" />
<glyph unicode="&#xe7;" horiz-adv-x="911" d="M69.5 361q-0.5 60 6.5 119l16 122q13 96 44 187.5t85.5 162t134.5 112t191 38.5q82 -3 139.5 -35.5t92 -85t48 -121t9.5 -143.5h-107q3 52 -3.5 101.5t-28 89t-60 64t-98.5 27.5q-87 3 -146.5 -31.5t-98 -91.5t-59.5 -129t-31 -145l-16 -123q-5 -43 -7.5 -88.5t1.5 -89 t16.5 -82.5t36.5 -68.5t61.5 -48t92.5 -20.5q61 -2 107 16.5t80 52.5t56 81t35 102h104q-13 -75 -45 -140.5t-81 -114t-115 -75.5t-147 -25q-71 1 -123 22.5t-88.5 57.5t-58.5 84t-32.5 103t-11 115zM208 -366q30 1 60.5 8.5t55.5 22.5t42.5 38.5t21.5 57.5q4 31 -5 49 t-26.5 28.5t-41 15.5t-48.5 9l42 128h85l-21 -66q60 -14 84.5 -58t22.5 -104q-3 -57 -27.5 -96t-62.5 -63.5t-85.5 -36.5t-96.5 -14v81z" />
<glyph unicode="&#xe8;" horiz-adv-x="919" d="M73 470l15 123q12 93 44.5 185.5t88 165.5t135.5 117t188 41q100 -3 160.5 -46.5t91 -111.5t35.5 -152t-5 -167l-13 -94h-619l-10 -62q-9 -64 -5.5 -131.5t27.5 -123.5t71.5 -93t126.5 -39q81 -2 145.5 30t121.5 86l52 -76q-63 -74 -147 -109t-181 -33 q-104 2 -170.5 45.5t-103.5 112.5t-47.5 156t-0.5 176zM202 635h515l5 30q7 55 4 113t-22.5 106t-59.5 80t-107 35q-80 3 -136.5 -28.5t-96 -84t-64 -119t-38.5 -132.5zM386 1525h133l142 -280h-100z" />
<glyph unicode="&#xe9;" horiz-adv-x="919" d="M73 470l15 123q12 93 44.5 185.5t88 165.5t135.5 117t188 41q100 -3 160.5 -46.5t91 -111.5t35.5 -152t-5 -167l-13 -94h-619l-10 -62q-9 -64 -5.5 -131.5t27.5 -123.5t71.5 -93t126.5 -39q81 -2 145.5 30t121.5 86l52 -76q-63 -74 -147 -109t-181 -33 q-104 2 -170.5 45.5t-103.5 112.5t-47.5 156t-0.5 176zM202 635h515l5 30q7 55 4 113t-22.5 106t-59.5 80t-107 35q-80 3 -136.5 -28.5t-96 -84t-64 -119t-38.5 -132.5zM518 1245l230 280l151 -1l-269 -278z" />
<glyph unicode="&#xea;" horiz-adv-x="919" d="M73 470l15 123q12 93 44.5 185.5t88 165.5t135.5 117t188 41q100 -3 160.5 -46.5t91 -111.5t35.5 -152t-5 -167l-13 -94h-619l-10 -62q-9 -64 -5.5 -131.5t27.5 -123.5t71.5 -93t126.5 -39q81 -2 145.5 30t121.5 86l52 -76q-63 -74 -147 -109t-181 -33 q-104 2 -170.5 45.5t-103.5 112.5t-47.5 156t-0.5 176zM202 635h515l5 30q7 55 4 113t-22.5 106t-59.5 80t-107 35q-80 3 -136.5 -28.5t-96 -84t-64 -119t-38.5 -132.5zM365 1258l1 13l233 255h68l162 -257l-1 -12l-98 1l-100 180l-167 -179z" />
<glyph unicode="&#xeb;" horiz-adv-x="919" d="M73 470l15 123q12 93 44.5 185.5t88 165.5t135.5 117t188 41q100 -3 160.5 -46.5t91 -111.5t35.5 -152t-5 -167l-13 -94h-619l-10 -62q-9 -64 -5.5 -131.5t27.5 -123.5t71.5 -93t126.5 -39q81 -2 145.5 30t121.5 86l52 -76q-63 -74 -147 -109t-181 -33 q-104 2 -170.5 45.5t-103.5 112.5t-47.5 156t-0.5 176zM202 635h515l5 30q7 55 4 113t-22.5 106t-59.5 80t-107 35q-80 3 -136.5 -28.5t-96 -84t-64 -119t-38.5 -132.5zM330 1395q2 34 26 58t59 25q35 0 57.5 -24t19.5 -59q-2 -34 -26.5 -57t-58.5 -24q-35 -1 -57 22.5 t-20 58.5zM754 1394q2 34 26 58t59 25t57 -23.5t20 -59.5q-2 -34 -26.5 -57t-59.5 -24q-34 0 -56 23t-20 58z" />
<glyph unicode="&#xec;" horiz-adv-x="428" d="M49 0l188 1082h111l-189 -1082h-110zM116 1513h133l142 -280h-100z" />
<glyph unicode="&#xed;" horiz-adv-x="428" d="M49 0l188 1082h111l-189 -1082h-110zM247 1233l230 280l151 -1l-269 -278z" />
<glyph unicode="&#xee;" horiz-adv-x="428" d="M49 0l188 1082h111l-189 -1082h-110zM95 1246l1 13l233 255h68l162 -257l-1 -12l-98 1l-100 180l-167 -179z" />
<glyph unicode="&#xef;" horiz-adv-x="428" d="M49 0l188 1082h111l-189 -1082h-110zM60 1383q2 34 26 58t59 25q35 0 57.5 -24t19.5 -59q-2 -34 -26.5 -57t-58.5 -24q-35 -1 -57 22.5t-20 58.5zM484 1382q2 34 26 58t59 25t57 -23.5t20 -59.5q-2 -34 -26.5 -57t-59.5 -24q-34 0 -56 23t-20 58z" />
<glyph unicode="&#xf0;" horiz-adv-x="1021" d="M115 458q6 59 21 120t40 118t60 107t81 87t103 57.5t126 18.5q77 -2 140.5 -38.5t105.5 -99.5q5 107 -16 210t-74 197l-204 -138l-34 82l188 125q-51 57 -114 98t-133 71l46 105q87 -35 162 -86t135 -122l183 121l34 -83l-165 -106q40 -80 63.5 -163t32.5 -168.5 t5.5 -172.5t-15.5 -174l-13 -89q-9 -58 -25.5 -122t-42.5 -126.5t-61.5 -119.5t-82.5 -99.5t-105.5 -66.5t-129.5 -22q-94 3 -157.5 48t-100 114.5t-49 153t-4.5 163.5zM226 337q6 -65 29.5 -120.5t67.5 -93t115 -40.5q54 -2 98 19t78 57.5t59 84t43 98.5t28.5 101t16.5 92 l12 92l6 63q-25 78 -81.5 122.5t-138.5 47.5t-141.5 -34t-99.5 -95.5t-62.5 -131t-29.5 -141.5q-6 -56 0 -121z" />
<glyph unicode="&#xf1;" horiz-adv-x="966" d="M38 0l188 1082h106l-35 -172q27 40 59.5 75.5t70.5 61.5t82 41.5t95 14.5q55 -1 94.5 -19t66 -47.5t41.5 -69t22 -83t6.5 -90t-5.5 -90.5l-118 -704h-109l117 706q3 31 4.5 64.5t-1.5 65.5t-12.5 61t-27 51t-45.5 35.5t-68 14.5q-49 1 -95.5 -20.5t-85.5 -56.5t-68 -79.5 t-43 -89.5l-128 -752h-111zM329 1275q5 37 18 75.5t34.5 70t54 51t76.5 18.5q35 0 61.5 -18t51 -39t50.5 -38t59 -17q25 0 43 11.5t31 29t21.5 39t13.5 41.5l77 -5q-5 -38 -17.5 -76.5t-34 -70t-54 -51t-76.5 -19.5q-24 0 -43.5 8.5t-36.5 21.5t-33 27.5t-32.5 27t-35 20.5 t-40.5 8q-25 -1 -42.5 -12t-30 -27.5t-20.5 -37.5t-14 -41z" />
<glyph unicode="&#xf2;" horiz-adv-x="985" d="M79.5 368q-1.5 59 5.5 116l14 111q13 93 46 185.5t89 165t136.5 116.5t188.5 41q69 -2 120.5 -24.5t88 -59.5t59 -86.5t34 -105t12.5 -115t-5 -116.5l-14 -112q-9 -62 -26 -124.5t-44 -119t-64.5 -105.5t-85.5 -84t-107.5 -54.5t-131.5 -17.5q-68 2 -119.5 24.5 t-88.5 59.5t-59.5 86t-34.5 104.5t-13.5 114.5zM190.5 397.5q-0.5 -44.5 5 -88.5t19 -84t38 -71t61.5 -50.5t89 -21.5q84 -3 144 33t100.5 94.5t63 131t32.5 143.5l15 113q4 40 5 84.5t-4.5 88.5t-19.5 84.5t-38.5 72t-61 51t-88.5 21.5q-54 2 -99 -14.5t-80.5 -46 t-63 -69.5t-47 -85.5t-32 -94t-18.5 -93.5l-15 -114q-5 -40 -5.5 -84.5zM397 1525h133l142 -280h-100z" />
<glyph unicode="&#xf3;" horiz-adv-x="985" d="M79.5 368q-1.5 59 5.5 116l14 111q13 93 46 185.5t89 165t136.5 116.5t188.5 41q69 -2 120.5 -24.5t88 -59.5t59 -86.5t34 -105t12.5 -115t-5 -116.5l-14 -112q-9 -62 -26 -124.5t-44 -119t-64.5 -105.5t-85.5 -84t-107.5 -54.5t-131.5 -17.5q-68 2 -119.5 24.5 t-88.5 59.5t-59.5 86t-34.5 104.5t-13.5 114.5zM190.5 397.5q-0.5 -44.5 5 -88.5t19 -84t38 -71t61.5 -50.5t89 -21.5q84 -3 144 33t100.5 94.5t63 131t32.5 143.5l15 113q4 40 5 84.5t-4.5 88.5t-19.5 84.5t-38.5 72t-61 51t-88.5 21.5q-54 2 -99 -14.5t-80.5 -46 t-63 -69.5t-47 -85.5t-32 -94t-18.5 -93.5l-15 -114q-5 -40 -5.5 -84.5zM529 1245l230 280l151 -1l-269 -278z" />
<glyph unicode="&#xf4;" horiz-adv-x="985" d="M79.5 368q-1.5 59 5.5 116l14 111q13 93 46 185.5t89 165t136.5 116.5t188.5 41q69 -2 120.5 -24.5t88 -59.5t59 -86.5t34 -105t12.5 -115t-5 -116.5l-14 -112q-9 -62 -26 -124.5t-44 -119t-64.5 -105.5t-85.5 -84t-107.5 -54.5t-131.5 -17.5q-68 2 -119.5 24.5 t-88.5 59.5t-59.5 86t-34.5 104.5t-13.5 114.5zM190.5 397.5q-0.5 -44.5 5 -88.5t19 -84t38 -71t61.5 -50.5t89 -21.5q84 -3 144 33t100.5 94.5t63 131t32.5 143.5l15 113q4 40 5 84.5t-4.5 88.5t-19.5 84.5t-38.5 72t-61 51t-88.5 21.5q-54 2 -99 -14.5t-80.5 -46 t-63 -69.5t-47 -85.5t-32 -94t-18.5 -93.5l-15 -114q-5 -40 -5.5 -84.5zM376 1258l1 13l233 255h68l162 -257l-1 -12l-98 1l-100 180l-167 -179z" />
<glyph unicode="&#xf5;" horiz-adv-x="985" d="M79.5 368q-1.5 59 5.5 116l14 111q13 93 46 185.5t89 165t136.5 116.5t188.5 41q69 -2 120.5 -24.5t88 -59.5t59 -86.5t34 -105t12.5 -115t-5 -116.5l-14 -112q-9 -62 -26 -124.5t-44 -119t-64.5 -105.5t-85.5 -84t-107.5 -54.5t-131.5 -17.5q-68 2 -119.5 24.5 t-88.5 59.5t-59.5 86t-34.5 104.5t-13.5 114.5zM190.5 397.5q-0.5 -44.5 5 -88.5t19 -84t38 -71t61.5 -50.5t89 -21.5q84 -3 144 33t100.5 94.5t63 131t32.5 143.5l15 113q4 40 5 84.5t-4.5 88.5t-19.5 84.5t-38.5 72t-61 51t-88.5 21.5q-54 2 -99 -14.5t-80.5 -46 t-63 -69.5t-47 -85.5t-32 -94t-18.5 -93.5l-15 -114q-5 -40 -5.5 -84.5zM332 1275q5 37 18 75.5t34.5 70t54 51t76.5 18.5q35 0 61.5 -18t51 -39t50.5 -38t59 -17q25 0 43 11.5t31 29t21.5 39t13.5 41.5l77 -5q-5 -38 -17.5 -76.5t-34 -70t-54 -51t-76.5 -19.5 q-24 0 -43.5 8.5t-36.5 21.5t-33 27.5t-32.5 27t-35 20.5t-40.5 8q-25 -1 -42.5 -12t-30 -27.5t-20.5 -37.5t-14 -41z" />
<glyph unicode="&#xf6;" horiz-adv-x="985" d="M79.5 368q-1.5 59 5.5 116l14 111q13 93 46 185.5t89 165t136.5 116.5t188.5 41q69 -2 120.5 -24.5t88 -59.5t59 -86.5t34 -105t12.5 -115t-5 -116.5l-14 -112q-9 -62 -26 -124.5t-44 -119t-64.5 -105.5t-85.5 -84t-107.5 -54.5t-131.5 -17.5q-68 2 -119.5 24.5 t-88.5 59.5t-59.5 86t-34.5 104.5t-13.5 114.5zM190.5 397.5q-0.5 -44.5 5 -88.5t19 -84t38 -71t61.5 -50.5t89 -21.5q84 -3 144 33t100.5 94.5t63 131t32.5 143.5l15 113q4 40 5 84.5t-4.5 88.5t-19.5 84.5t-38.5 72t-61 51t-88.5 21.5q-54 2 -99 -14.5t-80.5 -46 t-63 -69.5t-47 -85.5t-32 -94t-18.5 -93.5l-15 -114q-5 -40 -5.5 -84.5zM341 1395q2 34 26 58t59 25q35 0 57.5 -24t19.5 -59q-2 -34 -26.5 -57t-58.5 -24q-35 -1 -57 22.5t-20 58.5zM765 1394q2 34 26 58t59 25t57 -23.5t20 -59.5q-2 -34 -26.5 -57t-59.5 -24q-34 0 -56 23 t-20 58z" />
<glyph unicode="&#xf7;" horiz-adv-x="998" d="M83 642l22 119h816l-21 -119h-817zM363 291q2 32 23 58t56 27q18 0 31.5 -7t23 -19t13.5 -27.5t3 -31.5t-7 -31t-16.5 -26.5t-25 -19t-31.5 -7.5q-18 0 -31.5 6.5t-22.5 18.5t-13.5 27t-2.5 32zM501 1088q1 16 7 31.5t16.5 27.5t24.5 19.5t31 7.5q18 0 32 -7t23 -19 t13 -28t3 -32q-2 -32 -23.5 -57t-56.5 -26t-53.5 24.5t-16.5 58.5z" />
<glyph unicode="&#xf8;" horiz-adv-x="982" d="M49 -140l124 215q-33 37 -53.5 85.5t-31 102t-11 110t5.5 111.5l14 111q13 93 46 185.5t89 165t136.5 116.5t188.5 41q54 -2 97.5 -16.5t77.5 -39.5l95 166h82l-124 -218q30 -38 48.5 -85t28 -99.5t10 -107t-5.5 -107.5l-14 -112q-9 -62 -26 -124.5t-44 -119 t-64.5 -105.5t-85.5 -84t-107.5 -54.5t-131.5 -17.5q-49 2 -88.5 13.5t-71.5 31.5l-92 -163zM189 406q-1 -40 2.5 -79.5t13.5 -77.5t28 -69l443 770q-23 21 -54.5 34t-72.5 15q-54 2 -99 -14.5t-80.5 -46t-63 -69.5t-47 -85.5t-32 -94t-18.5 -93.5l-15 -114q-4 -36 -5 -76z M287 118q22 -16 50 -25t64 -11q84 -3 144 33t100.5 94.5t63 131t32.5 143.5l15 113q4 34 5 71.5t-2 75.5t-11.5 74t-24.5 68z" />
<glyph unicode="&#xf9;" horiz-adv-x="966" d="M102 297q0 47 5 92l116 693h110l-116 -696q-5 -43 -4.5 -94.5t14 -96.5t44.5 -76.5t89 -33.5q48 -2 94 12t85 41t68.5 65.5t43.5 85.5l136 793h111l-187 -1082h-108l28 128q-54 -73 -127.5 -112t-167.5 -37q-56 1 -96 20t-67 49.5t-42.5 71t-22 85.5t-6.5 92zM391 1525 h133l142 -280h-100z" />
<glyph unicode="&#xfa;" horiz-adv-x="966" d="M102 297q0 47 5 92l116 693h110l-116 -696q-5 -43 -4.5 -94.5t14 -96.5t44.5 -76.5t89 -33.5q48 -2 94 12t85 41t68.5 65.5t43.5 85.5l136 793h111l-187 -1082h-108l28 128q-54 -73 -127.5 -112t-167.5 -37q-56 1 -96 20t-67 49.5t-42.5 71t-22 85.5t-6.5 92zM523 1245 l230 280l151 -1l-269 -278z" />
<glyph unicode="&#xfb;" horiz-adv-x="966" d="M102 297q0 47 5 92l116 693h110l-116 -696q-5 -43 -4.5 -94.5t14 -96.5t44.5 -76.5t89 -33.5q48 -2 94 12t85 41t68.5 65.5t43.5 85.5l136 793h111l-187 -1082h-108l28 128q-54 -73 -127.5 -112t-167.5 -37q-56 1 -96 20t-67 49.5t-42.5 71t-22 85.5t-6.5 92zM370 1258 l1 13l233 255h68l162 -257l-1 -12l-98 1l-100 180l-167 -179z" />
<glyph unicode="&#xfc;" horiz-adv-x="966" d="M102 297q0 47 5 92l116 693h110l-116 -696q-5 -43 -4.5 -94.5t14 -96.5t44.5 -76.5t89 -33.5q48 -2 94 12t85 41t68.5 65.5t43.5 85.5l136 793h111l-187 -1082h-108l28 128q-54 -73 -127.5 -112t-167.5 -37q-56 1 -96 20t-67 49.5t-42.5 71t-22 85.5t-6.5 92zM335 1395 q2 34 26 58t59 25q35 0 57.5 -24t19.5 -59q-2 -34 -26.5 -57t-58.5 -24q-35 -1 -57 22.5t-20 58.5zM759 1394q2 34 26 58t59 25t57 -23.5t20 -59.5q-2 -34 -26.5 -57t-59.5 -24q-34 0 -56 23t-20 58z" />
<glyph unicode="&#xfd;" horiz-adv-x="841" d="M-84 -424l12 101q12 -2 24.5 -5t25.5 -3q46 -2 81.5 14.5t62.5 44.5t47.5 64t36.5 74l66 149l-144 1067h117l104 -894l405 894h122l-585 -1256q-20 -47 -46 -94.5t-60.5 -86t-79.5 -62.5t-103 -23q-22 0 -43.5 5t-42.5 11zM475 1245l230 280l151 -1l-269 -278z" />
<glyph unicode="&#xfe;" horiz-adv-x="992" d="M-30 -416l72 416h-1l267 1536h111l-101 -580q52 68 120.5 108t158.5 38q69 -1 117.5 -24.5t79.5 -62.5t47.5 -90.5t23 -107.5t4 -114.5t-8.5 -111.5l-13 -100q-8 -59 -22 -120.5t-36 -119t-53.5 -108t-75 -87.5t-99.5 -57.5t-128 -18.5q-83 2 -150 39t-105 112l-98 -547 h-110zM196 245q26 -76 80.5 -118t135.5 -45q86 -3 144.5 34t95.5 96.5t57 133t29 144.5l13 103q4 39 7 84t0 89.5t-13.5 85.5t-33 73t-58.5 51.5t-89 20.5q-47 1 -86 -12.5t-72.5 -37t-61 -56t-49.5 -69.5l-60 -342z" />
<glyph unicode="&#xff;" horiz-adv-x="841" d="M-84 -424l12 101q12 -2 24.5 -5t25.5 -3q46 -2 81.5 14.5t62.5 44.5t47.5 64t36.5 74l66 149l-144 1067h117l104 -894l405 894h122l-585 -1256q-20 -47 -46 -94.5t-60.5 -86t-79.5 -62.5t-103 -23q-22 0 -43.5 5t-42.5 11zM287 1395q2 34 26 58t59 25q35 0 57.5 -24 t19.5 -59q-2 -34 -26.5 -57t-58.5 -24q-35 -1 -57 22.5t-20 58.5zM711 1394q2 34 26 58t59 25t57 -23.5t20 -59.5q-2 -34 -26.5 -57t-59.5 -24q-34 0 -56 23t-20 58z" />
<glyph unicode="&#x152;" horiz-adv-x="1613" d="M97 445q-1 68 7 131l48 304q11 70 32.5 142t53.5 138.5t76 125t99.5 101.5t124 67.5t149.5 24.5q66 -1 130 -7.5t128 -15.5h687l-19 -108h-625l-95 -545h549l-19 -106h-548l-103 -591h631l-19 -106h-684q-62 -8 -124 -14.5t-125 -4.5q-77 2 -135 29.5t-99.5 72.5 t-67.5 104.5t-38.5 124.5t-13.5 133zM206 474.5q-2 -53.5 4 -107t22 -103.5t45 -89t72.5 -63t105.5 -26q51 -2 101.5 1.5t101.5 10.5l218 1262q-48 8 -96 12t-97 4q-67 0 -121.5 -20.5t-98.5 -56.5t-77.5 -84.5t-57.5 -103.5t-40 -113.5t-25 -115.5l-49 -307 q-6 -47 -8 -100.5z" />
<glyph unicode="&#x153;" horiz-adv-x="1585" d="M79 400q-1 61 5 117l3 33q8 62 25.5 128t45.5 128t66.5 117t88.5 95.5t111.5 63t135.5 20.5q58 -2 107.5 -22t88.5 -54.5t65.5 -81t39.5 -101.5q29 49 65.5 97t81.5 84.5t98 58.5t116 20q94 -2 153.5 -46t91.5 -111t39.5 -148t-1.5 -159l-15 -103h-612l-5 -27 q-6 -38 -7 -83.5t4 -92t18.5 -91t38 -79t60.5 -56t87 -23.5q84 -3 153 28.5t128 88.5l39 -86q-63 -70 -147.5 -103t-178.5 -31q-57 1 -105 21.5t-86.5 54.5t-65 79.5t-39.5 98.5q-30 -53 -68.5 -100.5t-85.5 -82.5t-102.5 -55t-121.5 -18q-70 2 -122 27t-88.5 66t-59 95 t-33.5 113t-12 120zM189.5 431q-1.5 -47 3.5 -95t18.5 -93t38 -80t61.5 -57t91 -24q57 -2 103.5 17t83.5 53t65.5 79.5t49 95.5t33 101.5t18.5 97.5l4 32q5 39 6.5 86.5t-4 96t-18.5 94t-38 81.5t-62.5 58.5t-90.5 24.5q-57 2 -103.5 -17.5t-84 -54.5t-65.5 -81t-48.5 -96.5 t-33 -102.5t-18.5 -98l-4 -32q-4 -39 -5.5 -86zM892 640h503l4 30q7 51 3 108t-25 105.5t-60.5 81t-102.5 34.5q-47 2 -86 -14t-71 -43.5t-58 -64t-46 -77t-35 -82t-26 -78.5z" />
<glyph unicode="&#x178;" horiz-adv-x="1048" d="M188 1456h127l211 -789l489 789h136l-587 -915l-94 -541h-114l97 555zM423 1704q2 34 26 58t59 25q35 0 57.5 -24t19.5 -59q-2 -34 -26.5 -57t-58.5 -24q-35 -1 -57 22.5t-20 58.5zM847 1703q2 34 26 58t59 25t57 -23.5t20 -59.5q-2 -34 -26.5 -57t-59.5 -24 q-34 0 -56 23t-20 58z" />
<glyph unicode="&#x2c6;" horiz-adv-x="779" d="M266 1258l1 13l233 255h68l162 -257l-1 -12l-98 1l-100 180l-167 -179z" />
<glyph unicode="&#x2dc;" horiz-adv-x="786" d="M210 1267q5 37 18 75.5t34.5 70t54 51t76.5 18.5q35 0 61.5 -18t51 -39t50.5 -38t59 -17q25 0 43 11.5t31 29t21.5 39t13.5 41.5l77 -5q-5 -38 -17.5 -76.5t-34 -70t-54 -51t-76.5 -19.5q-24 0 -43.5 8.5t-36.5 21.5t-33 27.5t-32.5 27t-35 20.5t-40.5 8 q-25 -1 -42.5 -12t-30 -27.5t-20.5 -37.5t-14 -41z" />
<glyph unicode="&#x2000;" horiz-adv-x="954" />
<glyph unicode="&#x2001;" horiz-adv-x="1909" />
<glyph unicode="&#x2002;" horiz-adv-x="954" />
<glyph unicode="&#x2003;" horiz-adv-x="1909" />
<glyph unicode="&#x2004;" horiz-adv-x="636" />
<glyph unicode="&#x2005;" horiz-adv-x="477" />
<glyph unicode="&#x2006;" horiz-adv-x="318" />
<glyph unicode="&#x2007;" horiz-adv-x="318" />
<glyph unicode="&#x2008;" horiz-adv-x="238" />
<glyph unicode="&#x2009;" horiz-adv-x="381" />
<glyph unicode="&#x200a;" horiz-adv-x="106" />
<glyph unicode="&#x2010;" horiz-adv-x="523" d="M54 590l18 103h395l-18 -103h-395z" />
<glyph unicode="&#x2011;" horiz-adv-x="523" d="M54 590l18 103h395l-18 -103h-395z" />
<glyph unicode="&#x2012;" horiz-adv-x="523" d="M54 590l18 103h395l-18 -103h-395z" />
<glyph unicode="&#x2013;" horiz-adv-x="1137" d="M162 685l23 104h820l-23 -104h-820z" />
<glyph unicode="&#x2014;" horiz-adv-x="1339" d="M89 685l31 104h1092l-30 -104h-1093z" />
<glyph unicode="&#x2018;" horiz-adv-x="352" d="M187 1119l18 112q14 94 54 176.5t108 149.5l71 -59q-46 -60 -76.5 -124.5t-44.5 -139.5l-20 -115h-110z" />
<glyph unicode="&#x2019;" horiz-adv-x="352" d="M163 1152q45 61 76 125.5t45 139.5l21 119h109l-17 -114q-16 -96 -59 -178t-114 -148z" />
<glyph unicode="&#x201a;" horiz-adv-x="345" d="M-84 -179q45 61 76 125.5t45 139.5l21 118h110l-18 -114q-15 -95 -58.5 -176.5t-113.5 -147.5z" />
<glyph unicode="&#x201c;" horiz-adv-x="565" d="M189 1119l18 112q14 94 54 176.5t108 149.5l71 -59q-46 -60 -76.5 -124.5t-44.5 -139.5l-20 -115h-110zM403 1119l18 112q14 94 54 176.5t108 149.5l71 -59q-46 -60 -76.5 -124.5t-44.5 -139.5l-20 -115h-110z" />
<glyph unicode="&#x201d;" horiz-adv-x="570" d="M169 1152q45 61 76 125.5t45 139.5l21 119h109l-17 -114q-16 -96 -59 -178t-114 -148zM377 1152q45 61 76 125.5t45 139.5l21 119h109l-17 -114q-16 -96 -59 -178t-114 -148z" />
<glyph unicode="&#x201e;" horiz-adv-x="549" d="M-85 -188q46 63 77 130t45 144l27 151h110l-24 -147q-15 -97 -57.5 -181.5t-111.5 -153.5zM116 -188q46 63 76.5 130t44.5 144l26 151h110l-22 -147q-15 -97 -58 -181.5t-113 -153.5z" />
<glyph unicode="&#x2022;" horiz-adv-x="652" d="M166 710l3 67q3 40 18 74.5t40.5 59t60 38.5t75.5 14q40 0 72 -14t54 -38t33 -57t10 -72l-4 -65q-4 -40 -19.5 -73t-41 -57t-59.5 -37t-75 -13q-39 0 -69.5 13t-52.5 36t-33.5 54.5t-11.5 69.5z" />
<glyph unicode="&#x2026;" horiz-adv-x="1127" d="M64 73q2 35 27.5 60t60.5 26q37 1 59.5 -24.5t20.5 -61.5q-3 -35 -28.5 -58t-60.5 -24q-18 0 -33 6t-25.5 17t-16.5 26t-4 33zM401 73q2 35 27.5 60t60.5 26q37 1 59.5 -24.5t20.5 -61.5q-3 -35 -28.5 -58t-60.5 -24q-18 0 -33 6t-25.5 17t-16.5 26t-4 33zM724 73 q2 35 27.5 60t60.5 26q37 1 59.5 -24.5t20.5 -61.5q-3 -35 -28.5 -58t-60.5 -24q-18 0 -33 6t-25.5 17t-16.5 26t-4 33z" />
<glyph unicode="&#x202f;" horiz-adv-x="381" />
<glyph unicode="&#x2039;" horiz-adv-x="545" d="M98 545l2 20l303 379h101l-296 -396l153 -382h-85z" />
<glyph unicode="&#x203a;" horiz-adv-x="545" d="M16 161l295 396l-152 387h87l178 -382l-3 -21l-303 -380h-102z" />
<glyph unicode="&#x205f;" horiz-adv-x="477" />
<glyph unicode="&#x20ac;" d="M80 562l16 90h155l29 163h-156l16 92h151q19 108 57.5 211t102 183.5t155 129t215.5 47.5q51 -1 99 -10.5t96 -22.5l-24 -111q-42 17 -85.5 26.5t-89.5 10.5q-100 2 -170 -38.5t-117.5 -106t-76.5 -148.5t-47 -166l-2 -11l341 7l-17 -93h-335l-29 -163h337l-16 -90 l-334 1l-2 -17q-7 -47 -8.5 -99t5 -102.5t22.5 -96.5t45.5 -81.5t72.5 -57t104 -22.5q48 -1 94 8t91 24l-2 -110q-46 -14 -93.5 -21t-95.5 -6q-77 1 -135.5 25.5t-100 65.5t-67.5 96t-38.5 117t-13 128.5t9.5 131.5l2 17z" />
<glyph unicode="&#x2122;" horiz-adv-x="1081" d="M243 1386l8 70h321l-9 -70h-130l-79 -467h-64l78 467h-125zM546 919l91 537h79l52 -423l201 423h82l-93 -537h-63l68 398l-187 -398h-44l-50 419l-72 -419h-64z" />
<glyph unicode="&#x25fc;" horiz-adv-x="1080" d="M0 0v1080h1080v-1080h-1080z" />
<glyph unicode="&#xfb02;" horiz-adv-x="1035" d="M109 0l170 982h-144l17 100h145l19 133q9 67 31.5 130t61.5 111t95 76.5t132 27.5q29 -1 56 -6.5t55 -13.5l-20 -101q-46 13 -90 14q-50 0 -86.5 -20.5t-61.5 -54.5t-40 -76.5t-21 -85.5l-20 -134h206l-18 -100h-205l-171 -982h-111zM657 0l267 1536h111l-267 -1536h-111 z" />
<glyph unicode="&#xfb03;" horiz-adv-x="1557" d="M109 0l170 982h-144l17 100h145l19 133q9 67 31.5 130t61.5 111t95 76.5t132 27.5q29 -1 56 -6.5t55 -13.5l-20 -101q-46 13 -90 14q-50 0 -86.5 -20.5t-61.5 -54.5t-40 -76.5t-21 -85.5l-20 -134h206l-18 -100h-205l-171 -982h-111zM702 0l171 982h-146l18 100h145 l16 113q10 73 36 140t69.5 117.5t105.5 79.5t143 27q60 -2 117 -19.5t111 -42.5l-31 -104q-46 26 -94.5 40.5t-102.5 15.5q-57 0 -99.5 -20t-71.5 -54.5t-46.5 -80.5t-25.5 -98l-16 -114h202l-18 -100h-201l-170 -982h-112zM1176 0l188 1082h111l-188 -1082h-111z" />
<glyph unicode="&#xfb04;" horiz-adv-x="1642" d="M109 0l170 982h-144l17 100h145l19 133q9 67 31.5 130t61.5 111t95 76.5t132 27.5q29 -1 56 -6.5t55 -13.5l-20 -101q-46 13 -90 14q-50 0 -86.5 -20.5t-61.5 -54.5t-40 -76.5t-21 -85.5l-20 -134h206l-18 -100h-205l-171 -982h-111zM716 0l170 982h-144l17 100h145 l19 133q9 67 31.5 130t61.5 111t95 76.5t132 27.5q29 -1 56 -6.5t55 -13.5l-20 -101q-46 13 -90 14q-50 0 -86.5 -20.5t-61.5 -54.5t-40 -76.5t-21 -85.5l-20 -134h206l-18 -100h-205l-171 -982h-111zM1264 0l267 1536h111l-267 -1536h-111z" />
</font>
</defs>
</svg>
