<?xml version="1.0" standalone="no"?>
<!DOCTYPE svg PUBLIC "-//W3C//DTD SVG 1.1//EN" "http://www.w3.org/Graphics/SVG/1.1/DTD/svg11.dtd" >
<svg xmlns="http://www.w3.org/2000/svg">
<metadata></metadata>
<defs>
<font id="roboto_condensedbold_italic" horiz-adv-x="1015" >
<font-face units-per-em="2048" ascent="1536" descent="-512" />
<missing-glyph horiz-adv-x="468" />
<glyph unicode="&#xfb01;" horiz-adv-x="1094" d="M50 0l151 869h-127l37 213h119l8 44q17 97 54.5 177.5t97 137.5t140 88t184.5 30q74 -2 144 -20.5t139 -41.5l-68 -240q-51 23 -105.5 36.5t-111.5 13.5q-86 0 -134.5 -50.5t-64.5 -131.5l-8 -43h173l-38 -213h-161l-151 -869h-278zM590 0l188 1082h277l-188 -1082h-277z " />
<glyph horiz-adv-x="0" />
<glyph unicode="&#xd;" horiz-adv-x="468" />
<glyph horiz-adv-x="0" />
<glyph horiz-adv-x="0" />
<glyph horiz-adv-x="49" />
<glyph unicode="&#x9;" horiz-adv-x="49" />
<glyph unicode=" "  horiz-adv-x="468" />
<glyph unicode="&#x09;" horiz-adv-x="468" />
<glyph unicode="&#xa0;" horiz-adv-x="468" />
<glyph unicode="!" horiz-adv-x="527" d="M35 132q0 33 11 62t31 50.5t48 34.5t61 14q33 0 60 -11.5t47 -31.5t31.5 -47.5t11.5 -59.5q0 -33 -10.5 -62t-30.5 -51t-48 -34.5t-61 -13.5q-33 0 -60.5 11t-47.5 31.5t-31.5 48t-11.5 59.5zM126 448l143 1008h293l-207 -1008h-229z" />
<glyph unicode="&#x22;" horiz-adv-x="646" d="M119 985l87 551h199l-24 -151l-100 -400h-162zM436 985l87 551h199l-24 -151l-100 -400h-162z" />
<glyph unicode="#" horiz-adv-x="1035" d="M23 410l30 173h199l90 283h-180l30 174h204l132 416h175l-132 -416h124l132 416h176l-132 -416h172l-31 -174h-195l-90 -283h174l-30 -173h-198l-130 -410h-176l130 410h-124l-129 -410h-175l129 410h-175zM427 583h124l90 283h-123z" />
<glyph unicode="$" d="M64 458h277q-2 -32 -1.5 -74t10.5 -80t34.5 -64t70.5 -26q37 0 64 15.5t45.5 41t29 57.5t14.5 64q8 69 -16 122.5t-84 90.5q-69 43 -127 86t-98.5 95.5t-60.5 119t-14 156.5q6 84 35.5 154t79 123.5t117 87.5t150.5 46l39 214h149l-41 -220q78 -22 127 -70t76 -111.5 t35.5 -136.5t5.5 -144h-277q1 16 2 40t-0.5 50.5t-6 52.5t-14.5 47t-27 34t-43 14q-35 1 -59.5 -16.5t-40.5 -44.5t-24.5 -59.5t-11.5 -60.5q-8 -69 18.5 -120t85.5 -89q68 -44 125 -88t97 -97t59.5 -119.5t13.5 -155.5q-6 -85 -35 -155.5t-78 -123t-117 -85.5t-152 -45 l-38 -199h-147l38 201q-87 18 -143.5 64t-89.5 110t-44.5 141t-7.5 157z" />
<glyph unicode="%" horiz-adv-x="1279" d="M183 1099l7 76q6 61 28 116.5t59 97.5t89 66t118 23q64 -2 110.5 -27t76 -67t42 -96t8.5 -112l-6 -77q-6 -61 -28 -116t-59 -96t-89 -65t-118 -22q-63 1 -109.5 26t-76.5 66.5t-43 95t-9 111.5zM206 194l769 1126l129 -82l-770 -1126zM363 1057q1 -22 7 -42t20 -33.5 t38 -14.5q25 -1 43.5 12t31 32.5t19.5 43t10 44.5l8 78q1 18 1 40.5t-6 43t-19.5 34.5t-38.5 15q-26 1 -44.5 -12t-31 -33.5t-19.5 -44t-10 -44.5l-9 -79q-1 -18 0 -40zM598 279l7 77q6 61 27.5 116.5t59 97t89.5 65.5t118 23q64 -2 110.5 -27t76 -66.5t42.5 -95.5t9 -112 l-7 -78q-6 -61 -28 -116t-58.5 -96.5t-88.5 -65.5t-118 -22q-63 1 -110 26.5t-77 66.5t-43 94.5t-9 112.5zM779 238q1 -22 8 -42t20.5 -34.5t36.5 -15.5q28 -2 46.5 10.5t30.5 32.5t18 44t9 46l9 79q1 18 0.5 40.5t-6.5 42.5t-20 34t-38 15q-26 1 -44.5 -12t-31 -33 t-19.5 -43.5t-10 -44.5l-9 -80q-1 -17 0 -39z" />
<glyph unicode="&#x26;" horiz-adv-x="1160" d="M37 385q5 66 29 121t61 101.5t84 86.5t99 76q-15 38 -28 76.5t-23 77.5t-14 79t-1 81q6 79 34 151t76.5 126.5t116 86t152.5 29.5q68 -2 122.5 -29.5t92 -73t56 -105t14.5 -125.5q-6 -105 -59.5 -186.5t-135.5 -142.5l-97 -71l134 -252q27 54 45 108.5t26 114.5l230 1 q-11 -127 -50 -242.5t-120 -214.5l135 -259h-296l-37 74q-69 -45 -142.5 -70t-156.5 -23q-86 2 -153.5 34t-112.5 86.5t-66 127t-15 156.5zM319.5 343.5q1.5 -31.5 11.5 -59.5t30 -48t54 -21q42 -2 81.5 15t74.5 37l-161 325l-11 -8q-31 -42 -51.5 -86.5t-26.5 -96.5 q-3 -26 -1.5 -57.5zM482 1091q-5 -44 7 -86t29 -81l53 36q43 32 69.5 72t31.5 94q1 18 -1.5 38.5t-10.5 38t-23 28.5t-37 11q-29 0 -49.5 -15t-35 -37.5t-22.5 -49t-11 -49.5z" />
<glyph unicode="'" horiz-adv-x="330" d="M119 983l87 553h208l-25 -161l-89 -392h-181z" />
<glyph unicode="(" horiz-adv-x="652" d="M96 203q-5 96 0 188.5t16 172.5l3 24q13 91 35 190.5t55 199t78 195t104 179.5t132 152.5t163 113.5l42 -160q-90 -84 -153.5 -185.5t-107.5 -213t-71 -230t-44 -236.5l-4 -28q-8 -62 -17 -136t-13.5 -153t-1.5 -160t17 -156.5t42.5 -143t76.5 -118.5l-64 -153 q-76 51 -128.5 124.5t-86.5 160t-51 182t-22 191.5z" />
<glyph unicode=")" horiz-adv-x="652" d="M-88 -300q89 85 152.5 186.5t107.5 213t71.5 230t44.5 237.5l4 28q8 60 17 134t13.5 153.5t2 161t-17 157.5t-43 143t-75.5 117l61 154q77 -49 131.5 -121.5t90 -159t54 -183t25 -193t2 -189.5t-14.5 -172l-3 -25q-13 -91 -36 -191t-57.5 -200t-81.5 -196.5t-108 -180.5 t-136 -151.5t-166 -109.5z" />
<glyph unicode="*" horiz-adv-x="912" d="M94 1056l83 174l287 -128l37 354h192l-75 -350l308 120l30 -191l-327 -90l165 -269l-163 -106l-131 292l-218 -279l-148 116l250 268z" />
<glyph unicode="+" horiz-adv-x="954" d="M53 553l46 263h279l68 390h262l-68 -390h275l-46 -263h-274l-71 -407h-262l71 407h-280z" />
<glyph unicode="," horiz-adv-x="498" d="M-117 -287q24 39 48 76.5t44.5 76t36.5 79.5t25 88l37 213h240l-33 -197q-20 -125 -86.5 -231.5t-165.5 -184.5z" />
<glyph unicode="-" horiz-adv-x="732" d="M102 506l42 236h476l-42 -236h-476z" />
<glyph unicode="." horiz-adv-x="588" d="M43 138q0 35 12 64.5t33.5 51.5t51 34.5t64.5 12.5q33 0 62 -11t50.5 -31t34 -48t12.5 -61q0 -35 -12 -64.5t-34 -51t-52 -34t-64 -12.5q-33 0 -61.5 10.5t-49.5 30.5t-33.5 48t-13.5 61z" />
<glyph unicode="/" horiz-adv-x="668" d="M-131 -125l698 1581h210l-698 -1581h-210z" />
<glyph unicode="0" d="M85 469q2 70 10 133l39 254q10 70 27 143.5t44 143.5t65.5 131.5t90.5 107.5t119.5 71.5t152.5 23.5q82 -3 139.5 -32t96 -77t60 -110.5t30 -130.5t6.5 -138t-10 -133l-39 -253q-10 -69 -27.5 -143t-44.5 -144t-65 -132.5t-90.5 -108.5t-120 -72t-152.5 -23 q-82 2 -139.5 31.5t-96 77.5t-59.5 110.5t-29.5 131t-6.5 138.5zM350 362.5q1 -39.5 10.5 -72t28.5 -54t53 -23.5q39 -3 67.5 15t49 48t33.5 69t21.5 78.5t13.5 76t8 62.5l48 336q2 19 6.5 51t7 69.5t1.5 76.5t-10.5 71t-28.5 53.5t-52 23.5q-39 3 -67 -14.5t-48.5 -47.5 t-34 -68.5t-22 -77.5t-14 -75.5t-8.5 -61.5l-48 -336q-2 -19 -6.5 -51.5t-7 -70.5t-1.5 -77.5z" />
<glyph unicode="1" d="M220 1000l44 247l541 211h34l-246 -1458h-277l192 1106z" />
<glyph unicode="2" d="M-2 0l33 211l450 491q31 35 63 74.5t59.5 83t47.5 89.5t26 94q3 27 3 61t-8.5 65t-28.5 52.5t-57 22.5q-48 1 -79.5 -23.5t-51 -62t-29.5 -81t-14 -79.5l-275 -1q7 96 44 184t98.5 154t146 104.5t186.5 37.5q91 -2 160 -32.5t114.5 -84.5t65.5 -128.5t12 -162.5 t-41.5 -164.5t-82.5 -145.5t-107 -132.5t-114 -124.5l-223 -267h473l-37 -235h-834z" />
<glyph unicode="3" d="M27 400l275 -1q-1 -29 3 -61t16.5 -59t35 -45t59.5 -19q43 -2 76 16.5t56.5 48t37 67t18.5 74.5q4 36 3 72t-13 65t-37 48.5t-68 21.5l-148 1l40 228l123 -2q45 1 78 18.5t55.5 46.5t35.5 66.5t18 78.5q3 28 1.5 59t-12 57.5t-31.5 44t-56 18.5t-60.5 -13.5t-44 -38.5 t-30 -53.5t-16.5 -58.5l-276 -1q7 87 43.5 161t95 127t135.5 82.5t166 27.5q90 -2 161 -32.5t119 -84t70.5 -127.5t15.5 -164q-5 -57 -24.5 -105.5t-51 -89t-73 -73.5t-89.5 -59q43 -26 71.5 -62.5t45 -79t21.5 -89.5t1 -95q-7 -98 -47 -179.5t-105 -139.5t-151 -89 t-184 -28q-91 2 -159.5 35.5t-114 90.5t-67 132.5t-18.5 161.5z" />
<glyph unicode="4" d="M25 315l20 196l636 945h284l-157 -906h121l-41 -235h-120l-55 -315h-277l56 315h-467zM326 550h206l93 491l-10 -15z" />
<glyph unicode="5" d="M55 407h273q0 -29 4 -62t15.5 -61.5t33.5 -48t59 -20.5q51 -2 85 26.5t54.5 71.5t30 91.5t13.5 87.5q3 34 3 77t-11 80.5t-36.5 63t-72.5 25.5q-48 1 -82.5 -21t-62.5 -57l-222 60l197 736h688l-43 -242h-457l-90 -314q36 26 77 40.5t86 15.5q66 0 115.5 -20.5 t84.5 -56.5t56.5 -83.5t33 -101.5t13.5 -110.5t-3 -109.5q-9 -97 -45.5 -187.5t-97.5 -160t-145.5 -110.5t-190.5 -38q-90 3 -158.5 39t-115 94.5t-69 135t-20.5 160.5z" />
<glyph unicode="6" d="M86.5 431q-2.5 67 4.5 129l15 112q13 100 41 198t71.5 187t103 164.5t136 131t170.5 87t206 32.5h43l-24 -241l-10 1q-88 1 -156 -26.5t-120 -77t-90.5 -116t-66.5 -141.5q47 48 102.5 76.5t124.5 27.5q62 -1 108.5 -24t79 -61t52.5 -87.5t30 -103.5t11.5 -109t-2.5 -104 q-9 -95 -44.5 -187t-95.5 -164t-144 -115t-189 -41q-76 2 -133.5 28.5t-99 70t-68 101t-40 121.5t-16 131zM356 407.5q0 -33.5 4 -67.5t15.5 -61.5t31.5 -45.5t52 -19t57.5 12t45 35t33.5 50.5t23.5 59t15 60t7.5 53.5q3 29 2.5 73t-10.5 85t-33.5 70.5t-66.5 30.5 q-28 1 -51.5 -9t-43 -27t-35 -39t-27.5 -44l-13 -104q-2 -19 -4.5 -49t-2.5 -63.5z" />
<glyph unicode="7" d="M85 0l639 1221h-562l37 235h856l-27 -176l-642 -1280h-301z" />
<glyph unicode="8" d="M60 391q10 126 76 216.5t175 147.5q-64 60 -89.5 139.5t-19.5 165.5q6 90 39.5 167t89 133.5t132 87.5t169.5 29q87 -2 152 -33.5t107.5 -85.5t61.5 -126t12 -155q-8 -112 -66.5 -194t-153.5 -138q75 -63 105 -152t22 -186q-7 -95 -43 -174.5t-95 -136.5t-139.5 -88 t-177.5 -28q-89 2 -158.5 33.5t-116 86.5t-68 129.5t-14.5 161.5zM338.5 350.5q1.5 -34.5 12 -65t32 -51t59.5 -21.5q42 -1 70.5 20.5t47 53.5t28 70.5t12.5 71.5q3 27 1.5 61.5t-11 65.5t-30.5 52t-58 22q-42 1 -71 -20.5t-48.5 -54t-29.5 -71t-13 -71.5q-3 -28 -1.5 -62.5 zM473 992.5q0 -31.5 7.5 -60.5t24.5 -49.5t50 -21.5q37 0 61.5 20.5t39.5 51t22 65.5t10 63q2 23 1.5 54t-8 59t-24.5 48t-50 21q-36 0 -60.5 -20t-39.5 -50t-22.5 -64t-9.5 -62q-2 -23 -2 -54.5z" />
<glyph unicode="9" d="M140.5 849q-2.5 55 2.5 105q9 94 43.5 188t94 169.5t143 121.5t188.5 44q76 -2 132 -30.5t95.5 -74.5t63.5 -106t36 -125.5t13 -132t-6 -126.5l-13 -102q-14 -103 -42 -201.5t-71 -187t-102.5 -163t-136.5 -128.5t-172 -85t-209 -31h-23l25 244h11q85 -2 151 22t116 68.5 t86.5 107t62.5 137.5q-42 -38 -90 -65t-107 -27q-63 0 -110.5 22t-81 59t-54.5 85.5t-32 102.5t-13.5 109zM416 854.5q1 -29.5 6.5 -58.5t17.5 -52.5t31 -38t48 -14.5q25 0 46 10.5t38 27t31 36.5t26 39l16 132q2 17 4.5 46t2.5 62.5t-3.5 68.5t-14 63t-29 46.5t-48.5 19.5 q-47 1 -78 -30.5t-50 -77.5t-28.5 -95t-12.5 -82q-2 -19 -3 -46t0 -56.5z" />
<glyph unicode=":" horiz-adv-x="555" d="M45 138q0 35 12 64.5t33.5 51.5t51 34.5t64.5 12.5q33 0 62 -11t50.5 -31t34 -48t12.5 -61q0 -35 -12 -64.5t-34 -51t-52 -34t-64 -12.5q-33 0 -61.5 10.5t-49.5 30.5t-33.5 48t-13.5 61zM186 956q0 35 12 64.5t33.5 51.5t51 34.5t64.5 12.5q33 0 62 -11t50.5 -31t34 -48 t12.5 -61q0 -35 -12 -64.5t-34 -51t-52 -34t-64 -12.5q-33 0 -61.5 10.5t-49.5 30.5t-33.5 48t-13.5 61z" />
<glyph unicode=";" horiz-adv-x="516" d="M-94 -287q24 39 48 76.5t44.5 76t36.5 79.5t25 88l37 213h240l-33 -197q-20 -125 -86.5 -231.5t-165.5 -184.5zM170 956q0 35 12 64.5t33.5 51.5t51 34.5t64.5 12.5q33 0 62 -11t50.5 -31t34 -48t12.5 -61q0 -35 -12 -64.5t-34 -51t-52 -34t-64 -12.5q-33 0 -61.5 10.5 t-49.5 30.5t-33.5 48t-13.5 61z" />
<glyph unicode="&#x3c;" horiz-adv-x="898" d="M42 507l42 238l771 365l-51 -295l-476 -204l406 -199l-47 -270z" />
<glyph unicode="=" horiz-adv-x="1009" d="M77 311l42 237h742l-42 -237h-742zM152 744l42 238h742l-42 -238h-742z" />
<glyph unicode="&#x3e;" horiz-adv-x="912" d="M34 128l52 293l484 206l-414 201l47 268l654 -365l-41 -238z" />
<glyph unicode="?" horiz-adv-x="900" d="M135 1068q9 90 41.5 166t87 130.5t130 84.5t170.5 28q85 -2 150.5 -31t108.5 -80t62 -121t12 -154q-5 -67 -30 -122t-62 -103.5t-82 -92t-90 -87.5q-53 -51 -79 -109t-38 -129l-238 -1q4 58 15.5 109.5t31.5 98.5t50 90t72 84q27 26 54 54t49.5 59t39 66t21.5 74 q3 22 4 49.5t-5.5 52t-22.5 41t-47 17.5q-32 1 -55 -17t-38 -44t-24 -56.5t-13 -55.5zM190 136q0 33 11 62t30.5 50.5t47.5 34.5t61 14t60.5 -10.5t47.5 -31.5t31 -48t11 -60q0 -33 -10.5 -62t-30.5 -51t-48 -34.5t-61 -13.5q-33 0 -60 11t-47 31.5t-31.5 48t-11.5 59.5z " />
<glyph unicode="@" horiz-adv-x="1532" d="M32.5 247.5q3.5 107.5 20.5 210.5q18 109 54.5 222.5t91.5 221t127.5 201.5t163 164.5t199 110t234.5 37.5q119 -2 208 -40.5t150.5 -103t99 -150.5t54 -182t15 -198t-16.5 -199q-9 -58 -25.5 -123t-42 -128.5t-61 -120.5t-82 -100.5t-105 -68.5t-130.5 -23 q-66 2 -114 36t-68 98q-21 -26 -44 -49.5t-49.5 -42t-57 -29.5t-65.5 -10q-53 1 -89.5 24t-59.5 59.5t-34 84t-13.5 96t1 95.5t9.5 84q10 56 29 120t47 127.5t65.5 122t85.5 103t106.5 70t127.5 24.5q39 -1 72.5 -9t64 -22.5t59.5 -34t58 -42.5l-127 -582q-3 -18 -8 -45 t-3.5 -52.5t13 -44.5t40.5 -20q40 -2 71.5 19t55.5 56t42 79.5t30 89.5t20 85t12 67q12 73 18 154.5t0.5 160t-26.5 150.5t-63.5 127.5t-109.5 89t-164 35.5q-102 3 -188 -31.5t-156 -94.5t-125.5 -140.5t-96.5 -169.5t-68.5 -181.5t-42.5 -177.5q-13 -73 -20.5 -155 t-3 -163.5t25 -156t62.5 -131.5t109 -91.5t166 -35.5q75 -1 146.5 17.5t138.5 50.5l23 -159q-66 -48 -148.5 -67.5t-163.5 -18.5q-127 2 -220 41t-157 106t-101.5 156t-53.5 189.5t-12.5 208zM603.5 272q0.5 -31 7 -56t20.5 -41.5t39 -17.5q24 -1 45.5 16.5t38.5 42.5 t28.5 52t17.5 45l120 496q-11 3 -20.5 5t-20.5 2q-47 2 -83 -17t-63 -51t-46 -74t-32.5 -86.5t-22 -87.5t-13.5 -77q-2 -13 -6 -37.5t-7 -53.5t-2.5 -60z" />
<glyph unicode="A" horiz-adv-x="1196" d="M-88 0l694 1456h263l191 -1456h-297l-25 298h-387l-127 -298h-312zM456 543h262l-41 516z" />
<glyph unicode="B" horiz-adv-x="1125" d="M9 0l252 1456l422 -1q92 -2 168.5 -26.5t130.5 -72.5t80 -120q21 -57 20 -131q0 -19 -1 -40q-9 -115 -69 -194.5t-163 -127.5q46 -19 75 -52.5t44.5 -75.5t19.5 -88q3 -28 4 -55q0 -18 -2 -36q-8 -107 -47.5 -189t-104.5 -137.5t-153 -83.5q-85 -27 -186 -26h-7h-483z M338 244l168 -2q44 1 79 16t60 41.5t40.5 62.5t21.5 78q4 31 4.5 64t-9 60.5t-31 46t-60.5 21.5l-205 1zM442 847l136 -2q90 2 144 51t66 138q3 25 3 47q-1 11 -1 21q-2 32 -15 55t-38.5 37t-65.5 16l-165 1z" />
<glyph unicode="C" horiz-adv-x="1143" d="M82 452v25q0 63 8 126l38 248q18 121 61 235t115 201.5t175 139.5q97 49 225 49h15q117 -2 197 -43t130 -110.5t72 -163t22 -199.5l-289 1q2 38 2 75v24q-1 48 -15 85.5t-47.5 61.5t-94.5 26h-12q-46 1 -81 -13q-40 -16 -69.5 -44.5t-49.5 -66.5t-33.5 -80.5t-22 -88 t-13.5 -87.5l-36 -251q-4 -34 -9 -75q-4 -41 -6 -83q0 -9 -1 -17q1 -32 5 -63q6 -39 22 -70t46.5 -50.5t79.5 -21.5h16q53 0 91 17q43 20 70.5 55.5t43 84.5t24.5 105l281 2q-13 -114 -56 -208t-112.5 -161t-165.5 -103q-89 -34 -196 -34h-18q-88 2 -155 27.5t-115 69.5 t-78.5 103.5t-46 128t-17.5 143.5z" />
<glyph unicode="D" horiz-adv-x="1132" d="M9 0l252 1456l359 -1q131 -3 223.5 -54.5t148.5 -136.5q54 -84 74 -194q11 -62 12 -128q0 -50 -7 -102l-34 -226q-20 -130 -70.5 -242.5t-130.5 -195.5q-82 -83 -192 -130q-108 -46 -243 -46h-6h-386zM338 244l71 -2q88 0 148.5 28t99.5 78.5t61 118.5t33 147l33 229 q5 42 9 85q3 29 3 56q0 14 -1 27q-2 40 -11.5 75.5t-31 62.5t-56.5 43t-88 18l-102 1z" />
<glyph unicode="E" horiz-adv-x="985" d="M9 0l252 1456h811l-43 -245h-523l-60 -344h445l-42 -237h-444l-67 -386h526l-43 -244h-812z" />
<glyph unicode="F" horiz-adv-x="955" d="M9 0l252 1456h784l-43 -245h-496l-65 -373h444l-43 -244h-443l-103 -594h-287z" />
<glyph unicode="G" horiz-adv-x="1172" d="M88 449q-1 15 -1 31q0 61 8 124l37 246q12 82 35 161.5t58 149.5t82.5 129t109.5 101t139 65q70 20 154 20h15q114 -2 194 -38t130 -100t73 -152t24 -195l-279 1q0 46 -4 88.5t-20 75.5t-47 54t-85 23h-12q-72 0 -120 -32q-52 -35 -84.5 -91.5t-49.5 -125t-26 -132.5 l-35 -249q-5 -37 -8 -79q-3 -28 -3 -54q0 -15 1 -30q2 -42 10.5 -80.5t29 -68t54.5 -47.5t85 -19h6q47 0 85 13q41 15 83 38l51 268h-201l39 222h486l-92 -601q-45 -50 -102.5 -85.5t-122 -58t-132.5 -32.5q-62 -9 -121 -9h-12q-90 1 -159 26t-119.5 68t-83.5 102t-50.5 128 t-19.5 145z" />
<glyph unicode="H" horiz-adv-x="1229" d="M9 0l252 1456h287l-102 -589h419l103 589h286l-253 -1456h-286l108 623h-419l-108 -623h-287z" />
<glyph unicode="I" horiz-adv-x="547" d="M21 0l253 1456h287l-253 -1456h-287z" />
<glyph unicode="J" horiz-adv-x="984" d="M11 431l290 -1q-3 -35 -3 -68t8 -62q8 -32 28 -54t60 -23h4q39 0 67 21q29 23 47.5 57t28 73.5t14.5 72.5l171 1009h287l-172 -1008q-13 -95 -50 -180.5t-97 -150.5t-142 -103q-78 -35 -175 -35h-10q-100 2 -169.5 38.5t-112.5 98t-61 142.5q-14 63 -14 134q0 19 1 39z " />
<glyph unicode="K" horiz-adv-x="1109" d="M9 0l252 1456h287l-108 -619l116 154l336 465h367l-527 -653l266 -803h-327l-159 558l-146 -154l-70 -404h-287z" />
<glyph unicode="L" horiz-adv-x="961" d="M9 0l252 1456h287l-210 -1212h501l-43 -244h-787z" />
<glyph unicode="M" horiz-adv-x="1516" d="M9 0l252 1456h370l85 -1047l447 1047h378l-253 -1456h-288l70 403l126 575l-446 -978h-195l-110 1011l-83 -627l-66 -384h-287z" />
<glyph unicode="N" horiz-adv-x="1226" d="M9 0l252 1456h281l255 -966l168 966h286l-253 -1456h-280l-254 965l-168 -965h-287z" />
<glyph unicode="O" horiz-adv-x="1209" d="M84 445q-1 19 0 39q0 56 7 113l37 242q12 82 36 161.5t60 151t85 132t112 104.5q63 42 141 66q71 22 156 22h14q88 -2 156 -28.5t117.5 -72t81.5 -106.5t48.5 -131t18.5 -146q0 -15 1 -31q0 -61 -8 -122l-36 -241q-12 -81 -36 -159.5t-60 -147.5t-85 -127t-112 -100 q-62 -42 -138 -64q-70 -21 -153 -20h-15q-87 2 -154.5 27t-118 68t-83.5 101t-50.5 126t-21.5 143zM370 440q2 -40 10 -78.5t26.5 -68t49.5 -48.5t79 -21h12q69 0 117 32q52 34 84.5 89.5t49.5 122.5t26 129l35 246q4 34 8 75q4 36 4 74q-1 6 -1 10q0 42 -7 82.5t-25 72.5 t-49 52t-79 22h-12q-46 0 -82 -14q-41 -16 -72 -45.5t-52.5 -69t-37 -83.5t-25 -90t-15.5 -88l-35 -245q-3 -34 -7 -74q-2 -28 -3 -57q1 -13 1 -25z" />
<glyph unicode="P" horiz-adv-x="1140" d="M9 0l252 1456l467 -1q101 -3 177.5 -41t127 -101.5t72.5 -148.5q16 -62 16 -131q0 -25 -2 -51q-10 -108 -52.5 -195.5t-111.5 -149t-160.5 -94t-199.5 -32.5l-210 1l-89 -512h-287zM427 757l185 -2q49 1 87.5 18.5t65.5 48t43.5 71t22.5 87.5q3 28 3 59v15 q-1 39 -13 72.5t-37.5 56.5t-68.5 26l-209 2z" />
<glyph unicode="Q" horiz-adv-x="1209" d="M84 463v30q0 61 8 122l34 224q12 82 35.5 161.5t60 151t85.5 132t112 104t141 66.5q71 22 156 22h14q89 -2 157 -28.5t117.5 -72t81.5 -106.5t48.5 -131t19.5 -146v-31q0 -61 -8 -122l-34 -223q-12 -79 -32.5 -154t-54 -142.5t-81.5 -127t-115 -106.5l163 -187l-197 -159 l-215 244q-18 -2 -36.5 -3t-36.5 0q-88 1 -156 28t-117.5 72t-81 105.5t-48.5 130.5t-20 146zM368 454q1 -42 8.5 -82.5t26 -72.5t49.5 -52.5t80 -22.5h15q43 0 78 14q41 17 71.5 46.5t52.5 69.5t37 84t24.5 90t15.5 87l33 228q4 34 8 75q4 36 4 74q0 5 -1 10 q0 42 -7.5 82.5t-25.5 72.5t-49.5 52t-79.5 22h-12q-46 0 -82 -14q-40 -16 -71 -45.5t-53 -69t-37.5 -83.5t-25 -90t-15.5 -88l-32 -227q-4 -34 -8 -76q-4 -36 -4 -74v-10z" />
<glyph unicode="R" horiz-adv-x="1110" d="M10 0l252 1456l440 -1q98 -3 173.5 -34t126.5 -87q50 -56 72 -134q17 -58 18 -126q0 -24 -3 -50q-12 -141 -77.5 -248t-194.5 -168l146 -592v-16h-308l-120 532h-146l-92 -532h-287zM431 777l151 -2q49 1 87 19t65 48.5t43.5 71t22.5 86.5q5 32 5 64q-1 3 -1 7 q0 36 -11.5 66t-35.5 50t-67 23l-183 1z" />
<glyph unicode="S" horiz-adv-x="1083" d="M46 460l288 -1q-1 -18 -1 -35q0 -28 3 -56q5 -44 23.5 -77t52.5 -52.5t90 -19.5q78 1 122.5 48t53.5 122q2 17 2 33q0 26 -6 46q-10 34 -31.5 59.5t-53 45.5t-70.5 38q-72 34 -136 76t-111 96q-46 55 -72 123q-21 55 -21 123q0 16 1 32q6 98 49 175.5t111 131.5t154 82 q82 26 168 26h12q98 -2 173.5 -37.5t125.5 -96.5q51 -60 75 -142q22 -73 22 -155q0 -10 -1 -20l-286 1q1 12 1 25q0 25 -3 49q-4 36 -18 66t-41.5 48.5t-72.5 19.5q-39 0 -71 -13t-56 -37t-39.5 -56t-19.5 -69q-1 -10 -1 -19q0 -26 10 -50q14 -30 39.5 -55t57.5 -44t63 -33 q77 -36 141 -79.5t108.5 -99t66.5 -125.5q17 -54 17 -121q0 -21 -1 -42q-7 -99 -47.5 -176.5t-105 -130t-149.5 -80.5q-79 -26 -168 -25h-13q-105 2 -187.5 39t-139.5 101q-56 63 -84 151q-24 77 -24 165v25z" />
<glyph unicode="T" horiz-adv-x="1089" d="M154 1211l43 245h981l-43 -245h-349l-210 -1211h-288l210 1211h-344z" />
<glyph unicode="U" horiz-adv-x="1145" d="M80 456l170 1000h288l-168 -1001q-5 -41 -4 -79v-8q0 -42 13.5 -73t43 -50t82.5 -21h12q48 0 83 14q39 16 65 48t40 75t21 94l169 1001h287l-170 -1000q-15 -111 -57 -200t-109 -152q-66 -62 -158 -94q-86 -31 -194 -31h-13q-108 2 -188.5 37t-132.5 98q-52 62 -72 149 q-13 55 -12 117q0 37 4 76z" />
<glyph unicode="V" horiz-adv-x="1158" d="M157 1456h311l71 -1053l402 1053h327l-635 -1456h-299z" />
<glyph unicode="W" horiz-adv-x="1498" d="M178 1456h282l-11 -908l307 908h242l22 -911l276 911h288l-478 -1456h-288l-30 854l-296 -854h-289z" />
<glyph unicode="X" horiz-adv-x="1122" d="M-68 0l462 746l-216 710h317l112 -498l267 498h339l-452 -735l221 -721h-322l-113 507l-272 -507h-343z" />
<glyph unicode="Y" horiz-adv-x="1088" d="M169 1456h302l99 -651l325 651h323l-548 -942l-89 -514h-291l95 543z" />
<glyph unicode="Z" horiz-adv-x="1063" d="M-19 0l30 189l729 1022h-576l39 245h913l-29 -185l-726 -1027h576l-39 -244h-917z" />
<glyph unicode="[" horiz-adv-x="534" d="M-41 -339l318 2034h379l-35 -224h-102l-248 -1587h102l-35 -223h-379z" />
<glyph unicode="\" horiz-adv-x="768" d="M162 1456h273l221 -1581h-273z" />
<glyph unicode="]" horiz-adv-x="534" d="M-115 -339l36 223h102l248 1587h-103l36 224h379l-318 -2034h-380z" />
<glyph unicode="^" horiz-adv-x="786" d="M64 729l371 727h199l117 -727h-207l-48 452l-206 -452h-226z" />
<glyph unicode="_" horiz-adv-x="804" d="M-124 -228l40 228h754l-40 -228h-754z" />
<glyph unicode="`" horiz-adv-x="668" d="M205 1536h293l144 -310h-217z" />
<glyph unicode="a" horiz-adv-x="945" d="M19 295q5 97 45 166.5t103.5 114t144.5 65.5t170 21h88l13 88q2 21 2.5 44.5t-5.5 42.5t-21 32t-43 13q-29 1 -49 -9.5t-34 -27.5t-22.5 -40t-12.5 -47l-275 -2q5 82 41.5 147.5t93.5 110.5q56 44 130 67q70 22 146 22h7q81 -2 143 -28t104 -73q41 -46 59 -112 q12 -45 13 -98q0 -23 -3 -48l-77 -481q-5 -29 -9.5 -60t-6 -62.5t1.5 -62.5t13 -60l-1 -18h-271q-5 21 -6.5 41.5t-1.5 42.5q-42 -48 -93 -76.5t-117 -28.5q-66 1 -117.5 27t-86.5 69.5t-52 100.5q-14 48 -14 101v18zM300 274q0 -20 7.5 -36t21 -26.5t36.5 -11.5h4 q39 0 71 18q34 18 61 46l49 229h-60q-39 -2 -71.5 -15.5t-56.5 -37.5t-39.5 -56t-20.5 -71q-2 -15 -1 -31q-1 -4 -1 -8z" />
<glyph unicode="b" horiz-adv-x="994" d="M-5 0l267 1536h276l-105 -543q41 51 93 81q50 30 116 29h4q70 -1 119 -25t80.5 -64t48.5 -92q16 -52 22 -110q4 -43 4 -88v-29q-2 -59 -7 -112l-8 -71q-7 -60 -20 -123.5t-33.5 -124t-51 -113.5t-74 -92t-100.5 -61q-50 -19 -113 -19h-18q-70 3 -122 36.5t-86 93.5 l-35 -109h-257zM322 289q16 -38 43.5 -56t69.5 -20h11q34 1 59 11q29 12 49.5 34.5t33.5 52t21 63t12 67.5t8 65l7 73q2 22 6 51.5t6 61.5q1 12 0 23q0 20 -2 39q-2 31 -12.5 55.5t-31.5 39.5t-55 16h-7q-42 1 -73 -21q-33 -24 -59 -59z" />
<glyph unicode="c" horiz-adv-x="924" d="M52 310q-5 45 -6 92q0 49 6 99l9 78q9 69 27 135t46.5 125t67.5 108.5t90 84.5q51 36 115 54q58 17 127 16h15q92 -3 156 -38t103.5 -93.5t55.5 -134.5q13 -60 12 -126v-33l-260 1q1 29 0.5 61.5t-9.5 61t-29.5 47.5t-58.5 21h-10q-33 0 -57 -11q-28 -13 -46.5 -35.5 t-30.5 -53t-19.5 -63t-11.5 -66t-7 -61.5l-7 -79q-2 -22 -6.5 -51.5t-6.5 -61t0 -62.5t12 -55.5t30.5 -40t55.5 -16.5q36 -1 61 12.5t41 36.5t25 52.5t14 59.5l259 1q-8 -84 -40.5 -157.5t-86.5 -127t-128 -83.5q-69 -28 -150 -28h-11q-113 3 -185.5 48t-112 118t-49.5 165z " />
<glyph unicode="d" horiz-adv-x="995" d="M41 387q1 58 7 110l8 72q7 60 20.5 123.5t35 123.5t53.5 113.5t76 93t101 61.5q52 20 119 19h12q62 -2 110 -31t83 -80l102 544h278l-266 -1536h-248l15 110q-22 -28 -46.5 -52t-52.5 -42t-60.5 -28t-69.5 -10q-69 1 -117 25t-80 64.5t-49.5 93.5t-24.5 111q-6 50 -6 101 v14zM316 390q0 -10 -1 -20q0 -20 2 -42q3 -32 13.5 -56.5t30.5 -40.5t54 -16h4q43 0 73 21q32 22 59 54l87 497q-17 35 -41.5 56t-65.5 23h-11q-51 0 -84 -26q-36 -28 -57 -72.5t-30.5 -97t-14.5 -96.5l-8 -73q-2 -21 -5 -50t-5 -61z" />
<glyph unicode="e" horiz-adv-x="961" d="M57 479l11 89q13 104 47.5 201.5t94.5 172.5t148 119q82 41 189 41h15q112 -3 181.5 -50t105.5 -122t44 -168q3 -37 3 -75q0 -56 -7 -112l-19 -129h-540q-4 -31 -3 -60v-24q2 -40 16 -72t44 -52.5t81 -21.5h10q64 0 120 24q60 26 112 71l93 -172q-31 -42 -73.5 -72.5 t-90.5 -50t-100 -28.5q-47 -8 -93 -8h-10q-109 1 -186 42t-123.5 109t-63.5 158q-10 55 -10 113q0 38 4 77zM349 644l275 -1l5 29q5 31 6 65v7q1 30 -7 56q-8 29 -30.5 48t-62.5 21h-8q-43 0 -71 -19q-32 -21 -52.5 -54t-33 -74t-21.5 -78z" />
<glyph unicode="f" horiz-adv-x="661" d="M58 0l151 869h-127l37 213l127 1l12 92q10 82 40 153t79 123t117 81q67 28 151 28h6q34 0 66.5 -6t65.5 -14l-23 -228q-17 5 -33.5 8t-33.5 3q-34 0 -60.5 -11t-46 -31.5t-31.5 -47.5t-18 -58l-14 -93h164l-37 -213h-164l-151 -869h-277z" />
<glyph unicode="g" horiz-adv-x="1009" d="M-13 -297l113 194q40 -45 93.5 -70.5t113.5 -27.5h12q42 0 75 12q37 14 63.5 40t43.5 63t26 83l20 90q-44 -49 -95 -78.5t-119 -29.5q-69 1 -118 25t-81.5 64t-51.5 92.5t-27 109.5q-8 54 -8 109q0 3 1 7q0 58 5 111l8 71q7 61 21 125t36.5 124t55.5 113t78 92t104 60 q53 20 120 20h12q68 -2 121.5 -30t88.5 -88l34 99l252 -1l-184 -1082q-14 -102 -53.5 -182.5t-103 -135.5t-149.5 -84q-77 -25 -169 -25h-20q-43 1 -87 10t-85 25t-78.5 40t-67.5 55zM321 388.5q0 -31.5 4 -62t16 -55t33.5 -39.5t55.5 -16h5q39 0 70 16q33 17 62 46l93 520 q-19 33 -45.5 50t-64.5 19h-11q-52 0 -87 -25q-39 -28 -62.5 -72.5t-35.5 -97t-17 -98.5l-8 -73q-2 -22 -5 -51.5t-3 -61z" />
<glyph unicode="h" horiz-adv-x="988" d="M-12 0l267 1536h276l-106 -550q45 52 101 85q54 32 122 32h4q57 -1 98.5 -20t69.5 -50.5t45 -73.5t24.5 -88.5t7 -95t-4.5 -94.5l-114 -681h-277l113 684q3 27 4.5 58.5t-5 58.5t-25.5 45.5t-56 18.5h-4q-40 1 -68 -19q-30 -20 -56 -51l-139 -795h-277z" />
<glyph unicode="i" horiz-adv-x="511" d="M8 0l188 1082h277l-188 -1082h-277zM232 1357q0 33 10.5 61t30.5 49t48 33.5t61 12.5h5q29 0 54 -10q27 -11 47 -30.5t31.5 -46.5t11.5 -59q0 -33 -10.5 -61.5t-30.5 -49.5t-48 -33.5t-61 -12.5h-5q-28 0 -54 10q-28 11 -47.5 30.5t-31 47t-11.5 59.5z" />
<glyph unicode="j" horiz-adv-x="498" d="M-218 -423l21 234q18 -5 36.5 -9t37.5 -4q31 0 53 12.5t36.5 33t22.5 46t13 52.5l195 1140h277l-194 -1139q-10 -78 -35.5 -148t-70 -122.5t-108.5 -83t-151 -30.5q-34 1 -67 5.5t-66 12.5zM227 1357q0 33 11 61t31 49t47.5 33t60.5 13h5q29 0 54 -10q27 -11 47 -30.5 t31.5 -46.5t11.5 -59q0 -33 -10.5 -61.5t-30.5 -49.5t-48 -33.5t-61 -12.5h-5q-29 0 -55 10q-27 11 -46.5 30.5t-31 47t-11.5 59.5z" />
<glyph unicode="k" horiz-adv-x="961" d="M-5 0l267 1536h276l-153 -833l44 54l245 325h345l-394 -459l220 -623h-303l-118 413l-97 -92l-56 -321h-276z" />
<glyph unicode="l" horiz-adv-x="511" d="M8 0l266 1536h278l-267 -1536h-277z" />
<glyph unicode="m" horiz-adv-x="1483" d="M-4 0l188 1082l256 1l-18 -102q51 57 114 90q59 31 132 31h9q74 -2 126.5 -39t75.5 -107q27 33 56.5 60t63 46.5t71.5 30.5q35 10 76 10h7q56 -1 96 -20t67 -50.5t42 -72.5q16 -40 22 -86q6 -42 7 -87q-1 -3 -1 -7q0 -48 -4 -92l-114 -688h-277l115 690q3 25 5 56 t-4 57.5t-23 44.5t-53 18q-23 0 -42 -8.5t-35 -22t-29 -31t-24 -35.5l-6 -48l-125 -721h-276l114 688q3 25 5.5 56t-3 58t-22.5 45.5t-53 18.5q-42 0 -71.5 -23.5t-54.5 -55.5l-137 -787h-276z" />
<glyph unicode="n" horiz-adv-x="988" d="M-12 0l188 1082l258 1l-20 -109q25 29 52.5 53t59.5 41q30 18 66 27q32 8 67 8h8q56 -1 95.5 -20t66.5 -50.5t42 -73t21 -87.5q6 -42 7 -86q-1 -2 -1 -6q0 -48 -5 -92l-115 -688h-277l114 690q3 28 4.5 59t-5.5 57t-26 43t-56 17q-43 0 -73 -23.5t-56 -55.5l-137 -787 h-278z" />
<glyph unicode="o" horiz-adv-x="998" d="M53 505l8 70q12 103 48.5 199t98.5 170q60 74 148 118q82 41 188 40h15q74 -2 130.5 -23.5t98 -59t68.5 -87.5t42 -108q15 -56 18 -120q1 -19 1 -39q0 -45 -5 -89l-8 -71q-12 -103 -48.5 -199t-98 -169.5t-148.5 -116.5q-81 -40 -187 -40h-15q-111 3 -183.5 49t-114 120 t-53.5 167q-7 52 -7 104q0 42 4 85zM325 391.5q0 -31.5 4.5 -62.5t16 -56t32 -41.5t53.5 -18.5h10q50 1 83 27q36 30 57.5 74.5t32 96.5t15.5 94l7 72q2 21 4.5 51t2.5 61.5t-5 63t-17 57t-33 41.5t-54 18h-10q-48 1 -80 -27q-36 -30 -57.5 -76t-32.5 -98t-15 -92l-7 -73 q-2 -21 -4.5 -50.5t-2.5 -61z" />
<glyph unicode="p" horiz-adv-x="994" d="M-77 -416l260 1498l252 1l-15 -100q44 54 98 87q52 33 123 33h4q70 -1 119 -25.5t80.5 -65t48.5 -93.5t23 -111q4 -44 4 -88v-30q-2 -59 -7 -112l-8 -70q-7 -59 -20.5 -121.5t-35 -122t-53 -112.5t-75 -92t-99.5 -61q-50 -19 -112 -19h-17q-63 2 -113 29.5t-85 79.5 l-96 -505h-276zM320 283q17 -35 44.5 -51t67.5 -18h10q33 0 58 12q29 13 50 36t35 54t22.5 64.5t13.5 67.5t8 64l7 72q2 21 5.5 50t4.5 60v9q0 26 -3 53q-3 30 -13.5 54.5t-31 39.5t-53.5 16h-4q-42 0 -73 -20t-58 -53z" />
<glyph unicode="q" horiz-adv-x="997" d="M42 389q1 58 7 110l8 72q7 60 20 123.5t34.5 123t52.5 112.5t74.5 92t101.5 60q52 20 119 20h12q70 -2 122.5 -35.5t85.5 -94.5l43 110h245l-260 -1498h-278l98 501q-42 -48 -93 -77q-49 -29 -113 -29h-4q-69 1 -117 25.5t-79.5 65t-49 93.5t-23.5 111q-6 49 -6 100v15z M318 388v-17q0 -23 2 -45q2 -30 12.5 -55t30.5 -40.5t53 -16.5h4q41 0 70 18q32 18 59 49l91 518q-32 66 -106 69h-11q-51 0 -85 -26q-37 -30 -58.5 -75t-31 -98t-14.5 -98l-7 -72q-2 -21 -5 -50t-4 -61z" />
<glyph unicode="r" horiz-adv-x="669" d="M-6 0l188 1082l259 1l-22 -119q17 27 36.5 52.5t43.5 45t53 31.5t64 12q22 0 43 -4.5t42 -10.5l-38 -280l-44 6t-44 4h-4q-58 0 -100 -27q-43 -28 -75 -78l-125 -715h-277z" />
<glyph unicode="s" horiz-adv-x="912" d="M6 336l263 -1q-1 -31 3 -58t16.5 -46.5t34.5 -30.5t58 -11q52 1 88.5 28t45.5 80q4 29 -10.5 51t-38 39.5t-51 30t-47.5 22.5q-53 26 -100 56t-82 68t-54 88q-16 43 -16 98v17q4 79 38.5 142t89.5 107q54 44 124 66q67 22 140 21h6q78 -2 142 -25.5t110 -67.5t71 -106 q24 -60 24 -136v-6h-276q1 24 -1 47.5t-11 42t-26.5 29.5t-47.5 11q-48 0 -81.5 -32.5t-41.5 -78.5q-5 -28 9.5 -49t38 -37t50 -28t45.5 -21q57 -26 106.5 -56t84.5 -70q36 -38 55 -90q16 -43 16 -98q0 -11 -1 -23q-5 -83 -42 -145.5t-95 -103.5q-57 -42 -131 -62 q-67 -18 -136 -18h-14q-78 2 -143.5 28.5t-113 73t-73.5 110.5q-26 62 -26 138v6z" />
<glyph unicode="t" horiz-adv-x="620" d="M69 869l37 213h121l47 266h276l-46 -266h140l-37 -213h-140l-91 -539q-3 -20 -4 -38.5t3.5 -33.5t16.5 -24.5t36 -10.5q17 -1 34 1l34 4l-25 -222q-35 -14 -71 -19.5t-73 -5.5q-70 1 -116.5 28t-73.5 70.5t-36 100.5q-5 34 -5 71q0 24 2 49l93 569h-122z" />
<glyph unicode="u" horiz-adv-x="988" d="M58 243q-3 33 -3 65q0 37 4 74l117 700h276l-117 -704q-2 -22 -3.5 -49.5t4 -52t21 -42t45.5 -18.5h7q44 0 78 22q36 24 65 61l136 783h279l-188 -1082h-257l18 99q-47 -57 -105 -89q-56 -32 -129 -31h-4q-83 1 -134 39t-77.5 96t-32.5 129z" />
<glyph unicode="v" horiz-adv-x="902" d="M102 1082h283l26 -677l238 677h294l-457 -1082h-263z" />
<glyph unicode="w" horiz-adv-x="1267" d="M119 1082h260l-13 -601l243 601h197l34 -605l199 605h270l-405 -1082h-229l-39 622l-256 -622h-231z" />
<glyph unicode="x" horiz-adv-x="909" d="M-69 0l343 566l-152 516h283l66 -319l172 319h303l-330 -542l159 -540h-283l-75 337l-181 -337h-305z" />
<glyph unicode="y" horiz-adv-x="897" d="M-51 -419l24 221q8 -1 15 -1.5t15 -0.5h4q63 0 102 28q40 29 67 88l39 88l-112 1078h289l19 -606l245 606h302l-558 -1245q-23 -55 -52.5 -105t-69.5 -88.5t-91 -61t-116 -22.5q-32 0 -62 6.5t-60 14.5z" />
<glyph unicode="z" horiz-adv-x="909" d="M-17 0l30 188l501 658h-389l37 236h727l-28 -183l-507 -664h409l-37 -235h-743z" />
<glyph unicode="{" horiz-adv-x="602" d="M45 512l23 208q43 3 73.5 21.5t50.5 47.5t31 65t17 75l28 203q11 86 38 159.5t71.5 132.5t108 103t147.5 72l38 -164q-42 -22 -69 -56t-44.5 -74.5t-27 -85t-15.5 -87.5l-27 -203q-14 -106 -64 -184t-143 -131q34 -29 56 -64t34 -74.5t15 -81.5t-1 -85l-27 -204 q-5 -37 -10 -80t-2 -84.5t18.5 -78t51.5 -60.5l-61 -161q-75 30 -126 77.5t-80 108t-37.5 131.5t-0.5 148l28 204q4 34 5 68t-7.5 62t-30 47.5t-61.5 24.5z" />
<glyph unicode="|" horiz-adv-x="513" d="M31 -270l270 1726h173l-270 -1726h-173z" />
<glyph unicode="}" horiz-adv-x="602" d="M-73 -197q42 22 69 56t44.5 74.5t27 85t15.5 87.5l27 203q14 107 64.5 184.5t146.5 129.5q-36 28 -59 63t-35.5 74.5t-15.5 82.5t2 86l27 204q5 37 10 80t2 84.5t-19 78t-52 60.5l65 160q75 -30 125 -77.5t78.5 -108.5t36.5 -131.5t0 -146.5l-28 -204q-4 -34 -5 -68.5 t8 -63t30 -48t62 -24.5l-23 -208q-44 -3 -74 -21t-50 -46.5t-31.5 -64.5t-17.5 -75l-28 -203q-11 -86 -37.5 -159t-70.5 -132.5t-106.5 -104.5t-146.5 -74z" />
<glyph unicode="~" horiz-adv-x="1117" d="M73 415q5 67 25 141t58 135.5t96 100.5t140 37q34 -1 65.5 -12t58.5 -29t50.5 -41.5t43.5 -50.5q9 -13 19.5 -28t22.5 -27.5t27 -20.5t34 -8q31 0 53 19.5t36 47.5t22 59.5t12 54.5l197 2q-4 -45 -13.5 -94t-26.5 -96t-42.5 -89.5t-59.5 -74.5t-78 -50t-99 -17 q-35 1 -66 12t-58 29t-50 42t-43 51q-10 13 -20.5 27.5t-22.5 26.5t-27 20.5t-34 8.5q-32 0 -53 -19t-34.5 -46.5t-20.5 -58.5t-11 -55z" />
<glyph unicode="&#xa1;" horiz-adv-x="548" d="M-45 -369l207 1007h229l-142 -1007h-294zM181 941q0 33 10.5 62t30.5 51t48 35t62 13q33 1 60 -10.5t47 -31.5t31.5 -48t11.5 -60q0 -33 -11 -62t-31 -50.5t-48 -34.5t-61 -13q-33 -1 -60 10.5t-47 31.5t-31.5 47.5t-11.5 59.5z" />
<glyph unicode="&#xa2;" horiz-adv-x="1022" d="M75.5 336q-6.5 81 3.5 165l9 78q12 95 42 184t80.5 160t123.5 118t171 58l38 219h187l-41 -236q60 -21 102.5 -61t68 -93.5t36 -117.5t7.5 -133l-260 1q1 29 0.5 61.5t-9.5 61t-29.5 47.5t-58.5 21q-39 2 -66.5 -11t-46.5 -35.5t-31 -53t-19.5 -63t-11.5 -66t-7 -61.5 l-7 -79q-2 -22 -6.5 -51.5t-6.5 -61t0 -62.5t12 -55.5t30.5 -40t55.5 -16.5q36 -1 61 12.5t41 36.5t25 52.5t14 59.5l259 1q-7 -75 -34 -141.5t-71 -118.5t-104.5 -86t-133.5 -45l-40 -229h-187l42 241q-78 22 -128 72.5t-77 118.5t-33.5 149z" />
<glyph unicode="&#xa3;" horiz-adv-x="1052" d="M-2 0l37 243l70 -2q26 12 42.5 32t26 44.5t15 51.5t9.5 53l22 153h-124l41 237h118l30 227q10 89 44 169.5t90 141t133 95t173 31.5q92 -2 158 -36.5t107 -91.5t59 -132t14 -160l-274 1q1 25 0 55.5t-9 57.5t-27 45.5t-53 18.5q-35 0 -58.5 -20.5t-38.5 -50.5t-23 -63.5 t-11 -59.5l-26 -228h243l-42 -237h-234l-17 -136q-8 -59 -31 -107t-64 -91l523 3l-42 -244h-881z" />
<glyph unicode="&#xa4;" horiz-adv-x="1384" d="M-4 130l154 127q-27 85 -37.5 170.5t0.5 174.5q13 107 56 200.5t115 173.5l-115 155l150 133l110 -143q80 53 168.5 83.5t185.5 28.5q89 -1 171 -30t150 -86l169 148l122 -157l-170 -141q29 -86 41 -173.5t1 -178.5q-25 -202 -157 -359l112 -149l-152 -134l-102 132 q-82 -58 -174 -92.5t-195 -32.5q-92 2 -177 33t-154 93l-152 -132zM294 599q-11 -78 4.5 -154.5t55.5 -137t103.5 -98.5t149.5 -41q93 -3 175.5 34t146 100t105 145t53.5 170q10 78 -5 153.5t-55 135.5t-103.5 98t-148.5 41q-93 3 -175.5 -33.5t-146.5 -98.5t-105.5 -144 t-53.5 -170z" />
<glyph unicode="&#xa5;" horiz-adv-x="1078" d="M75 277l31 175h255l21 114h-257l31 176h204l-176 714h303l96 -548l285 548h325l-423 -714h166l-31 -176h-236l-21 -114h238l-31 -175h-236l-49 -277h-287l49 277h-257z" />
<glyph unicode="&#xa6;" horiz-adv-x="511" d="M-28 -270l138 795h256l-138 -795h-256zM139 698l132 758h256l-132 -758h-256z" />
<glyph unicode="&#xa7;" horiz-adv-x="1107" d="M-22 -33l275 -1q-2 -40 5 -73t24 -56.5t46.5 -37t72.5 -13.5q34 0 65.5 9t56.5 27t41.5 45t22.5 63q6 40 -9.5 69t-42.5 50t-61 36t-64 27q-73 30 -136 65.5t-108 83.5t-68.5 112.5t-16.5 151.5q8 96 55 164.5t126 118.5q-45 62 -60 132.5t-9 145.5q8 96 50.5 169.5 t108.5 123t149.5 74.5t174.5 23q97 -2 171 -33.5t122.5 -87.5t71.5 -134t19 -173l-275 1q1 34 -3.5 68t-18.5 61t-40 44t-67 18q-36 0 -67.5 -10t-56.5 -29.5t-41 -48t-22 -64.5q-6 -42 7 -71.5t38.5 -50t59 -35t67.5 -27.5q75 -29 139 -64t109.5 -83.5t69 -113.5t16.5 -153 q-8 -96 -54.5 -164t-127.5 -117q45 -62 59.5 -132.5t8.5 -145.5q-8 -97 -49.5 -169.5t-106.5 -120.5t-148.5 -71.5t-174.5 -21.5q-98 2 -174.5 30.5t-129 82t-78.5 130.5t-22 176zM364 556q-7 -43 3 -74t31.5 -53.5t53.5 -39.5t68 -32q23 -10 47.5 -18.5t47.5 -18.5 q32 30 52 63.5t28 77.5q7 41 -5 72t-35.5 54.5t-56 41t-65.5 31.5q-24 10 -48.5 18.5t-47.5 18.5q-31 -30 -48 -64t-25 -77z" />
<glyph unicode="&#xa8;" horiz-adv-x="940" d="M209 1361q0 28 11 52t29.5 42t43 28t51.5 11q27 0 51 -9t43 -25.5t30.5 -39.5t11.5 -51t-10.5 -52t-29 -41.5t-43 -27.5t-51.5 -11q-27 0 -51.5 8.5t-43.5 25t-30.5 39.5t-11.5 51zM684 1361q0 28 10.5 52t29 41.5t43 27.5t51.5 11q27 0 51.5 -9t43 -25.5t30 -39.5 t11.5 -50q0 -28 -10.5 -52t-29 -41.5t-43 -27.5t-51.5 -11q-27 0 -51.5 8.5t-43.5 25t-30 39.5t-11 51z" />
<glyph unicode="&#xa9;" horiz-adv-x="1568" d="M103 722q11 99 45 194t87 179.5t124 155t155 121.5t180 78.5t200 25.5q99 -1 184 -31t153.5 -81t120 -121t83.5 -152t44 -172.5t2 -183.5q-11 -99 -44.5 -194t-86.5 -179.5t-124 -155t-155 -121.5t-180 -79t-200 -26q-100 2 -185 31.5t-153.5 81t-120 121.5t-83.5 152 t-44 172.5t-2 183.5zM220 571q7 -75 30.5 -143t63.5 -126.5t94.5 -102t123.5 -69t152 -26.5q131 -3 246.5 49t205.5 140.5t148.5 203.5t75.5 239q10 76 3 150.5t-30.5 142.5t-63 126t-94 101t-124 68t-151.5 27q-87 2 -168 -21t-152.5 -65.5t-132 -101.5t-106.5 -129.5 t-76.5 -149.5t-41.5 -162q-10 -76 -3 -151zM433 669l12 119q9 78 38 149t77 124.5t115 84.5t152 30q73 -2 130 -24t95.5 -63t57.5 -99t17 -130l-152 1q2 40 -4.5 73.5t-23.5 57t-46.5 36.5t-73.5 14q-54 1 -94 -21t-67.5 -57.5t-44 -81.5t-22.5 -93l-14 -121 q-4 -41 -1 -84.5t18.5 -80t45.5 -60.5t81 -26q45 -2 79.5 10t58.5 35t39 57t22 76l151 1q-6 -75 -32.5 -134.5t-71.5 -100t-107 -61t-138 -18.5q-81 2 -139.5 35t-95.5 86.5t-52.5 122.5t-9.5 143z" />
<glyph unicode="&#xaa;" horiz-adv-x="791" d="M182 911q2 66 28 111.5t68 74t96.5 41.5t113.5 13l78 -1l12 54q3 16 4.5 37.5t-2.5 40.5t-16 32t-36 14q-48 1 -73 -28t-35 -71l-165 14q4 55 26.5 99t58.5 74.5t83 46t102 14.5q60 -1 102.5 -24t69 -60.5t37 -87.5t6.5 -105l-48 -314q-8 -47 -9.5 -91.5t4.5 -91.5 l-157 -1q-1 17 -1.5 33t0.5 33q-33 -35 -72 -56t-89 -21q-48 0 -83.5 17.5t-59 48t-34.5 70.5t-9 84zM347 915q-5 -35 9 -57.5t52 -24.5q16 0 32.5 5t31.5 13t29 18t27 20l34 146l-66 -1q-27 -2 -52.5 -9.5t-45.5 -22.5t-33.5 -36.5t-17.5 -50.5z" />
<glyph unicode="&#xab;" horiz-adv-x="902" d="M56 513l1 19l288 391h185l-265 -414l114 -385h-157zM387 513l1 19l288 391h185l-265 -414l114 -385h-157z" />
<glyph unicode="&#xac;" horiz-adv-x="973" d="M127 634l31 171h689l-75 -431h-188l45 260h-502z" />
<glyph unicode="&#xad;" horiz-adv-x="732" d="M102 506l42 236h476l-42 -236h-476z" />
<glyph unicode="&#xae;" horiz-adv-x="1568" d="M103 722q11 99 45 194t87 179.5t124 155t155 121.5t180 78.5t200 25.5q99 -1 184 -31t153.5 -81t120 -121t83.5 -152t44 -172.5t2 -183.5q-11 -99 -44.5 -194t-86.5 -179.5t-124 -155t-155 -121.5t-180 -79t-200 -26q-100 2 -185 31.5t-153.5 81t-120 121.5t-83.5 152 t-44 172.5t-2 183.5zM220 571q7 -75 30.5 -143t63.5 -126.5t94.5 -102t123.5 -68.5t152 -27q87 -2 168 21.5t152.5 66t132 102t106.5 130.5t76 150t41 162q15 114 -8.5 223t-82.5 195.5t-152 140t-217 56.5q-87 2 -168 -21t-152.5 -65.5t-132 -101.5t-106.5 -129.5 t-76.5 -149.5t-41.5 -162q-10 -76 -3 -151zM441 316l133 850l259 -1q59 -2 112.5 -17t93 -46t62 -78.5t18.5 -113.5q-2 -34 -13 -61t-29 -49.5t-42 -41t-51 -34.5q25 -18 40.5 -42t23 -51.5t9 -57t-1.5 -58.5l-6 -56q-4 -34 -3 -64t4 -62l-1 -18h-148q-6 37 -4 73t6 73l7 55 q6 63 -15.5 97t-87.5 38l-165 2l-53 -337h-148zM662 787l119 -1q30 1 62 7.5t59.5 20.5t47.5 37.5t26 57.5q7 37 -1.5 61t-28 37.5t-47 18.5t-59.5 6l-139 1z" />
<glyph unicode="&#xaf;" horiz-adv-x="920" d="M255 1290l27 167h614l-27 -167h-614z" />
<glyph unicode="&#xb0;" horiz-adv-x="782" d="M227 1191q1 57 24.5 109t62 92t90 63t109.5 22q54 -1 98.5 -24t76 -60t48 -85t15.5 -99q-2 -57 -24 -108.5t-60 -90.5t-88.5 -62t-108.5 -22q-54 1 -99 23t-77.5 58.5t-50.5 84t-16 99.5zM370 1193q-3 -23 3 -44.5t19 -37.5t32.5 -25.5t43.5 -9.5q27 0 51 11t42.5 29 t31 41.5t15.5 49.5q3 23 -1.5 44.5t-16.5 39t-31 28t-43 10.5q-27 0 -52 -11.5t-45 -30.5t-33 -43.5t-16 -50.5z" />
<glyph unicode="&#xb1;" horiz-adv-x="950" d="M15 0l42 238h710l-42 -238h-710zM110 702l39 243h254l54 342h241l-53 -342h252l-38 -243h-252l-57 -363h-241l57 363h-256z" />
<glyph unicode="&#xb2;" horiz-adv-x="676" d="M84 667l26 149l265 248q15 16 32.5 34.5t32.5 39.5t26.5 44t15.5 46q2 12 2 25.5t-3.5 25t-12 19.5t-24.5 8q-21 0 -36 -11.5t-24.5 -28.5t-15.5 -37t-9 -36l-194 -1q4 57 25 107.5t56 88t83.5 59.5t108.5 22q56 0 101.5 -16.5t78 -47.5t49 -76t13.5 -102q-3 -55 -24 -98 t-52.5 -79t-69.5 -68t-75 -65l-83 -85h256l-29 -165h-519z" />
<glyph unicode="&#xb3;" horiz-adv-x="676" d="M105 904l190 -1q1 -16 4 -31t10.5 -26t20 -18t32.5 -7q40 0 65.5 28t31.5 65q6 38 -8 60.5t-52 24.5h-82l12 138h71q41 3 65.5 28.5t31.5 65.5q5 27 -5.5 48.5t-41.5 21.5q-30 0 -47 -17.5t-28 -41.5l-198 -1q5 54 26.5 96.5t56 71.5t80.5 44.5t100 14.5q50 -1 96 -14.5 t81 -41t55 -68.5t18 -96q-3 -68 -42 -111t-97 -72q53 -23 75 -69t20 -101q-2 -60 -28 -105.5t-68 -76t-95 -45t-108 -13.5q-56 1 -101 19.5t-76.5 51t-48 77.5t-16.5 101z" />
<glyph unicode="&#xb4;" horiz-adv-x="670" d="M188 1226l239 310h326l-319 -310h-246z" />
<glyph unicode="&#xb5;" horiz-adv-x="1101" d="M-49 -416l260 1498h275l-101 -622q-2 -18 -5.5 -43t-4.5 -52t1.5 -53.5t11.5 -47.5t26.5 -34t46.5 -14q51 -1 88 23t67 63l135 780h278l-188 -1082h-248l7 51q-37 -32 -78 -52.5t-92 -20.5q-34 0 -63.5 9.5t-57.5 26.5l-83 -430h-275z" />
<glyph unicode="&#xb6;" horiz-adv-x="875" d="M145 980q9 98 44.5 184.5t94.5 151.5t141.5 103t186.5 38l282 -1l-253 -1456h-207l98 522h-54q-96 2 -163 41.5t-107 103.5t-55.5 145.5t-7.5 167.5z" />
<glyph unicode="&#xb7;" horiz-adv-x="576" d="M144 690q0 33 10.5 62.5t31 52t48.5 35.5t62 13q33 1 60.5 -10.5t47.5 -32t31.5 -48.5t11.5 -60q0 -33 -11 -62.5t-31 -51.5t-48 -35t-62 -13q-33 -1 -60.5 10.5t-47.5 31.5t-31.5 48t-11.5 60z" />
<glyph unicode="&#xb8;" horiz-adv-x="506" d="M-41 -464l12 168q77 12 89 90q3 23 -4 36t-20.5 20t-31.5 9.5t-36 4.5l41 142l206 1l-18 -61q27 -8 45.5 -24.5t29.5 -38.5t15 -47.5t4 -52.5q-2 -70 -31.5 -116.5t-76.5 -75t-105.5 -41t-118.5 -14.5z" />
<glyph unicode="&#xb9;" horiz-adv-x="675" d="M228 1170l30 168l326 116h23l-129 -786h-193l94 542z" />
<glyph unicode="&#xba;" horiz-adv-x="816" d="M190 1044l7 76q7 67 31 132t65 115.5t99.5 81t133.5 28.5q72 -2 122.5 -34t80.5 -82.5t41.5 -113.5t6.5 -126l-7 -77q-7 -67 -31 -131.5t-65 -115t-99 -80.5t-133 -28q-72 2 -122.5 34t-80.5 82t-42 113t-7 126zM352 979.5q0 -35.5 9 -67t29.5 -54.5t58.5 -24 q40 -1 68.5 19.5t46.5 52.5t28 69t14 69l7 78q2 27 2 62.5t-8.5 67t-29 54t-57.5 24.5q-41 1 -69 -19.5t-46.5 -52t-28.5 -68.5t-14 -69l-8 -79q-2 -27 -2 -62.5z" />
<glyph unicode="&#xbb;" horiz-adv-x="903" d="M-8 124l266 413l-115 386h159l166 -388l-2 -20l-287 -391h-187zM330 124l266 413l-115 386h159l166 -388l-2 -20l-287 -391h-187z" />
<glyph unicode="&#xbc;" horiz-adv-x="1247" d="M192 1166l30 168l326 116h23l-129 -786h-193l94 542zM201 202l769 1126l129 -82l-770 -1126zM559 159l12 148l354 478l1 7l194 -3l-77 -463l64 1l-21 -168l-65 1l-31 -160h-193l28 159h-266zM762 327h91l44 201l-10 -13z" />
<glyph unicode="&#xbd;" horiz-adv-x="1326" d="M167 202l769 1126l129 -82l-770 -1126zM180 1172l30 168l326 116h23l-129 -786h-193l94 542zM613 0l26 149l265 248q15 16 32.5 34.5t32.5 39.5t26.5 44t15.5 46q2 12 2 25.5t-3.5 25t-12 19.5t-24.5 8q-21 0 -36 -11.5t-24.5 -28.5t-15.5 -37t-9 -36l-194 -1 q4 57 25 107.5t56 88t83.5 59.5t108.5 22q56 0 101.5 -16.5t78 -47.5t49 -76t13.5 -102q-3 -55 -24 -98t-52.5 -79t-69.5 -68t-75 -65l-83 -85h256l-29 -165h-519z" />
<glyph unicode="&#xbe;" horiz-adv-x="1410" d="M143 905l190 -1q1 -16 4 -31t10.5 -26t20 -18t32.5 -7q40 0 65.5 28t31.5 65q6 38 -8 60.5t-52 24.5h-82l12 138h71q41 3 65.5 28.5t31.5 65.5q5 27 -5.5 48.5t-41.5 21.5q-30 0 -47 -17.5t-28 -41.5l-198 -1q5 54 26.5 96.5t56 71.5t80.5 44.5t100 14.5q50 -1 96 -14.5 t81 -41t55 -68.5t18 -96q-3 -68 -42 -111t-97 -72q53 -23 75 -69t20 -101q-2 -60 -28 -105.5t-68 -76t-95 -45t-108 -13.5q-56 1 -101 19.5t-76.5 51t-48 77.5t-16.5 101zM333 202l769 1126l129 -82l-770 -1126zM692 159l12 148l354 478l1 7l194 -3l-77 -463l64 1l-21 -168 l-65 1l-31 -160h-193l28 159h-266zM895 327h91l44 201l-10 -13z" />
<glyph unicode="&#xbf;" horiz-adv-x="898" d="M-31 -1q6 67 31 123.5t62 106t82 94t90 88.5q51 51 76 106t36 125l236 2q-5 -58 -15.5 -109t-30 -97.5t-49 -89t-70.5 -84.5q-28 -29 -55.5 -58.5t-50 -62t-38.5 -68.5t-21 -77q-3 -21 -3 -46.5t6 -48t21 -38t44 -16.5q34 -1 58 16t40 43t25 56.5t14 57.5l276 1 q-8 -91 -41 -167t-88 -130.5t-131.5 -84t-170.5 -27.5q-86 2 -151 30.5t-108 79.5t-62 121t-12 154zM380 942q0 33 11 62.5t31 51t47.5 34.5t61.5 13q33 1 60 -10.5t47 -31.5t31.5 -48t11.5 -60q0 -33 -11 -62t-30.5 -50.5t-47.5 -34.5t-61 -13q-33 -1 -60.5 10.5 t-47.5 31.5t-31.5 47.5t-11.5 59.5z" />
<glyph unicode="&#xc0;" horiz-adv-x="1196" d="M-88 0l694 1456h263l191 -1456h-297l-25 298h-387l-127 -298h-312zM455 1846h293l144 -310h-217zM456 543h262l-41 516z" />
<glyph unicode="&#xc1;" horiz-adv-x="1196" d="M-88 0l694 1456h263l191 -1456h-297l-25 298h-387l-127 -298h-312zM456 543h262l-41 516zM616 1536l239 310h326l-319 -310h-246z" />
<glyph unicode="&#xc2;" horiz-adv-x="1196" d="M-88 0l694 1456h263l191 -1456h-297l-25 298h-387l-127 -298h-312zM433 1552v20l289 274l155 1l224 -278v-18l-210 3l-95 143l-147 -142zM456 543h262l-41 516z" />
<glyph unicode="&#xc3;" horiz-adv-x="1196" d="M-88 0l694 1456h263l191 -1456h-297l-25 298h-387l-127 -298h-312zM449 1565q3 43 16.5 91.5t39 88.5t64 66t91.5 25q31 -1 58 -15.5t52.5 -31.5t52 -30.5t57.5 -11.5q19 1 32.5 10.5t22.5 23t15 30t11 32.5l151 -11q-3 -44 -16 -91.5t-38 -87.5t-63 -65.5t-92 -24.5 q-32 0 -58.5 15t-52 32t-51.5 30.5t-56 11.5q-19 -1 -32.5 -10.5t-22.5 -23t-14.5 -30t-9.5 -32.5zM456 543h262l-41 516z" />
<glyph unicode="&#xc4;" horiz-adv-x="1196" d="M-88 0l694 1456h263l191 -1456h-297l-25 298h-387l-127 -298h-312zM406 1671q0 28 11 52t29.5 42t43 28t51.5 11q27 0 51 -9t43 -25.5t30.5 -39.5t11.5 -51t-10.5 -52t-29 -41.5t-43 -27.5t-51.5 -11q-27 0 -51.5 8.5t-43.5 25t-30.5 39.5t-11.5 51zM456 543h262l-41 516 zM881 1671q0 28 10.5 52t29 41.5t43 27.5t51.5 11q27 0 51.5 -9t43 -25.5t30 -39.5t11.5 -50q0 -28 -10.5 -52t-29 -41.5t-43 -27.5t-51.5 -11q-27 0 -51.5 8.5t-43.5 25t-30 39.5t-11 51z" />
<glyph unicode="&#xc5;" horiz-adv-x="1196" d="M-88 0l694 1456h263l191 -1456h-297l-25 298h-387l-127 -298h-312zM456 543h262l-41 516zM576 1723q0 46 18.5 85t50 67.5t72 44.5t85.5 16q42 0 79.5 -15t66 -41.5t45 -63t16.5 -79.5q0 -46 -19 -84.5t-50 -66.5t-72 -43t-85 -15q-41 0 -78.5 14.5t-66 40t-45.5 61.5 t-17 79zM689 1724q-5 -41 17 -71t65 -30q24 0 45 9t38 24.5t28 36t14 43.5q3 21 -1.5 39.5t-15 32.5t-27 22.5t-38.5 8.5q-24 0 -45 -9.5t-38 -25t-28 -36.5t-14 -44z" />
<glyph unicode="&#xc6;" horiz-adv-x="1634" d="M-96 0l876 1456h873l-42 -238h-470l-49 -352h393l-42 -238h-384l-55 -390h489l-42 -238h-756l47 333h-317l-186 -333h-335zM563 582h214l69 505z" />
<glyph unicode="&#xc7;" horiz-adv-x="1143" d="M82 452q-2 75 8 151l38 248q18 121 61 235t115 201.5t175 139.5t240 49q117 -2 197 -43t130 -110.5t72 -163t22 -199.5l-289 1q3 51 2 99t-15 85.5t-47.5 61.5t-94.5 26q-53 2 -93 -13.5t-69.5 -44t-49.5 -66.5t-33.5 -80.5t-22 -88t-13.5 -87.5l-36 -251q-4 -34 -9 -75 t-6.5 -82.5t4 -80.5t22 -70t47 -50.5t79.5 -21.5q64 -3 107 17t70.5 55.5t43 84.5t24.5 105l281 2q-13 -114 -56 -208t-112.5 -161t-165.5 -103.5t-214 -33.5q-88 2 -155 27.5t-115 69.5t-78.5 103.5t-46 128t-17.5 143.5zM319 -465l12 168q77 12 89 90q3 23 -4 36t-20.5 20 t-31.5 9.5t-36 4.5l41 142l206 1l-18 -61q27 -8 45.5 -24.5t29.5 -38.5t15 -47.5t4 -52.5q-2 -70 -31.5 -116.5t-76.5 -75t-105.5 -41t-118.5 -14.5z" />
<glyph unicode="&#xc8;" horiz-adv-x="985" d="M9 0l252 1456h811l-43 -245h-523l-60 -344h445l-42 -237h-444l-67 -386h526l-43 -244h-812zM400 1849h293l144 -310h-217z" />
<glyph unicode="&#xc9;" horiz-adv-x="985" d="M9 0l252 1456h811l-43 -245h-523l-60 -344h445l-42 -237h-444l-67 -386h526l-43 -244h-812zM561 1539l239 310h326l-319 -310h-246z" />
<glyph unicode="&#xca;" horiz-adv-x="985" d="M9 0l252 1456h811l-43 -245h-523l-60 -344h445l-42 -237h-444l-67 -386h526l-43 -244h-812zM378 1555v20l289 274l155 1l224 -278v-18l-210 3l-95 143l-147 -142z" />
<glyph unicode="&#xcb;" horiz-adv-x="985" d="M9 0l252 1456h811l-43 -245h-523l-60 -344h445l-42 -237h-444l-67 -386h526l-43 -244h-812zM351 1674q0 28 11 52t29.5 42t43 28t51.5 11q27 0 51 -9t43 -25.5t30.5 -39.5t11.5 -51t-10.5 -52t-29 -41.5t-43 -27.5t-51.5 -11q-27 0 -51.5 8.5t-43.5 25t-30.5 39.5 t-11.5 51zM826 1674q0 28 10.5 52t29 41.5t43 27.5t51.5 11q27 0 51.5 -9t43 -25.5t30 -39.5t11.5 -50q0 -28 -10.5 -52t-29 -41.5t-43 -27.5t-51.5 -11q-27 0 -51.5 8.5t-43.5 25t-30 39.5t-11 51z" />
<glyph unicode="&#xcc;" horiz-adv-x="547" d="M21 0l253 1456h287l-253 -1456h-287zM128 1849h293l144 -310h-217z" />
<glyph unicode="&#xcd;" horiz-adv-x="547" d="M21 0l253 1456h287l-253 -1456h-287zM288 1539l239 310h326l-319 -310h-246z" />
<glyph unicode="&#xce;" horiz-adv-x="547" d="M21 0l253 1456h287l-253 -1456h-287zM106 1555v20l289 274l155 1l224 -278v-18l-210 3l-95 143l-147 -142z" />
<glyph unicode="&#xcf;" horiz-adv-x="547" d="M21 0l253 1456h287l-253 -1456h-287zM79 1674q0 28 11 52t29.5 42t43 28t51.5 11q27 0 51 -9t43 -25.5t30.5 -39.5t11.5 -51t-10.5 -52t-29 -41.5t-43 -27.5t-51.5 -11q-27 0 -51.5 8.5t-43.5 25t-30.5 39.5t-11.5 51zM554 1674q0 28 10.5 52t29 41.5t43 27.5t51.5 11 q27 0 51.5 -9t43 -25.5t30 -39.5t11.5 -50q0 -28 -10.5 -52t-29 -41.5t-43 -27.5t-51.5 -11q-27 0 -51.5 8.5t-43.5 25t-30 39.5t-11 51z" />
<glyph unicode="&#xd0;" horiz-adv-x="1162" d="M28 641l33 183h120l110 632l359 -1q131 -3 223.5 -54.5t148 -136t75 -194.5t4.5 -230l-34 -226q-20 -130 -70.5 -242.5t-131 -195.5t-191 -130t-249.5 -46h-386l111 641h-122zM368 244l71 -2q88 0 148.5 28t99.5 78.5t61 118.5t33 147l33 229q5 42 9 85t2 83t-11.5 75.5 t-31 62.5t-56.5 43t-88 18l-102 1l-67 -387h182l-32 -183h-182z" />
<glyph unicode="&#xd1;" horiz-adv-x="1226" d="M9 0l252 1456h281l255 -966l168 966h286l-253 -1456h-280l-254 965l-168 -965h-287zM465 1565q3 43 16.5 91.5t39 88.5t64 66t91.5 25q31 -1 58 -15.5t52.5 -31.5t52 -30.5t57.5 -11.5q19 1 32.5 10.5t22.5 23t15 30t11 32.5l151 -11q-3 -44 -16 -91.5t-38 -87.5 t-63 -65.5t-92 -24.5q-32 0 -58.5 15t-52 32t-51.5 30.5t-56 11.5q-19 -1 -32.5 -10.5t-22.5 -23t-14.5 -30t-9.5 -32.5z" />
<glyph unicode="&#xd2;" horiz-adv-x="1209" d="M84.5 445q-3.5 75 6.5 152l37 242q12 82 36 161.5t60 151t85 132t112 104t140.5 67t170.5 21.5q88 -2 156 -28.5t117.5 -72t81.5 -106.5t48.5 -131t19 -146.5t-7.5 -152.5l-36 -241q-12 -81 -36 -159.5t-60 -147.5t-85 -127t-111.5 -99.5t-139 -64t-167.5 -20.5 q-87 2 -154.5 27t-118 68t-83.5 101t-50.5 126t-21 143zM369.5 440.5q1.5 -40.5 10 -79t27 -68t49.5 -48.5t79 -21q77 -3 128.5 31.5t84.5 90t50 122.5t26 129l35 246q4 34 8 75t3.5 83.5t-7.5 83t-25 72.5t-49 52t-79 22q-53 2 -94 -14t-72 -45.5t-52.5 -69t-37 -83.5 t-25 -90t-15.5 -88l-35 -245q-4 -34 -7.5 -74.5t-2 -81zM459 1846h293l144 -310h-217z" />
<glyph unicode="&#xd3;" horiz-adv-x="1209" d="M84.5 445q-3.5 75 6.5 152l37 242q12 82 36 161.5t60 151t85 132t112 104t140.5 67t170.5 21.5q88 -2 156 -28.5t117.5 -72t81.5 -106.5t48.5 -131t19 -146.5t-7.5 -152.5l-36 -241q-12 -81 -36 -159.5t-60 -147.5t-85 -127t-111.5 -99.5t-139 -64t-167.5 -20.5 q-87 2 -154.5 27t-118 68t-83.5 101t-50.5 126t-21 143zM369.5 440.5q1.5 -40.5 10 -79t27 -68t49.5 -48.5t79 -21q77 -3 128.5 31.5t84.5 90t50 122.5t26 129l35 246q4 34 8 75t3.5 83.5t-7.5 83t-25 72.5t-49 52t-79 22q-53 2 -94 -14t-72 -45.5t-52.5 -69t-37 -83.5 t-25 -90t-15.5 -88l-35 -245q-4 -34 -7.5 -74.5t-2 -81zM620 1536l239 310h326l-319 -310h-246z" />
<glyph unicode="&#xd4;" horiz-adv-x="1209" d="M84.5 445q-3.5 75 6.5 152l37 242q12 82 36 161.5t60 151t85 132t112 104t140.5 67t170.5 21.5q88 -2 156 -28.5t117.5 -72t81.5 -106.5t48.5 -131t19 -146.5t-7.5 -152.5l-36 -241q-12 -81 -36 -159.5t-60 -147.5t-85 -127t-111.5 -99.5t-139 -64t-167.5 -20.5 q-87 2 -154.5 27t-118 68t-83.5 101t-50.5 126t-21 143zM369.5 440.5q1.5 -40.5 10 -79t27 -68t49.5 -48.5t79 -21q77 -3 128.5 31.5t84.5 90t50 122.5t26 129l35 246q4 34 8 75t3.5 83.5t-7.5 83t-25 72.5t-49 52t-79 22q-53 2 -94 -14t-72 -45.5t-52.5 -69t-37 -83.5 t-25 -90t-15.5 -88l-35 -245q-4 -34 -7.5 -74.5t-2 -81zM437 1552v20l289 274l155 1l224 -278v-18l-210 3l-95 143l-147 -142z" />
<glyph unicode="&#xd5;" horiz-adv-x="1209" d="M84.5 445q-3.5 75 6.5 152l37 242q12 82 36 161.5t60 151t85 132t112 104t140.5 67t170.5 21.5q88 -2 156 -28.5t117.5 -72t81.5 -106.5t48.5 -131t19 -146.5t-7.5 -152.5l-36 -241q-12 -81 -36 -159.5t-60 -147.5t-85 -127t-111.5 -99.5t-139 -64t-167.5 -20.5 q-87 2 -154.5 27t-118 68t-83.5 101t-50.5 126t-21 143zM369.5 440.5q1.5 -40.5 10 -79t27 -68t49.5 -48.5t79 -21q77 -3 128.5 31.5t84.5 90t50 122.5t26 129l35 246q4 34 8 75t3.5 83.5t-7.5 83t-25 72.5t-49 52t-79 22q-53 2 -94 -14t-72 -45.5t-52.5 -69t-37 -83.5 t-25 -90t-15.5 -88l-35 -245q-4 -34 -7.5 -74.5t-2 -81zM453 1565q3 43 16.5 91.5t39 88.5t64 66t91.5 25q31 -1 58 -15.5t52.5 -31.5t52 -30.5t57.5 -11.5q19 1 32.5 10.5t22.5 23t15 30t11 32.5l151 -11q-3 -44 -16 -91.5t-38 -87.5t-63 -65.5t-92 -24.5q-32 0 -58.5 15 t-52 32t-51.5 30.5t-56 11.5q-19 -1 -32.5 -10.5t-22.5 -23t-14.5 -30t-9.5 -32.5z" />
<glyph unicode="&#xd6;" horiz-adv-x="1209" d="M84.5 445q-3.5 75 6.5 152l37 242q12 82 36 161.5t60 151t85 132t112 104t140.5 67t170.5 21.5q88 -2 156 -28.5t117.5 -72t81.5 -106.5t48.5 -131t19 -146.5t-7.5 -152.5l-36 -241q-12 -81 -36 -159.5t-60 -147.5t-85 -127t-111.5 -99.5t-139 -64t-167.5 -20.5 q-87 2 -154.5 27t-118 68t-83.5 101t-50.5 126t-21 143zM369.5 440.5q1.5 -40.5 10 -79t27 -68t49.5 -48.5t79 -21q77 -3 128.5 31.5t84.5 90t50 122.5t26 129l35 246q4 34 8 75t3.5 83.5t-7.5 83t-25 72.5t-49 52t-79 22q-53 2 -94 -14t-72 -45.5t-52.5 -69t-37 -83.5 t-25 -90t-15.5 -88l-35 -245q-4 -34 -7.5 -74.5t-2 -81zM410 1671q0 28 11 52t29.5 42t43 28t51.5 11q27 0 51 -9t43 -25.5t30.5 -39.5t11.5 -51t-10.5 -52t-29 -41.5t-43 -27.5t-51.5 -11q-27 0 -51.5 8.5t-43.5 25t-30.5 39.5t-11.5 51zM885 1671q0 28 10.5 52t29 41.5 t43 27.5t51.5 11q27 0 51.5 -9t43 -25.5t30 -39.5t11.5 -50q0 -28 -10.5 -52t-29 -41.5t-43 -27.5t-51.5 -11q-27 0 -51.5 8.5t-43.5 25t-30 39.5t-11 51z" />
<glyph unicode="&#xd7;" horiz-adv-x="941" d="M27 385l303 310l-197 315l179 159l187 -299l291 298l140 -182l-307 -315l194 -308l-179 -160l-184 294l-285 -292z" />
<glyph unicode="&#xd8;" horiz-adv-x="1206" d="M7 -95l166 256q-56 88 -73 201.5t-1 234.5l37 242q12 82 36 161.5t60 151t85 132t112 104t140.5 67t170.5 21.5q75 -2 134.5 -21.5t106.5 -52.5l75 116h188l-155 -238q52 -92 66.5 -207.5t-0.5 -233.5l-36 -241q-12 -81 -36 -159.5t-60 -147.5t-85 -127t-111.5 -99.5 t-139 -64t-167.5 -20.5q-72 2 -129.5 18.5t-104.5 46.5l-91 -140h-188zM377 474l456 701q-18 24 -46 39t-69 17q-53 2 -94 -14t-72 -45.5t-52.5 -69t-37 -83.5t-25 -90t-15.5 -88l-35 -245q-4 -27 -6.5 -58.5t-3.5 -63.5zM432 270q19 -20 46 -32t65 -14q77 -3 128.5 31.5 t84.5 90t50 122.5t26 129l35 246q3 24 6 52.5t5 59.5z" />
<glyph unicode="&#xd9;" horiz-adv-x="1145" d="M80 456l170 1000h288l-168 -1001q-5 -45 -4.5 -86.5t14 -73t43 -50.5t82.5 -21q56 -2 95 14.5t65 48t40 74.5t21 94l169 1001h287l-170 -1000q-15 -111 -57 -200t-109 -151.5t-158.5 -95t-206.5 -30.5q-108 2 -188.5 37t-132 97.5t-72 149.5t-8.5 193zM420 1846h293 l144 -310h-217z" />
<glyph unicode="&#xda;" horiz-adv-x="1145" d="M80 456l170 1000h288l-168 -1001q-5 -45 -4.5 -86.5t14 -73t43 -50.5t82.5 -21q56 -2 95 14.5t65 48t40 74.5t21 94l169 1001h287l-170 -1000q-15 -111 -57 -200t-109 -151.5t-158.5 -95t-206.5 -30.5q-108 2 -188.5 37t-132 97.5t-72 149.5t-8.5 193zM581 1536l239 310 h326l-319 -310h-246z" />
<glyph unicode="&#xdb;" horiz-adv-x="1145" d="M80 456l170 1000h288l-168 -1001q-5 -45 -4.5 -86.5t14 -73t43 -50.5t82.5 -21q56 -2 95 14.5t65 48t40 74.5t21 94l169 1001h287l-170 -1000q-15 -111 -57 -200t-109 -151.5t-158.5 -95t-206.5 -30.5q-108 2 -188.5 37t-132 97.5t-72 149.5t-8.5 193zM398 1552v20 l289 274l155 1l224 -278v-18l-210 3l-95 143l-147 -142z" />
<glyph unicode="&#xdc;" horiz-adv-x="1145" d="M80 456l170 1000h288l-168 -1001q-5 -45 -4.5 -86.5t14 -73t43 -50.5t82.5 -21q56 -2 95 14.5t65 48t40 74.5t21 94l169 1001h287l-170 -1000q-15 -111 -57 -200t-109 -151.5t-158.5 -95t-206.5 -30.5q-108 2 -188.5 37t-132 97.5t-72 149.5t-8.5 193zM371 1671 q0 28 11 52t29.5 42t43 28t51.5 11q27 0 51 -9t43 -25.5t30.5 -39.5t11.5 -51t-10.5 -52t-29 -41.5t-43 -27.5t-51.5 -11q-27 0 -51.5 8.5t-43.5 25t-30.5 39.5t-11.5 51zM846 1671q0 28 10.5 52t29 41.5t43 27.5t51.5 11q27 0 51.5 -9t43 -25.5t30 -39.5t11.5 -50 q0 -28 -10.5 -52t-29 -41.5t-43 -27.5t-51.5 -11q-27 0 -51.5 8.5t-43.5 25t-30 39.5t-11 51z" />
<glyph unicode="&#xdd;" horiz-adv-x="1088" d="M169 1456h302l99 -651l325 651h323l-548 -942l-89 -514h-291l95 543zM562 1536l239 310h326l-319 -310h-246z" />
<glyph unicode="&#xde;" horiz-adv-x="1069" d="M12 0l252 1456h277l-47 -267l141 -1q97 -3 173 -36t126.5 -91t74 -138.5t15.5 -176.5q-9 -107 -51 -192t-110 -145t-158.5 -92t-195.5 -32l-171 1l-50 -286h-276zM378 521l143 -2q49 1 88.5 19t68.5 48t47 70.5t24 87.5q5 37 2 73t-17.5 65.5t-41 48.5t-69.5 22l-156 3 l-4 5z" />
<glyph unicode="&#xdf;" horiz-adv-x="1121" d="M20 0l188 1101q13 98 49 183t94.5 147t140.5 97t188 32q79 -2 140.5 -30t102.5 -76.5t60 -114t13 -143.5q-5 -54 -24 -99.5t-41.5 -89t-44 -88.5t-30.5 -96q-7 -38 2 -75t26 -74t39 -74t40.5 -75t30.5 -78t9 -83q-6 -91 -38.5 -163t-87.5 -122t-130.5 -76t-166.5 -24 q-59 1 -118 14t-110 45l76 229q35 -26 77.5 -40.5t86.5 -12.5q31 1 54.5 13t41 31.5t28 45t15.5 54.5q6 40 -3.5 76.5t-28 72t-41 70.5t-41.5 72t-30.5 76.5t-7.5 83.5q4 52 24 98t42.5 90.5t43 89.5t26.5 96q3 24 1 49t-11 46t-27 35t-47 16q-43 2 -70.5 -22t-44 -60 t-24.5 -77t-12 -72l-184 -1098h-276z" />
<glyph unicode="&#xe0;" horiz-adv-x="945" d="M19 295q5 97 45 166.5t103.5 114t144.5 65.5t170 21h88l13 88q2 21 2.5 44.5t-5.5 42.5t-21 32t-43 13q-29 1 -49 -9.5t-34 -27.5t-22.5 -40t-12.5 -47l-275 -2q5 82 41.5 147.5t93.5 110t130.5 67.5t152.5 22q81 -2 143 -28t103.5 -73t59.5 -112.5t10 -145.5l-77 -481 q-5 -29 -9.5 -60t-6 -62.5t1.5 -62.5t13 -60l-1 -18h-271q-5 21 -6.5 41.5t-1.5 42.5q-42 -48 -93 -76.5t-117 -28.5q-66 1 -117.5 27t-86.5 69.5t-52 100.5t-14 119zM270 1536h293l144 -310h-217zM300.5 274.5q0.5 -19.5 7.5 -36t20.5 -27t36.5 -11.5q42 -1 75.5 17.5 t60.5 46.5l49 229h-60q-39 -2 -71.5 -15.5t-56.5 -37.5t-39.5 -56t-20.5 -71q-2 -19 -1.5 -38.5z" />
<glyph unicode="&#xe1;" horiz-adv-x="945" d="M19 295q5 97 45 166.5t103.5 114t144.5 65.5t170 21h88l13 88q2 21 2.5 44.5t-5.5 42.5t-21 32t-43 13q-29 1 -49 -9.5t-34 -27.5t-22.5 -40t-12.5 -47l-275 -2q5 82 41.5 147.5t93.5 110t130.5 67.5t152.5 22q81 -2 143 -28t103.5 -73t59.5 -112.5t10 -145.5l-77 -481 q-5 -29 -9.5 -60t-6 -62.5t1.5 -62.5t13 -60l-1 -18h-271q-5 21 -6.5 41.5t-1.5 42.5q-42 -48 -93 -76.5t-117 -28.5q-66 1 -117.5 27t-86.5 69.5t-52 100.5t-14 119zM300.5 274.5q0.5 -19.5 7.5 -36t20.5 -27t36.5 -11.5q42 -1 75.5 17.5t60.5 46.5l49 229h-60 q-39 -2 -71.5 -15.5t-56.5 -37.5t-39.5 -56t-20.5 -71q-2 -19 -1.5 -38.5zM431 1226l239 310h326l-319 -310h-246z" />
<glyph unicode="&#xe2;" horiz-adv-x="945" d="M19 295q5 97 45 166.5t103.5 114t144.5 65.5t170 21h88l13 88q2 21 2.5 44.5t-5.5 42.5t-21 32t-43 13q-29 1 -49 -9.5t-34 -27.5t-22.5 -40t-12.5 -47l-275 -2q5 82 41.5 147.5t93.5 110t130.5 67.5t152.5 22q81 -2 143 -28t103.5 -73t59.5 -112.5t10 -145.5l-77 -481 q-5 -29 -9.5 -60t-6 -62.5t1.5 -62.5t13 -60l-1 -18h-271q-5 21 -6.5 41.5t-1.5 42.5q-42 -48 -93 -76.5t-117 -28.5q-66 1 -117.5 27t-86.5 69.5t-52 100.5t-14 119zM248 1242v20l289 274l155 1l224 -278v-18l-210 3l-95 143l-147 -142zM300.5 274.5q0.5 -19.5 7.5 -36 t20.5 -27t36.5 -11.5q42 -1 75.5 17.5t60.5 46.5l49 229h-60q-39 -2 -71.5 -15.5t-56.5 -37.5t-39.5 -56t-20.5 -71q-2 -19 -1.5 -38.5z" />
<glyph unicode="&#xe3;" horiz-adv-x="945" d="M19 295q5 97 45 166.5t103.5 114t144.5 65.5t170 21h88l13 88q2 21 2.5 44.5t-5.5 42.5t-21 32t-43 13q-29 1 -49 -9.5t-34 -27.5t-22.5 -40t-12.5 -47l-275 -2q5 82 41.5 147.5t93.5 110t130.5 67.5t152.5 22q81 -2 143 -28t103.5 -73t59.5 -112.5t10 -145.5l-77 -481 q-5 -29 -9.5 -60t-6 -62.5t1.5 -62.5t13 -60l-1 -18h-271q-5 21 -6.5 41.5t-1.5 42.5q-42 -48 -93 -76.5t-117 -28.5q-66 1 -117.5 27t-86.5 69.5t-52 100.5t-14 119zM264 1256q3 43 16.5 91.5t39 88.5t64 66t91.5 25q31 -1 58 -15.5t52.5 -31.5t52 -30.5t57.5 -11.5 q19 1 32.5 10.5t22.5 23t15 30t11 32.5l151 -11q-3 -44 -16 -91.5t-38 -87.5t-63 -65.5t-92 -24.5q-32 0 -58.5 15t-52 32t-51.5 30.5t-56 11.5q-19 -1 -32.5 -10.5t-22.5 -23t-14.5 -30t-9.5 -32.5zM300.5 274.5q0.5 -19.5 7.5 -36t20.5 -27t36.5 -11.5q42 -1 75.5 17.5 t60.5 46.5l49 229h-60q-39 -2 -71.5 -15.5t-56.5 -37.5t-39.5 -56t-20.5 -71q-2 -19 -1.5 -38.5z" />
<glyph unicode="&#xe4;" horiz-adv-x="945" d="M19 295q5 97 45 166.5t103.5 114t144.5 65.5t170 21h88l13 88q2 21 2.5 44.5t-5.5 42.5t-21 32t-43 13q-29 1 -49 -9.5t-34 -27.5t-22.5 -40t-12.5 -47l-275 -2q5 82 41.5 147.5t93.5 110t130.5 67.5t152.5 22q81 -2 143 -28t103.5 -73t59.5 -112.5t10 -145.5l-77 -481 q-5 -29 -9.5 -60t-6 -62.5t1.5 -62.5t13 -60l-1 -18h-271q-5 21 -6.5 41.5t-1.5 42.5q-42 -48 -93 -76.5t-117 -28.5q-66 1 -117.5 27t-86.5 69.5t-52 100.5t-14 119zM221 1361q0 28 11 52t29.5 42t43 28t51.5 11q27 0 51 -9t43 -25.5t30.5 -39.5t11.5 -51t-10.5 -52 t-29 -41.5t-43 -27.5t-51.5 -11q-27 0 -51.5 8.5t-43.5 25t-30.5 39.5t-11.5 51zM300.5 274.5q0.5 -19.5 7.5 -36t20.5 -27t36.5 -11.5q42 -1 75.5 17.5t60.5 46.5l49 229h-60q-39 -2 -71.5 -15.5t-56.5 -37.5t-39.5 -56t-20.5 -71q-2 -19 -1.5 -38.5zM696 1361 q0 28 10.5 52t29 41.5t43 27.5t51.5 11q27 0 51.5 -9t43 -25.5t30 -39.5t11.5 -50q0 -28 -10.5 -52t-29 -41.5t-43 -27.5t-51.5 -11q-27 0 -51.5 8.5t-43.5 25t-30 39.5t-11 51z" />
<glyph unicode="&#xe5;" horiz-adv-x="945" d="M19 295q5 97 45 166.5t103.5 114t144.5 65.5t170 21h88l13 88q2 21 2.5 44.5t-5.5 42.5t-21 32t-43 13q-29 1 -49 -9.5t-34 -27.5t-22.5 -40t-12.5 -47l-275 -2q5 82 41.5 147.5t93.5 110t130.5 67.5t152.5 22q81 -2 143 -28t103.5 -73t59.5 -112.5t10 -145.5l-77 -481 q-5 -29 -9.5 -60t-6 -62.5t1.5 -62.5t13 -60l-1 -18h-271q-5 21 -6.5 41.5t-1.5 42.5q-42 -48 -93 -76.5t-117 -28.5q-66 1 -117.5 27t-86.5 69.5t-52 100.5t-14 119zM300.5 274.5q0.5 -19.5 7.5 -36t20.5 -27t36.5 -11.5q42 -1 75.5 17.5t60.5 46.5l49 229h-60 q-39 -2 -71.5 -15.5t-56.5 -37.5t-39.5 -56t-20.5 -71q-2 -19 -1.5 -38.5zM391 1413q0 46 18.5 85t50 67.5t72 44.5t85.5 16q42 0 79.5 -15t66 -41.5t45 -63t16.5 -79.5q0 -46 -19 -84.5t-50 -66.5t-72 -43t-85 -15q-41 0 -78.5 14.5t-66 40t-45.5 61.5t-17 79zM504 1414 q-5 -41 17 -71t65 -30q24 0 45 9t38 24.5t28 36t14 43.5q3 21 -1.5 39.5t-15 32.5t-27 22.5t-38.5 8.5q-24 0 -45 -9.5t-38 -25t-28 -36.5t-14 -44z" />
<glyph unicode="&#xe6;" horiz-adv-x="1456" d="M19 311q6 94 46.5 159t104.5 105.5t144 58t164 17.5l119 -1l11 57q3 22 4 49.5t-5.5 52t-22.5 41.5t-47 18q-28 1 -50 -9t-38.5 -27t-27 -39.5t-16.5 -47.5l-273 18q6 84 44 148.5t97.5 107.5t134 64t154.5 20q69 -1 134.5 -22t114.5 -72q60 46 126.5 70t142.5 22 q66 -2 116.5 -23t87 -56.5t60.5 -83t36 -101.5t14 -111.5t-5 -113.5l-25 -163h-518q-4 -41 -1 -81.5t18 -73.5t45 -54.5t79 -23.5q68 -2 127 20.5t117 54.5l53 -193q-32 -32 -73 -54.5t-86.5 -36.5t-92.5 -20.5t-91 -6.5q-42 1 -84 9t-80 24t-71 41.5t-58 60.5 q-69 -66 -152.5 -101.5t-180.5 -33.5q-74 1 -130.5 26t-95 69t-56.5 104t-14 132zM298 307q-7 -48 12.5 -81t71.5 -34q21 0 41.5 5.5t39.5 15.5t37 22t34 24l38 201l-96 1q-33 -2 -63.5 -13t-54 -31t-39.5 -48t-21 -62zM865 644l254 -1l5 31q4 24 6 57t-3.5 63t-22.5 51.5 t-52 23.5q-45 2 -76.5 -20t-53 -56t-35 -74.5t-22.5 -74.5z" />
<glyph unicode="&#xe7;" horiz-adv-x="924" d="M51.5 310.5q-10.5 92.5 0.5 190.5l9 78q9 69 27 135t46.5 125t67.5 108.5t90 84.5t115 53.5t142 16.5q92 -3 156 -38t103.5 -93.5t55.5 -134t12 -159.5l-260 1q1 29 0.5 61.5t-9.5 61t-29.5 47.5t-58.5 21q-39 2 -66.5 -11t-46.5 -35.5t-31 -53t-19.5 -63t-11.5 -66 t-7 -61.5l-7 -79q-2 -22 -6.5 -51.5t-6.5 -61t0 -62.5t12 -55.5t30.5 -40t55.5 -16.5q36 -1 61 12.5t41 36.5t25 52.5t14 59.5l259 1q-8 -84 -40.5 -157.5t-86.5 -127t-127.5 -83.5t-161.5 -28q-113 3 -185.5 48t-112 118t-50 165.5zM212 -465l12 168q77 12 89 90 q3 23 -4 36t-20.5 20t-31.5 9.5t-36 4.5l41 142l206 1l-18 -61q27 -8 45.5 -24.5t29.5 -38.5t15 -47.5t4 -52.5q-2 -70 -31.5 -116.5t-76.5 -75t-105.5 -41t-118.5 -14.5z" />
<glyph unicode="&#xe8;" horiz-adv-x="961" d="M57 479l11 89q13 104 47.5 201.5t94.5 172.5t147.5 119t204.5 41q112 -3 181.5 -50t105.5 -122t44 -168t-4 -187l-19 -129h-540q-5 -43 -3 -83.5t16 -72.5t44 -52.5t81 -21.5q69 -2 129.5 24.5t112.5 70.5l93 -172q-31 -42 -73.5 -72.5t-90.5 -50t-100 -28.5t-103 -8 q-109 1 -186 42t-123.5 109t-63.5 158t-6 190zM265 1536h293l144 -310h-217zM349 644l275 -1l5 29q5 31 6 65t-7.5 63t-30.5 48t-62 21q-48 2 -79.5 -19t-52 -54t-33 -74t-21.5 -78z" />
<glyph unicode="&#xe9;" horiz-adv-x="961" d="M57 479l11 89q13 104 47.5 201.5t94.5 172.5t147.5 119t204.5 41q112 -3 181.5 -50t105.5 -122t44 -168t-4 -187l-19 -129h-540q-5 -43 -3 -83.5t16 -72.5t44 -52.5t81 -21.5q69 -2 129.5 24.5t112.5 70.5l93 -172q-31 -42 -73.5 -72.5t-90.5 -50t-100 -28.5t-103 -8 q-109 1 -186 42t-123.5 109t-63.5 158t-6 190zM349 644l275 -1l5 29q5 31 6 65t-7.5 63t-30.5 48t-62 21q-48 2 -79.5 -19t-52 -54t-33 -74t-21.5 -78zM426 1226l239 310h326l-319 -310h-246z" />
<glyph unicode="&#xea;" horiz-adv-x="961" d="M57 479l11 89q13 104 47.5 201.5t94.5 172.5t147.5 119t204.5 41q112 -3 181.5 -50t105.5 -122t44 -168t-4 -187l-19 -129h-540q-5 -43 -3 -83.5t16 -72.5t44 -52.5t81 -21.5q69 -2 129.5 24.5t112.5 70.5l93 -172q-31 -42 -73.5 -72.5t-90.5 -50t-100 -28.5t-103 -8 q-109 1 -186 42t-123.5 109t-63.5 158t-6 190zM243 1242v20l289 274l155 1l224 -278v-18l-210 3l-95 143l-147 -142zM349 644l275 -1l5 29q5 31 6 65t-7.5 63t-30.5 48t-62 21q-48 2 -79.5 -19t-52 -54t-33 -74t-21.5 -78z" />
<glyph unicode="&#xeb;" horiz-adv-x="961" d="M57 479l11 89q13 104 47.5 201.5t94.5 172.5t147.5 119t204.5 41q112 -3 181.5 -50t105.5 -122t44 -168t-4 -187l-19 -129h-540q-5 -43 -3 -83.5t16 -72.5t44 -52.5t81 -21.5q69 -2 129.5 24.5t112.5 70.5l93 -172q-31 -42 -73.5 -72.5t-90.5 -50t-100 -28.5t-103 -8 q-109 1 -186 42t-123.5 109t-63.5 158t-6 190zM216 1361q0 28 11 52t29.5 42t43 28t51.5 11q27 0 51 -9t43 -25.5t30.5 -39.5t11.5 -51t-10.5 -52t-29 -41.5t-43 -27.5t-51.5 -11q-27 0 -51.5 8.5t-43.5 25t-30.5 39.5t-11.5 51zM349 644l275 -1l5 29q5 31 6 65t-7.5 63 t-30.5 48t-62 21q-48 2 -79.5 -19t-52 -54t-33 -74t-21.5 -78zM691 1361q0 28 10.5 52t29 41.5t43 27.5t51.5 11q27 0 51.5 -9t43 -25.5t30 -39.5t11.5 -50q0 -28 -10.5 -52t-29 -41.5t-43 -27.5t-51.5 -11q-27 0 -51.5 8.5t-43.5 25t-30 39.5t-11 51z" />
<glyph unicode="&#xec;" horiz-adv-x="531" d="M16 0l187 1082h277l-188 -1082h-276zM64 1521h293l144 -310h-217z" />
<glyph unicode="&#xed;" horiz-adv-x="531" d="M16 0l187 1082h277l-188 -1082h-276zM224 1211l239 310h326l-319 -310h-246z" />
<glyph unicode="&#xee;" horiz-adv-x="531" d="M16 0l187 1082h277l-188 -1082h-276zM42 1227v20l289 274l155 1l224 -278v-18l-210 3l-95 143l-147 -142z" />
<glyph unicode="&#xef;" horiz-adv-x="531" d="M15 1346q0 28 11 52t29.5 42t43 28t51.5 11q27 0 51 -9t43 -25.5t30.5 -39.5t11.5 -51t-10.5 -52t-29 -41.5t-43 -27.5t-51.5 -11q-27 0 -51.5 8.5t-43.5 25t-30.5 39.5t-11.5 51zM16 0l187 1082h277l-188 -1082h-276zM490 1346q0 28 10.5 52t29 41.5t43 27.5t51.5 11 q27 0 51.5 -9t43 -25.5t30 -39.5t11.5 -50q0 -28 -10.5 -52t-29 -41.5t-43 -27.5t-51.5 -11q-27 0 -51.5 8.5t-43.5 25t-30 39.5t-11 51z" />
<glyph unicode="&#xf0;" horiz-adv-x="1008" d="M52 460q6 61 21 123t40 118.5t61 106t83 85t105 55.5t128 18q50 -2 94 -17.5t84 -44.5q-6 129 -67 242l-168 -116l-56 127l137 88q-40 40 -88 65.5t-100 45.5l110 223q87 -26 164.5 -68.5t141.5 -106.5l162 107l53 -129l-124 -77q77 -157 101.5 -318t2.5 -334l-9 -74 q-9 -68 -29 -139.5t-51.5 -139t-75 -127t-98.5 -103.5t-122.5 -68.5t-147.5 -22.5q-98 3 -168 45.5t-113.5 110t-61 153t-9.5 172.5zM326.5 388.5q0.5 -41.5 10.5 -80t32.5 -66t64.5 -29.5q39 -2 69 14.5t52.5 44.5t38.5 64t27 74t17.5 74t10.5 64l15 105l2 22 q-21 35 -54 53t-75 19q-55 1 -93 -27.5t-62 -71.5t-36.5 -94t-16.5 -94q-3 -30 -2.5 -71.5z" />
<glyph unicode="&#xf1;" horiz-adv-x="988" d="M-12 0l188 1082l258 1l-20 -109q25 29 52.5 53t59 41.5t67 26.5t74.5 8q56 -1 95.5 -20t66.5 -50.5t42 -73t21.5 -87t6 -93t-5.5 -91.5l-115 -688h-277l114 690q3 28 4.5 59t-5.5 57t-26 43t-56 17q-43 0 -73 -23.5t-56 -55.5l-137 -787h-278zM288 1256q3 43 16.5 91.5 t39 88.5t64 66t91.5 25q31 -1 58 -15.5t52.5 -31.5t52 -30.5t57.5 -11.5q19 1 32.5 10.5t22.5 23t15 30t11 32.5l151 -11q-3 -44 -16 -91.5t-38 -87.5t-63 -65.5t-92 -24.5q-32 0 -58.5 15t-52 32t-51.5 30.5t-56 11.5q-19 -1 -32.5 -10.5t-22.5 -23t-14.5 -30t-9.5 -32.5z " />
<glyph unicode="&#xf2;" horiz-adv-x="998" d="M53 505l8 70q12 103 48.5 199t98 170t149 117.5t202.5 40.5q74 -2 130.5 -23.5t98 -59t68.5 -87.5t42 -107.5t18 -121t-4 -127.5l-8 -71q-12 -103 -48.5 -199t-98 -169.5t-148.5 -116.5t-202 -40q-111 3 -183.5 49t-114 120t-54 167t-2.5 189zM293 1536h293l144 -310 h-217zM325 391.5q0 -31.5 4.5 -62.5t16 -56t32 -41.5t53.5 -18.5q57 -3 93 26.5t57.5 74.5t32 97t15.5 94l7 72q2 21 4.5 51t2.5 61.5t-5 63t-17 57t-33 41.5t-54 18q-54 3 -90 -27.5t-57.5 -76t-32.5 -97.5t-15 -92l-7 -73q-2 -21 -4.5 -50.5t-2.5 -61z" />
<glyph unicode="&#xf3;" horiz-adv-x="998" d="M53 505l8 70q12 103 48.5 199t98 170t149 117.5t202.5 40.5q74 -2 130.5 -23.5t98 -59t68.5 -87.5t42 -107.5t18 -121t-4 -127.5l-8 -71q-12 -103 -48.5 -199t-98 -169.5t-148.5 -116.5t-202 -40q-111 3 -183.5 49t-114 120t-54 167t-2.5 189zM325 391.5 q0 -31.5 4.5 -62.5t16 -56t32 -41.5t53.5 -18.5q57 -3 93 26.5t57.5 74.5t32 97t15.5 94l7 72q2 21 4.5 51t2.5 61.5t-5 63t-17 57t-33 41.5t-54 18q-54 3 -90 -27.5t-57.5 -76t-32.5 -97.5t-15 -92l-7 -73q-2 -21 -4.5 -50.5t-2.5 -61zM454 1226l239 310h326l-319 -310 h-246z" />
<glyph unicode="&#xf4;" horiz-adv-x="998" d="M53 505l8 70q12 103 48.5 199t98 170t149 117.5t202.5 40.5q74 -2 130.5 -23.5t98 -59t68.5 -87.5t42 -107.5t18 -121t-4 -127.5l-8 -71q-12 -103 -48.5 -199t-98 -169.5t-148.5 -116.5t-202 -40q-111 3 -183.5 49t-114 120t-54 167t-2.5 189zM271 1242v20l289 274l155 1 l224 -278v-18l-210 3l-95 143l-147 -142zM325 391.5q0 -31.5 4.5 -62.5t16 -56t32 -41.5t53.5 -18.5q57 -3 93 26.5t57.5 74.5t32 97t15.5 94l7 72q2 21 4.5 51t2.5 61.5t-5 63t-17 57t-33 41.5t-54 18q-54 3 -90 -27.5t-57.5 -76t-32.5 -97.5t-15 -92l-7 -73 q-2 -21 -4.5 -50.5t-2.5 -61z" />
<glyph unicode="&#xf5;" horiz-adv-x="998" d="M53 505l8 70q12 103 48.5 199t98 170t149 117.5t202.5 40.5q74 -2 130.5 -23.5t98 -59t68.5 -87.5t42 -107.5t18 -121t-4 -127.5l-8 -71q-12 -103 -48.5 -199t-98 -169.5t-148.5 -116.5t-202 -40q-111 3 -183.5 49t-114 120t-54 167t-2.5 189zM287 1256q3 43 16.5 91.5 t39 88.5t64 66t91.5 25q31 -1 58 -15.5t52.5 -31.5t52 -30.5t57.5 -11.5q19 1 32.5 10.5t22.5 23t15 30t11 32.5l151 -11q-3 -44 -16 -91.5t-38 -87.5t-63 -65.5t-92 -24.5q-32 0 -58.5 15t-52 32t-51.5 30.5t-56 11.5q-19 -1 -32.5 -10.5t-22.5 -23t-14.5 -30t-9.5 -32.5z M325 391.5q0 -31.5 4.5 -62.5t16 -56t32 -41.5t53.5 -18.5q57 -3 93 26.5t57.5 74.5t32 97t15.5 94l7 72q2 21 4.5 51t2.5 61.5t-5 63t-17 57t-33 41.5t-54 18q-54 3 -90 -27.5t-57.5 -76t-32.5 -97.5t-15 -92l-7 -73q-2 -21 -4.5 -50.5t-2.5 -61z" />
<glyph unicode="&#xf6;" horiz-adv-x="998" d="M53 505l8 70q12 103 48.5 199t98 170t149 117.5t202.5 40.5q74 -2 130.5 -23.5t98 -59t68.5 -87.5t42 -107.5t18 -121t-4 -127.5l-8 -71q-12 -103 -48.5 -199t-98 -169.5t-148.5 -116.5t-202 -40q-111 3 -183.5 49t-114 120t-54 167t-2.5 189zM244 1361q0 28 11 52 t29.5 42t43 28t51.5 11q27 0 51 -9t43 -25.5t30.5 -39.5t11.5 -51t-10.5 -52t-29 -41.5t-43 -27.5t-51.5 -11q-27 0 -51.5 8.5t-43.5 25t-30.5 39.5t-11.5 51zM325 391.5q0 -31.5 4.5 -62.5t16 -56t32 -41.5t53.5 -18.5q57 -3 93 26.5t57.5 74.5t32 97t15.5 94l7 72 q2 21 4.5 51t2.5 61.5t-5 63t-17 57t-33 41.5t-54 18q-54 3 -90 -27.5t-57.5 -76t-32.5 -97.5t-15 -92l-7 -73q-2 -21 -4.5 -50.5t-2.5 -61zM719 1361q0 28 10.5 52t29 41.5t43 27.5t51.5 11q27 0 51.5 -9t43 -25.5t30 -39.5t11.5 -50q0 -28 -10.5 -52t-29 -41.5t-43 -27.5 t-51.5 -11q-27 0 -51.5 8.5t-43.5 25t-30 39.5t-11 51z" />
<glyph unicode="&#xf7;" horiz-adv-x="1002" d="M63 570l41 232h845l-41 -232h-845zM283 272q0 33 11 62t31 50t48 33.5t61 13.5t60.5 -10t48 -30.5t32 -47t11.5 -60.5t-11 -62t-31 -50t-48 -33.5t-62 -12.5q-32 -1 -60 10t-48 30.5t-31.5 46.5t-11.5 60zM423 1084q0 33 11 62t31.5 50t48.5 33.5t61 12.5q33 1 60.5 -10 t47.5 -30.5t32 -46.5t12 -60q0 -34 -11 -62.5t-31.5 -49.5t-48.5 -33.5t-61 -12.5q-33 -1 -60.5 10t-48 30.5t-32 46.5t-11.5 60z" />
<glyph unicode="&#xf8;" horiz-adv-x="996" d="M17 -142l133 233q-33 38 -54.5 85.5t-33 101t-13.5 111.5t4 116l8 70q12 103 48.5 199t98 170t149 117.5t202.5 40.5q86 -3 150 -32l84 146h160l-132 -232q31 -38 51.5 -85.5t31 -100t12.5 -109t-4 -113.5l-8 -71q-12 -103 -48.5 -199t-98 -169.5t-148.5 -116.5t-202 -40 q-81 3 -144 29l-86 -151h-160zM325 397l260 456q-23 15 -51 16q-54 3 -90 -27.5t-57.5 -76t-32.5 -97.5t-15 -92l-7 -73q-2 -20 -4.5 -48t-2.5 -58zM387 226q9 -5 19.5 -8.5t24.5 -4.5q57 -3 93 26.5t57.5 74.5t32 97t15.5 94l7 72q2 19 4 43.5t3 52.5z" />
<glyph unicode="&#xf9;" horiz-adv-x="988" d="M58 243q-6 71 1 139l117 700h276l-117 -704q-2 -22 -3.5 -49.5t4 -52t21 -42t45.5 -18.5q49 -2 85 22t65 61l136 783h279l-188 -1082h-257l18 99q-47 -56 -105 -88.5t-133 -31.5q-83 1 -134 39t-77.5 96t-32.5 129zM290 1536h293l144 -310h-217z" />
<glyph unicode="&#xfa;" horiz-adv-x="988" d="M58 243q-6 71 1 139l117 700h276l-117 -704q-2 -22 -3.5 -49.5t4 -52t21 -42t45.5 -18.5q49 -2 85 22t65 61l136 783h279l-188 -1082h-257l18 99q-47 -56 -105 -88.5t-133 -31.5q-83 1 -134 39t-77.5 96t-32.5 129zM451 1226l239 310h326l-319 -310h-246z" />
<glyph unicode="&#xfb;" horiz-adv-x="988" d="M58 243q-6 71 1 139l117 700h276l-117 -704q-2 -22 -3.5 -49.5t4 -52t21 -42t45.5 -18.5q49 -2 85 22t65 61l136 783h279l-188 -1082h-257l18 99q-47 -56 -105 -88.5t-133 -31.5q-83 1 -134 39t-77.5 96t-32.5 129zM268 1242v20l289 274l155 1l224 -278v-18l-210 3 l-95 143l-147 -142z" />
<glyph unicode="&#xfc;" horiz-adv-x="988" d="M58 243q-6 71 1 139l117 700h276l-117 -704q-2 -22 -3.5 -49.5t4 -52t21 -42t45.5 -18.5q49 -2 85 22t65 61l136 783h279l-188 -1082h-257l18 99q-47 -56 -105 -88.5t-133 -31.5q-83 1 -134 39t-77.5 96t-32.5 129zM241 1361q0 28 11 52t29.5 42t43 28t51.5 11 q27 0 51 -9t43 -25.5t30.5 -39.5t11.5 -51t-10.5 -52t-29 -41.5t-43 -27.5t-51.5 -11q-27 0 -51.5 8.5t-43.5 25t-30.5 39.5t-11.5 51zM716 1361q0 28 10.5 52t29 41.5t43 27.5t51.5 11q27 0 51.5 -9t43 -25.5t30 -39.5t11.5 -50q0 -28 -10.5 -52t-29 -41.5t-43 -27.5 t-51.5 -11q-27 0 -51.5 8.5t-43.5 25t-30 39.5t-11 51z" />
<glyph unicode="&#xfd;" horiz-adv-x="897" d="M-51 -419l24 221q8 -1 15 -1.5t15 -0.5q66 -1 106 28t67 88l39 88l-112 1078h289l19 -606l245 606h302l-558 -1245q-23 -55 -52.5 -105t-69.5 -88.5t-91 -61t-116 -22.5q-32 0 -62 6.5t-60 14.5zM411 1226l239 310h326l-319 -310h-246z" />
<glyph unicode="&#xfe;" horiz-adv-x="1002" d="M-75 -416l72 416h-1l266 1536h278l-91 -522q40 42 88 66t110 23q71 -1 119.5 -25.5t80 -65t48.5 -93.5t23 -111t4 -117.5t-7 -112.5l-8 -70q-7 -59 -20.5 -121.5t-35 -122t-53 -112.5t-75 -92t-100 -61t-128.5 -19q-63 2 -113 29.5t-85 79.5l-96 -505h-276zM322 282 q17 -35 44.5 -50.5t67.5 -17.5q39 -2 68 11.5t50 36.5t35 54t22.5 64.5t13.5 67.5t8 64l7 72q2 21 5.5 50t4 60t-2.5 61.5t-13.5 55t-31 39.5t-53.5 16q-45 1 -76.5 -19.5t-58.5 -53.5l-84 -476z" />
<glyph unicode="&#xff;" horiz-adv-x="897" d="M-51 -419l24 221q8 -1 15 -1.5t15 -0.5q66 -1 106 28t67 88l39 88l-112 1078h289l19 -606l245 606h302l-558 -1245q-23 -55 -52.5 -105t-69.5 -88.5t-91 -61t-116 -22.5q-32 0 -62 6.5t-60 14.5zM202 1361q0 28 11 52t29.5 42t43 28t51.5 11q27 0 51 -9t43 -25.5 t30.5 -39.5t11.5 -51t-10.5 -52t-29 -41.5t-43 -27.5t-51.5 -11q-27 0 -51.5 8.5t-43.5 25t-30.5 39.5t-11.5 51zM677 1361q0 28 10.5 52t29 41.5t43 27.5t51.5 11q27 0 51.5 -9t43 -25.5t30 -39.5t11.5 -50q0 -28 -10.5 -52t-29 -41.5t-43 -27.5t-51.5 -11q-27 0 -51.5 8.5 t-43.5 25t-30 39.5t-11 51z" />
<glyph unicode="&#x152;" horiz-adv-x="1682" d="M90 432.5q-5 71.5 4 143.5l48 304q18 117 64.5 225.5t121.5 191.5t177 132.5t231 48.5q60 -1 119 -7.5t119 -14.5h736l-43 -245h-523l-60 -344h445l-42 -237h-444l-67 -386h526l-43 -244h-722v-1q-56 -8 -111.5 -13t-112.5 -4q-81 2 -146 26.5t-114.5 66.5t-84 98.5 t-54 122t-24.5 137zM363.5 425q2.5 -39 11.5 -75.5t28 -65t49.5 -46.5t75.5 -20q40 -2 79.5 1t78.5 9l174 1003q-35 6 -69.5 9.5t-69.5 4.5q-75 1 -128.5 -32t-89.5 -85.5t-56.5 -117.5t-29.5 -128l-47 -307q-4 -33 -6.5 -72t0 -78z" />
<glyph unicode="&#x153;" horiz-adv-x="1542" d="M69.5 398q-2.5 64 4.5 126l3 21q8 68 26.5 136t48 130.5t70 116.5t93 93.5t117.5 61t143 20.5q78 -2 149.5 -32t120.5 -93q61 58 132 92t157 32q102 -2 168 -46.5t102.5 -114t46 -155.5t-0.5 -173l-26 -164h-503q-3 -36 -1 -76t15 -74t39.5 -57.5t72.5 -25.5 q69 -3 129.5 20t119.5 55l56 -190q-34 -33 -76 -56.5t-87.5 -38t-93.5 -21t-94 -5.5q-80 2 -152.5 31.5t-122.5 93.5q-66 -60 -141 -93.5t-166 -31.5q-74 1 -130 24.5t-97 63.5t-67 93t-39.5 113t-16 124zM341 407q-1 -34 2.5 -68.5t14.5 -62t32 -45.5t55 -19 q38 -2 66.5 13.5t49.5 42t35 61t23 70.5t14 70.5t8 62.5l2 21l5 52.5t4 66t-2.5 69t-14.5 62.5t-32 46t-55 19q-38 2 -66.5 -14t-49 -42.5t-35 -61.5t-23.5 -71t-14 -71t-8 -62l-2 -22q-2 -21 -5 -52t-4 -65zM941 647l239 -1l5 29q4 26 6.5 59t-4 63t-25 51t-55.5 22 q-40 1 -68 -23t-46.5 -58.5t-30.5 -73.5t-21 -68z" />
<glyph unicode="&#x178;" horiz-adv-x="1088" d="M169 1456h302l99 -651l325 651h323l-548 -942l-89 -514h-291l95 543zM352 1671q0 28 11 52t29.5 42t43 28t51.5 11q27 0 51 -9t43 -25.5t30.5 -39.5t11.5 -51t-10.5 -52t-29 -41.5t-43 -27.5t-51.5 -11q-27 0 -51.5 8.5t-43.5 25t-30.5 39.5t-11.5 51zM827 1671 q0 28 10.5 52t29 41.5t43 27.5t51.5 11q27 0 51.5 -9t43 -25.5t30 -39.5t11.5 -50q0 -28 -10.5 -52t-29 -41.5t-43 -27.5t-51.5 -11q-27 0 -51.5 8.5t-43.5 25t-30 39.5t-11 51z" />
<glyph unicode="&#x2c6;" horiz-adv-x="911" d="M229 1242v20l289 274l155 1l224 -278v-18l-210 3l-95 143l-147 -142z" />
<glyph unicode="&#x2dc;" horiz-adv-x="878" d="M225 1258q3 43 16.5 91.5t39 88.5t64 66t91.5 25q31 -1 58 -15.5t52.5 -31.5t52 -30.5t57.5 -11.5q19 1 32.5 10.5t22.5 23t15 30t11 32.5l151 -11q-3 -44 -16 -91.5t-38 -87.5t-63 -65.5t-92 -24.5q-32 0 -58.5 15t-52 32t-51.5 30.5t-56 11.5q-19 -1 -32.5 -10.5 t-22.5 -23t-14.5 -30t-9.5 -32.5z" />
<glyph unicode="&#x2000;" horiz-adv-x="968" />
<glyph unicode="&#x2001;" horiz-adv-x="1936" />
<glyph unicode="&#x2002;" horiz-adv-x="968" />
<glyph unicode="&#x2003;" horiz-adv-x="1936" />
<glyph unicode="&#x2004;" horiz-adv-x="645" />
<glyph unicode="&#x2005;" horiz-adv-x="484" />
<glyph unicode="&#x2006;" horiz-adv-x="322" />
<glyph unicode="&#x2007;" horiz-adv-x="322" />
<glyph unicode="&#x2008;" horiz-adv-x="242" />
<glyph unicode="&#x2009;" horiz-adv-x="387" />
<glyph unicode="&#x200a;" horiz-adv-x="107" />
<glyph unicode="&#x2010;" horiz-adv-x="732" d="M102 506l42 236h476l-42 -236h-476z" />
<glyph unicode="&#x2011;" horiz-adv-x="732" d="M102 506l42 236h476l-42 -236h-476z" />
<glyph unicode="&#x2012;" horiz-adv-x="732" d="M102 506l42 236h476l-42 -236h-476z" />
<glyph unicode="&#x2013;" horiz-adv-x="1097" d="M142 594l50 238h852l-50 -238h-852z" />
<glyph unicode="&#x2014;" horiz-adv-x="1321" d="M56 594l68 238h1136l-68 -238h-1136z" />
<glyph unicode="&#x2018;" horiz-adv-x="465" d="M182 1047l24 151q17 109 74.5 205t139.5 168l125 -81q-41 -70 -74 -140.5t-47 -150.5l-26 -152h-216z" />
<glyph unicode="&#x2019;" horiz-adv-x="456" d="M152 1090q41 70 73 139.5t47 150.5l27 156h216l-24 -155q-17 -108 -72 -204t-134 -170z" />
<glyph unicode="&#x201a;" horiz-adv-x="497" d="M-64 -224q41 69 70 139.5t43 149.5l28 166h226l-27 -164q-9 -54 -28.5 -105.5t-47 -98.5t-63 -89.5t-75.5 -78.5z" />
<glyph unicode="&#x201c;" horiz-adv-x="779" d="M191 1047l24 151q17 109 74.5 205t139.5 168l125 -81q-41 -70 -74 -140.5t-47 -150.5l-26 -152h-216zM495 1047l24 151q17 109 74.5 205t139.5 168l125 -81q-41 -70 -74 -140.5t-47 -150.5l-26 -152h-216z" />
<glyph unicode="&#x201d;" horiz-adv-x="786" d="M166 1090q41 70 73 139.5t47 150.5l27 156h216l-24 -155q-17 -108 -72 -204t-134 -170zM475 1090q41 70 73 139.5t47 150.5l27 156h216l-24 -155q-17 -108 -72 -204t-134 -170z" />
<glyph unicode="&#x201e;" horiz-adv-x="776" d="M-67 -244q42 74 71.5 149t44.5 160l34 198h225l-32 -196q-18 -112 -73 -213t-137 -179zM233 -244q42 75 75 149.5t48 159.5l34 198h225l-33 -197q-18 -113 -75 -213.5t-141 -177.5z" />
<glyph unicode="&#x2022;" horiz-adv-x="725" d="M155 729l2 49q4 51 23.5 94t52 74t76.5 48t96 16q51 -1 91 -18t68 -47.5t42.5 -72t14.5 -91.5l-2 -52q-3 -52 -22.5 -94.5t-51.5 -73.5t-76.5 -47.5t-96.5 -15.5q-51 1 -91.5 18.5t-68.5 48.5t-43 72.5t-14 91.5z" />
<glyph unicode="&#x2026;" horiz-adv-x="1327" d="M45 138q0 35 12 64.5t33.5 51.5t51 34.5t64.5 12.5q33 0 62 -11t50.5 -31t34 -48t12.5 -61q0 -35 -12 -64.5t-34 -51t-52 -34t-64 -12.5q-33 0 -61.5 10.5t-49.5 30.5t-33.5 48t-13.5 61zM444 138q0 35 12 64.5t33.5 51.5t51 34.5t64.5 12.5q33 0 62 -11t50.5 -31t34 -48 t12.5 -61q0 -35 -12 -64.5t-34 -51t-52 -34t-64 -12.5q-33 0 -61.5 10.5t-49.5 30.5t-33.5 48t-13.5 61zM837 138q0 35 12 64.5t33.5 51.5t51 34.5t64.5 12.5q33 0 62 -11t50.5 -31t34 -48t12.5 -61q0 -35 -12 -64.5t-34 -51t-52 -34t-64 -12.5q-33 0 -61.5 10.5t-49.5 30.5 t-33.5 48t-13.5 61z" />
<glyph unicode="&#x202f;" horiz-adv-x="387" />
<glyph unicode="&#x2039;" horiz-adv-x="575" d="M93 513l1 19l288 391h185l-265 -414l114 -385h-157z" />
<glyph unicode="&#x203a;" horiz-adv-x="555" d="M-9 124l266 413l-115 386h159l166 -388l-2 -20l-287 -391h-187z" />
<glyph unicode="&#x205f;" horiz-adv-x="484" />
<glyph unicode="&#x20ac;" d="M78 515l27 153h133l22 124h-133l26 152h125q28 110 76 207.5t119 170.5t166.5 114.5t219.5 39.5q52 -1 102 -10t101 -23l-63 -244q-33 16 -68.5 25t-72.5 11q-66 1 -114.5 -23t-82.5 -65t-57 -94t-38 -109h260l-27 -152h-251l-22 -124h253l-27 -153h-247 q-6 -49 -5.5 -100t16 -92.5t50 -68.5t95.5 -28q41 -2 79 6.5t76 22.5l9 -247q-51 -13 -103.5 -19.5t-106.5 -5.5q-113 2 -194 46.5t-130.5 118t-67 169t-3.5 199.5z" />
<glyph unicode="&#x2122;" horiz-adv-x="1110" d="M244 1348l19 108h336l-19 -108h-98l-75 -431h-133l75 431h-105zM558 914l94 542h142l22 -363l157 363h140l-95 -542h-118l58 328l-131 -328l-64 -1l-24 361l-63 -360h-118z" />
<glyph unicode="&#x25fc;" horiz-adv-x="1080" d="M0 0v1080h1080v-1080h-1080z" />
<glyph unicode="&#xfb02;" horiz-adv-x="1172" d="M58 0l151 869h-127l37 213l127 1l12 92q10 82 40 153t79 123t117.5 81t156.5 28q34 0 66.5 -6t65.5 -14l-23 -228q-17 5 -33.5 8t-33.5 3q-34 0 -60.5 -11t-46 -31.5t-31.5 -47.5t-18 -58l-14 -93h164l-37 -213h-164l-151 -869h-277zM669 0l266 1536h278l-267 -1536h-277 z" />
<glyph unicode="&#xfb03;" horiz-adv-x="1755" d="M58 0l151 869h-127l37 213l127 1l12 92q10 82 40 153t79 123t117.5 81t156.5 28q34 0 66.5 -6t65.5 -14l-23 -228q-17 5 -33.5 8t-33.5 3q-34 0 -60.5 -11t-46 -31.5t-31.5 -47.5t-18 -58l-14 -93h164l-37 -213h-164l-151 -869h-277zM711 0l151 869h-127l37 213h119l8 44 q17 97 54.5 177.5t97 137.5t140 88t184.5 30q74 -2 144 -20.5t139 -41.5l-68 -240q-51 23 -105.5 36.5t-111.5 13.5q-86 0 -134.5 -50.5t-64.5 -131.5l-8 -43h173l-38 -213h-161l-151 -869h-278zM1251 0l188 1082h277l-188 -1082h-277z" />
<glyph unicode="&#xfb04;" horiz-adv-x="1833" d="M58 0l151 869h-127l37 213l127 1l12 92q10 82 40 153t79 123t117.5 81t156.5 28q34 0 66.5 -6t65.5 -14l-23 -228q-17 5 -33.5 8t-33.5 3q-34 0 -60.5 -11t-46 -31.5t-31.5 -47.5t-18 -58l-14 -93h164l-37 -213h-164l-151 -869h-277zM719 0l151 869h-127l37 213l127 1 l12 92q10 82 40 153t79 123t117.5 81t156.5 28q34 0 66.5 -6t65.5 -14l-23 -228q-17 5 -33.5 8t-33.5 3q-34 0 -60.5 -11t-46 -31.5t-31.5 -47.5t-18 -58l-14 -93h164l-37 -213h-164l-151 -869h-277zM1330 0l266 1536h278l-267 -1536h-277z" />
</font>
</defs>
</svg>
