<?xml version="1.0" standalone="no"?>
<!DOCTYPE svg PUBLIC "-//W3C//DTD SVG 1.1//EN" "http://www.w3.org/Graphics/SVG/1.1/DTD/svg11.dtd" >
<svg xmlns="http://www.w3.org/2000/svg">
<metadata></metadata>
<defs>
<font id="kelly_slabregular" horiz-adv-x="1110" >
<font-face units-per-em="2048" ascent="1638" descent="-410" />
<missing-glyph horiz-adv-x="716" />
<glyph horiz-adv-x="0" />
<glyph horiz-adv-x="682" />
<glyph horiz-adv-x="0" />
<glyph horiz-adv-x="0" />
<glyph unicode="&#xd;" horiz-adv-x="1024" />
<glyph unicode=" "  horiz-adv-x="716" />
<glyph unicode="&#x09;" horiz-adv-x="716" />
<glyph unicode="&#xa0;" horiz-adv-x="716" />
<glyph unicode="!" horiz-adv-x="616" d="M205 96q0 42 31.5 74.5t72.5 32.5q42 0 72.5 -32.5t30.5 -74.5q0 -44 -30.5 -74t-74.5 -30q-41 0 -71.5 30.5t-30.5 73.5zM223 395v1094h168v-1094h-168z" />
<glyph unicode="&#x22;" horiz-adv-x="667" d="M82 1044v492h168v-492h-168zM418 1044v492h168v-492h-168z" />
<glyph unicode="#" horiz-adv-x="1570" d="M41 508l41 149h346l53 209h-344l41 158h344l131 512h160l-131 -512h268l131 512h164l-129 -512h414l-41 -158h-414l-55 -209h412l-37 -149h-416l-129 -508h-166l131 508h-266l-133 -508h-162l137 508h-350zM586 657h268l55 209h-264z" />
<glyph unicode="$" horiz-adv-x="1191" d="M164 0v379h147v-240h213v609l-196 120q-54 30 -86.5 55t-55 63.5t-22.5 86.5v258q0 121 52.5 163t174.5 42h133v307h144v-307h342v-379h-148v240h-194v-541l168 -104q20 -14 52 -34.5t48 -31.5t37 -29t31 -33.5t17 -38t7 -50.5v-349q0 -92 -61 -139t-150 -47h-149v-307 h-144v307h-360zM328 1069l196 -123v451h-196v-328zM668 139h196v400l-196 120v-520z" />
<glyph unicode="%" horiz-adv-x="1689" d="M123 874v441q0 140 49.5 188.5t183.5 48.5h74q84 0 132 -11t75 -44t35 -78.5t8 -128.5v-391q0 -55 -2.5 -89t-10.5 -66t-23 -49t-41 -30.5t-62.5 -18.5t-89.5 -5h-82q-77 0 -121 8.5t-74 34.5t-40.5 70t-10.5 120zM270 772h267v645h-267v-645zM406 -309l681 2091h158 l-680 -2091h-159zM1006 236v442q0 133 51 181t184 48h70q85 0 133.5 -10.5t77 -43t37 -78.5t8.5 -130v-393q0 -64 -4.5 -102.5t-17.5 -70.5t-40 -47.5t-68 -23.5t-106 -8h-78q-76 0 -120.5 8.5t-74.5 35t-41 71.5t-11 121zM1155 135h266v645h-266v-645z" />
<glyph unicode="&#x26;" horiz-adv-x="1486" d="M123 287v274l397 340l-188 225v166q0 50 2 81t9.5 63.5t22 50.5t39.5 33.5t61.5 21.5t88.5 6h133q62 0 103.5 -5t71.5 -20t46 -33t25 -55t11.5 -74t2.5 -101v-189l-221 -178l174 -209l244 201l98 -111l-246 -203l408 -489l-113 -94l-295 342v-76q0 -73 -8 -116t-33 -77.5 t-72 -48.5t-124 -14h-391q-37 0 -66 1.5t-52.5 7t-41 10.5t-31.5 17.5t-23 22t-15 31t-9.5 36.5t-5 46t-2 53.5t-0.5 63.5zM260 283q0 -51 3 -75.5t17.5 -43t39 -23t71.5 -4.5h346q30 0 49.5 1.5t33.5 8.5t20.5 13.5t10.5 24t4.5 32.5t0.5 47v234l-246 301l-350 -312v-204z M473 1169l164 -165l174 141v119q0 37 -0.5 54t-4.5 37.5t-11 27.5t-21.5 15t-34 9.5t-51.5 1.5h-88q-46 0 -69.5 -4.5t-37.5 -20t-17 -37t-3 -65.5v-113z" />
<glyph unicode="'" horiz-adv-x="413" d="M123 1047v489h168v-489h-168z" />
<glyph unicode="(" horiz-adv-x="559" d="M164 250v1040q0 83 9.5 151.5t35.5 133.5t67 109t108 71t155 27v-105q-115 0 -173.5 -103t-58.5 -288v-1026q0 -135 23 -238t76.5 -168t132.5 -65v-98q-89 0 -156.5 33t-108.5 85.5t-66.5 128t-34.5 150t-9 162.5z" />
<glyph unicode=")" horiz-adv-x="559" d="M20 -205q115 0 173.5 103t58.5 288v1026q0 135 -23 238t-76.5 168t-132.5 65v99q89 0 156.5 -33t108.5 -85.5t66.5 -128t34.5 -150t9 -162.5v-1041q0 -83 -9.5 -151.5t-35.5 -133t-67 -109t-108 -71t-155 -26.5v104z" />
<glyph unicode="*" horiz-adv-x="833" d="M82 1102l207 110l-203 123l55 105l215 -123v242h119v-242l217 119l60 -103l-215 -121l211 -120l-60 -103l-213 113v-244h-119v246l-215 -117z" />
<glyph unicode="+" horiz-adv-x="1236" d="M164 725v135h383v387h143v-387h383v-135h-383v-383h-143v383h-383z" />
<glyph unicode="," horiz-adv-x="473" d="M41 -307l158 508h151l-160 -508h-149z" />
<glyph unicode="-" horiz-adv-x="923" d="M164 725v135h596v-135h-596z" />
<glyph unicode="." horiz-adv-x="452" d="M123 96q0 42 31.5 74.5t72.5 32.5q42 0 72.5 -32.5t30.5 -74.5q0 -44 -30.5 -74t-74.5 -30q-41 0 -71.5 30.5t-30.5 73.5z" />
<glyph unicode="/" horiz-adv-x="858" d="M10 -307l680 2089h158l-678 -2089h-160z" />
<glyph unicode="0" horiz-adv-x="1069" d="M123 248v1016q0 139 48 205.5t179 66.5h359q123 0 180 -67.5t57 -204.5v-985q0 -150 -50.5 -214.5t-176.5 -64.5h-352q-134 0 -189 63.5t-55 184.5zM287 139h495v1258h-495v-1258z" />
<glyph unicode="1" horiz-adv-x="716" d="M61 1395v141h177q100 0 144 -43.5t44 -132.5v-1221h127v-139h-434v139h139v1256h-197z" />
<glyph unicode="2" horiz-adv-x="1075" d="M102 0v371q0 169 111 237l590 367v422h-539v-250h-160v389h596q153 0 212 -51.5t59 -186.5v-239q0 -141 -101 -203l-608 -385v-332h539v189h172v-328h-871z" />
<glyph unicode="3" horiz-adv-x="1052" d="M102 281v108h150v-262h530v637h-530v133l508 500h-508v-144h-150v283h848v-139l-501 -500h264q134 0 184.5 -53.5t50.5 -186.5v-383q0 -76 -8.5 -121t-37 -83t-85.5 -54t-151 -16h-312q-50 0 -88.5 8t-65 20.5t-45 34t-29 43t-16 53t-7 58t-1.5 64.5z" />
<glyph unicode="4" horiz-adv-x="1062" d="M20 395l648 1141h166v-1001h147v-140h-147v-256h147v-139h-537v139h226v256h-650zM272 535h398v696z" />
<glyph unicode="5" horiz-adv-x="1060" d="M102 246v143h160v-250h531v658h-668v739h772v-139h-612v-461h481q61 0 100 -13t58.5 -40.5t26.5 -61t7 -84.5v-489q0 -44 -4.5 -76.5t-19.5 -66.5t-41 -56t-71 -35.5t-107 -13.5h-381q-72 0 -119 17.5t-71 53t-33 76t-9 99.5z" />
<glyph unicode="6" horiz-adv-x="1075" d="M102 254v1038q0 109 60.5 176.5t185.5 67.5h377q115 0 161 -64.5t46 -175.5v-45h-139v156h-523v-500h447q142 0 199 -59.5t57 -171.5v-416q0 -134 -69 -197t-220 -63h-301q-156 0 -218.5 59t-62.5 195zM270 139h535v627h-535v-627z" />
<glyph unicode="7" horiz-adv-x="931" d="M61 0l701 1397h-553v-305h-148v444h850v-209l-663 -1327h-187z" />
<glyph unicode="8" horiz-adv-x="1075" d="M102 274v342q0 97 56 157.5t112 64.5q-46 3 -86.5 59.5t-40.5 130.5v264q0 111 56 177.5t180 66.5h321q119 0 175.5 -67.5t56.5 -176.5v-264q0 -77 -37 -132t-86 -58q58 -3 111 -62t53 -153v-349q0 -136 -70 -205t-219 -69h-301q-153 0 -217 67.5t-64 206.5zM270 139h535 v615h-535v-615zM301 907h473v500h-473v-500z" />
<glyph unicode="9" horiz-adv-x="1075" d="M102 240v45h168v-152h535v563h-447q-142 0 -199 60t-57 172v348q0 134 69 197t220 63h301q156 0 218.5 -59t62.5 -195v-1038q0 -109 -60.5 -176.5t-185.5 -67.5h-389q-118 0 -177 67t-59 173zM270 838h535v559h-535v-559z" />
<glyph unicode=":" horiz-adv-x="452" d="M123 96q0 42 31.5 74.5t72.5 32.5q42 0 72.5 -32.5t30.5 -74.5q0 -44 -30.5 -74t-74.5 -30q-41 0 -71.5 30.5t-30.5 73.5zM123 831q0 43 31.5 75t72.5 32q42 0 72.5 -32t30.5 -75q0 -45 -30 -75.5t-75 -30.5q-41 0 -71.5 30.5t-30.5 75.5z" />
<glyph unicode=";" horiz-adv-x="495" d="M41 -307l158 508h151l-160 -508h-149zM162 831q0 43 31.5 75t72.5 32q43 0 75 -32t32 -75q0 -45 -32 -75.5t-77 -30.5q-41 0 -71.5 30.5t-30.5 75.5z" />
<glyph unicode="&#x3c;" horiz-adv-x="1107" d="M123 698v156l924 444v-141l-775 -381l775 -383v-141z" />
<glyph unicode="=" horiz-adv-x="1155" d="M164 561v131h827v-131h-827zM164 874v134h827v-134h-827z" />
<glyph unicode="&#x3e;" horiz-adv-x="1107" d="M61 252v141l775 383q-106 52 -371 183t-404 198v141q172 -81 924 -444v-156z" />
<glyph unicode="?" horiz-adv-x="985" d="M41 1163v373h551q119 0 174 -47.5t55 -171.5v-395q0 -99 -47.5 -154t-144.5 -55h-264v-316h-164v277q0 95 47 137.5t147 42.5h250v543h-455v-234h-149zM178 96q0 42 31.5 74.5t73.5 32.5t73 -32.5t31 -74.5q0 -44 -31 -74t-75 -30q-42 0 -72.5 30t-30.5 74z" />
<glyph unicode="A" horiz-adv-x="1312" d="M51 0v139h129l357 1397h241l350 -1397h134v-139h-400v139h111l-103 408h-430l-102 -408h113v-139h-400zM473 676h365l-183 721z" />
<glyph unicode="B" horiz-adv-x="1140" d="M123 0v139h129v1260h-127v137h428q209 0 209 -182v-379l8 6q47 27 100 27q63 0 105.5 -46t42.5 -131v-651q0 -40 -7.5 -69.5t-26 -56t-56 -40.5t-92.5 -14h-713zM420 141h434v727l-434 -272v-455zM420 760l176 110v529h-176v-639z" />
<glyph unicode="C" horiz-adv-x="1075" d="M123 219v1096q0 42 10 79.5t32 70.5t63 52t96 19h649v-379h-139v240h-543v-1258h543v240h139v-379h-629q-117 0 -169 60t-52 159z" />
<glyph unicode="D" horiz-adv-x="1236" d="M123 0v139h129v1258h-129v139h723q148 0 208 -64t60 -204v-1000q0 -140 -65 -204t-203 -64h-723zM420 139h526v1258h-526v-1258z" />
<glyph unicode="E" horiz-adv-x="1196" d="M133 0v139h129v1258h-129v139h961v-379h-140v240h-524v-533h289v146h139v-430h-139v145h-289v-586h524v240h140v-379h-961z" />
<glyph unicode="F" horiz-adv-x="1196" d="M133 0v139h129v1258h-129v139h961v-379h-140v240h-524v-533h289v146h139v-430h-139v145h-289v-586h133v-139h-430z" />
<glyph unicode="G" d="M123 254v1046q0 236 219 236h645v-379h-164v240h-532v-1258h532v479l-284 -178v150l448 280v-870h-608q-144 0 -200 54t-56 200z" />
<glyph unicode="H" horiz-adv-x="1429" d="M133 0v139h129v1258h-129v139h422v-139h-125v-535h569v535h-125v139h422v-139h-129v-1258h129v-139h-422v139h125v586h-569v-586h125v-139h-422z" />
<glyph unicode="I" horiz-adv-x="757" d="M164 0v139h129v1258h-129v139h430v-139h-133v-1258h133v-139h-430z" />
<glyph unicode="J" horiz-adv-x="831" d="M41 0v139h356v1258h-131v139h432v-139h-133v-1157q0 -45 -10.5 -85t-34 -76t-68 -57.5t-106.5 -21.5h-305z" />
<glyph unicode="K" horiz-adv-x="1239" d="M133 0v139h129v1258h-129v139h430v-139h-141v-572l522 711h221v-139h-137l-426 -598l445 -660h131v-139h-234l-514 764v-625h133v-139h-430z" />
<glyph unicode="L" horiz-adv-x="1081" d="M133 0v139h129v1258h-129v139h430v-139h-133v-1258h430v240h139v-379h-866z" />
<glyph unicode="M" horiz-adv-x="1761" d="M133 0v139h129v1258h-129v139h316l434 -895l430 895h315v-139h-129v-1258h129v-139h-430v139h133v1055l-387 -797h-129l-385 803v-1061h133v-139h-430z" />
<glyph unicode="N" horiz-adv-x="1472" d="M133 0v139h129v1258h-129v139h316l593 -1221v1082h-133v139h430v-139h-129v-1397h-200l-580 1196v-1057h133v-139h-430z" />
<glyph unicode="O" d="M123 248v1016q0 139 48 205.5t179 66.5h400q123 0 180 -67.5t57 -204.5v-985q0 -150 -50.5 -214.5t-176.5 -64.5h-393q-134 0 -189 63.5t-55 184.5zM287 139h536v1258h-536v-1258z" />
<glyph unicode="P" horiz-adv-x="1216" d="M133 0v139h129v1256h-129v141h731q136 0 183 -51.5t47 -202.5v-149q0 -28 -1.5 -50.5t-8 -43t-10.5 -33.5t-18.5 -29.5t-21 -24.5t-29.5 -23.5t-33 -22t-42 -26t-47 -28.5l-453 -283v-430h133v-139h-430zM430 733l514 318v344h-514v-662z" />
<glyph unicode="Q" d="M123 248v1016q0 139 48 205.5t179 66.5h400q123 0 180 -67.5t57 -204.5v-985q0 -150 -50.5 -214.5t-176.5 -64.5h-123v-123h-164v123h-106q-134 0 -189 63.5t-55 184.5zM287 139h186v103h164v-103h186v1258h-536v-1258z" />
<glyph unicode="R" horiz-adv-x="1323" d="M133 0v139h129v1258h-129v139h731q135 0 182.5 -52t47.5 -204v-127q0 -35 -2 -61.5t-10 -50.5t-14.5 -40.5t-25 -36t-31 -31t-43 -32t-51.5 -33t-66 -39.5t-77 -47l404 -643h114v-139h-405v139h110l-350 563l-217 -133v-430h133v-139h-430zM430 733l514 318v346h-514 v-664z" />
<glyph unicode="S" d="M123 0v379h147v-240h553v400l-536 329q-54 30 -86.5 55t-55 63.5t-22.5 86.5v258q0 121 52.5 163t174.5 42h619v-379h-148v240h-534v-328l508 -317q20 -14 52 -34.5t48 -31.5t37 -29t31 -33.5t17 -38t7 -50.5v-349q0 -92 -61 -139t-150 -47h-653z" />
<glyph unicode="T" horiz-adv-x="1083" d="M51 1155v381h981v-381h-149v242h-258v-1258h133v-139h-430v139h129v1258h-258v-242h-148z" />
<glyph unicode="U" horiz-adv-x="1396" d="M123 1397v139h430v-139h-133v-1258h557v1258h-133v139h430v-139h-129v-1184q0 -109 -45.5 -161t-138.5 -52h-527q-182 0 -182 203v1194h-129z" />
<glyph unicode="V" horiz-adv-x="1310" d="M51 1397v139h375v-139h-107l338 -1258l336 1258h-129v139h396v-139h-111l-375 -1397h-235l-373 1397h-115z" />
<glyph unicode="W" horiz-adv-x="1712" d="M51 1397v139h338v-139h-82l195 -1258l215 1397h278l215 -1397l195 1258h-82v139h338v-139h-98l-220 -1397h-266l-221 1395l-221 -1395h-266l-219 1397h-99z" />
<glyph unicode="X" horiz-adv-x="1208" d="M51 0v139h117l350 668l-309 590h-123v139h225l293 -565l297 565h221v-139h-121l-311 -590l354 -668h113v-139h-213l-338 639l-338 -639h-217z" />
<glyph unicode="Y" horiz-adv-x="1138" d="M51 1397v139h332v-139h-74l260 -500l267 500h-74v139h325v-139h-77l-359 -641v-617h133v-139h-430v139h129v617l-340 641h-92z" />
<glyph unicode="Z" horiz-adv-x="1067" d="M61 0v147l773 1250h-572v-230h-145v369h889v-147l-768 -1250h604v234h143v-373h-924z" />
<glyph unicode="[" horiz-adv-x="530" d="M164 -172v1819q0 72 36 103.5t111 31.5h209v-101h-213v-1884h213v-102h-209q-76 0 -111.5 30.5t-35.5 102.5z" />
<glyph unicode="\" horiz-adv-x="858" d="M10 1782h160l678 -2089h-158z" />
<glyph unicode="]" horiz-adv-x="530" d="M10 -205h213v1884h-213v103h209q76 0 112 -30.5t36 -102.5v-1819q0 -72 -36.5 -103.5t-111.5 -31.5h-209v100z" />
<glyph unicode="^" horiz-adv-x="1220" d="M164 768l393 768h127l373 -768h-142l-299 623l-309 -623h-143z" />
<glyph unicode="_" d="M10 -147h1090v-82h-1090v82z" />
<glyph unicode="`" horiz-adv-x="372" d="M2 1397h145l220 -252h-150z" />
<glyph unicode="a" horiz-adv-x="1009" d="M41 180v76q0 74 23 107.5t116 89.5l451 280v152h-402v-119h-131v258h512q100 0 144.5 -43.5t44.5 -132.5v-709h129v-139h-713q-103 0 -138.5 39t-35.5 141zM205 139h426v430l-426 -266v-164z" />
<glyph unicode="b" horiz-adv-x="1079" d="M82 0v139h129v1258h-129v139h297v-739l348 219q46 28 102 28q65 0 106.5 -47t41.5 -129v-688q0 -84 -38.5 -132t-137.5 -48h-719zM379 139h434v766l-434 -272v-494z" />
<glyph unicode="c" horiz-adv-x="872" d="M102 180v664q0 88 49 135t146 47h494v-260h-140v119h-385v-746h385v119h140v-258h-510q-52 0 -88.5 14t-55.5 40t-27 56t-8 70z" />
<glyph unicode="d" horiz-adv-x="1079" d="M102 115v716q0 95 39 144t146 49h413v373h-135v139h303v-1395h129v-141h-297v236l-354 -224q-60 -32 -113 -32q-61 0 -96 39t-35 96zM266 129l434 270v486h-434v-756z" />
<glyph unicode="e" horiz-adv-x="952" d="M102 150v673q0 101 51 152t160 51h346q102 0 146.5 -40.5t44.5 -141.5v-191l-584 -368v-146h422v119h162v-108q0 -66 -40.5 -108t-123.5 -42h-420q-83 0 -123.5 42t-40.5 108zM266 451l420 264v170h-420v-434z" />
<glyph unicode="f" horiz-adv-x="679" d="M82 0v139h164v738h-164v147h164v299q0 114 44 163.5t138 49.5h170v-139h-192v-373h165v-147h-165v-738h165v-139h-489z" />
<glyph unicode="g" horiz-adv-x="1071" d="M102 125v719q0 100 35.5 140t138.5 40h713v-139h-129v-1157q0 -89 -44 -133t-144 -44h-496v279h139v-137h377v534l-350 -221q-45 -26 -92 -26q-62 0 -105 42t-43 103zM262 123l430 270v492h-430v-762z" />
<glyph unicode="h" horiz-adv-x="1163" d="M82 0v139h129v1258h-129v139h295v-729l340 213q41 24 86 24q62 0 104.5 -43t42.5 -118v-744h131v-139h-395v139h98v758l-407 -256v-502h100v-139h-395z" />
<glyph unicode="i" horiz-adv-x="614" d="M102 0v139h129v746h-129v139h297v-885h133v-139h-430zM211 1296q0 42 30.5 73.5t71.5 31.5q44 0 74.5 -31.5t30.5 -73.5q0 -46 -30.5 -76t-76.5 -30q-41 0 -70.5 30.5t-29.5 75.5z" />
<glyph unicode="j" horiz-adv-x="540" d="M-20 -268h270v1153h-129v139h297v-1257q0 -89 -44.5 -133t-144.5 -44h-249v142zM211 1296q0 42 30.5 73.5t71.5 31.5q44 0 74.5 -31.5t30.5 -73.5q0 -46 -30.5 -76t-76.5 -30q-41 0 -70.5 30.5t-29.5 75.5z" />
<glyph unicode="k" horiz-adv-x="1038" d="M82 0v139h131v1258h-131v139h287v-971l467 459h159v-139h-112l-334 -342l342 -404h106v-139h-176l-444 516v-377h123v-139h-418z" />
<glyph unicode="l" horiz-adv-x="634" d="M102 0v139h129v1258h-129v139h297v-1397h133v-139h-430z" />
<glyph unicode="m" horiz-adv-x="1673" d="M82 0v139h129v748h-129v137h295v-195l309 195q33 20 74 20q160 0 160 -157v-56l307 193q33 20 73 20q160 0 160 -157v-748h131v-139h-395v139h98v762l-374 -233v-529h100v-139h-367v139h99l2 8v756l-377 -235v-529h100v-139h-395z" />
<glyph unicode="n" horiz-adv-x="1163" d="M82 0v139h129v748h-129v137h295v-213l340 213q33 20 74 20q159 0 159 -157v-748h131v-139h-395v139h98v762l-407 -256v-506h100v-139h-395z" />
<glyph unicode="o" horiz-adv-x="923" d="M82 182v660q0 90 41 136t149 46h379q106 0 148.5 -46.5t42.5 -135.5v-660q0 -182 -191 -182h-379q-100 0 -145 46.5t-45 135.5zM248 139h428v746h-428v-746z" />
<glyph unicode="p" horiz-adv-x="1079" d="M82 883v141h297v-233l354 223q49 30 103 30q60 0 100.5 -35.5t40.5 -97.5v-718q0 -95 -38.5 -144t-145.5 -49h-414v-373h135v-139h-430v139h127v1256h-129zM379 139h434v760l-434 -272v-488z" />
<glyph unicode="q" horiz-adv-x="1099" d="M102 156v688q0 83 39 131.5t138 48.5h718v-139h-129v-1258h129v-139h-426v139h129v600l-348 -219q-46 -28 -102 -28q-65 0 -106.5 47t-41.5 129zM266 119l434 274v492h-434v-766z" />
<glyph unicode="r" horiz-adv-x="944" d="M82 0v139h129v748h-129v139h295v-180l252 158q33 20 73 20q160 0 160 -158v-182h-166v199l-319 -203v-541h100v-139h-395z" />
<glyph unicode="s" horiz-adv-x="899" d="M102 725v117q0 85 42.5 133.5t150.5 48.5h477v-307h-139v168h-369v-172l348 -217l45 -27t42 -25.5t32.5 -22t29 -24.5t19 -25t14 -30.5t3.5 -34.5v-127q0 -180 -176 -180h-496v309h139v-170h369v170l-336 211q-27 17 -71 43.5t-58.5 36.5t-34.5 30t-25.5 41.5t-5.5 53.5z " />
<glyph unicode="t" horiz-adv-x="649" d="M82 877v147h151v373h160v-373h166v-147h-166v-738h195v-139h-172q-94 0 -138.5 50t-44.5 163v664h-151z" />
<glyph unicode="u" horiz-adv-x="1163" d="M82 887v139h297v-887l407 256v492h-100v139h266v-887h129v-139h-295v229l-340 -213q-33 -20 -73 -20q-160 0 -160 158v733h-131z" />
<glyph unicode="v" horiz-adv-x="1050" d="M41 885v139h377v-139h-101l205 -746l209 746h-100v139h379v-139h-123l-248 -885h-227l-250 885h-121z" />
<glyph unicode="w" horiz-adv-x="1499" d="M41 885v139h326v-139h-91l166 -744l191 883h225l197 -887l168 748h-93v139h328v-139h-98l-195 -885h-219l-194 887l-199 -887h-229q0 1 -48 222.5t-96.5 442.5t-50.5 220h-88z" />
<glyph unicode="x" horiz-adv-x="1040" d="M61 0v139h115l258 391l-235 355h-121v139h196l250 -369l234 369h200v-139h-114l-236 -355l256 -391h115v-139h-193l-262 408l-260 -408h-203z" />
<glyph unicode="y" horiz-adv-x="1054" d="M82 885v139h297v-883l407 256v488h-100v139h266v-1296q0 -89 -44 -133t-144 -44h-473v279h139v-137h354v538l-360 -223q-48 -28 -94 -28q-51 0 -84 33.5t-33 99.5v772h-131z" />
<glyph unicode="z" horiz-adv-x="925" d="M82 0v141l567 744h-416v-146h-141v285h735v-145l-563 -740h436v142h144v-281h-762z" />
<glyph unicode="{" horiz-adv-x="673" d="M102 698v82q191 80 191 291v293q0 65 2.5 109t11 92.5t24 79.5t41.5 60.5t64.5 46t92.5 26.5t124 10v-84q-44 0 -78 -10.5t-57 -27t-39.5 -46t-25.5 -58t-14 -73t-6 -80.5t-1 -90v-248q0 -245 -211 -332q211 -87 211 -331v-248q0 -54 1 -90t6 -80.5t14 -73t25.5 -58 t39.5 -46t57 -27t78 -10.5v-84q-70 0 -124 10t-92.5 26.5t-64.5 46t-41.5 60.5t-24 79.5t-11 92.5t-2.5 109v293q0 210 -191 290z" />
<glyph unicode="|" horiz-adv-x="552" d="M205 -309v2093h143v-2093h-143z" />
<glyph unicode="}" horiz-adv-x="673" d="M20 -225q39 0 69.5 7t53 23t39.5 34.5t27.5 47.5t17.5 55.5t10 66t4 72t1 79.5v248q0 244 211 331q-211 87 -211 332v248q0 47 -1 79.5t-4 72t-10 66t-17.5 55.5t-27.5 47.5t-39.5 34.5t-53 23t-69.5 7v84q70 0 124.5 -10t92.5 -26.5t64.5 -46t42 -60.5t24 -79.5 t11 -92.5t2.5 -109v-293q0 -211 190 -291v-82q-190 -80 -190 -290v-293q0 -65 -2.5 -109t-11 -92.5t-24 -79.5t-42 -60.5t-64.5 -46t-92.5 -26.5t-124.5 -10v84z" />
<glyph unicode="~" horiz-adv-x="1218" d="M82 588q146 200 291 200q59 0 132.5 -25t130.5 -55.5t115.5 -55.5t90.5 -25q36 0 68 11.5t60 34t46 41t41 46.5l80 -74q-155 -188 -293 -188q-51 0 -144 39t-184 78.5t-139 39.5q-61 0 -100 -28.5t-103 -108.5z" />
<glyph unicode="&#xa1;" horiz-adv-x="616" d="M205 1384q0 44 30.5 74.5t71.5 30.5q44 0 74.5 -30.5t30.5 -74.5q0 -42 -30.5 -74t-72.5 -32q-41 0 -72.5 32.5t-31.5 73.5zM223 -8v1093h168v-1093h-168z" />
<glyph unicode="&#xa2;" horiz-adv-x="925" d="M102 180v664q0 88 49 135t146 47h133v174h121v-174h274v-260h-139v119h-135v-746h135v119h139v-258h-274v-240h-121v240h-149q-52 0 -88.5 14t-55.5 40t-27 56t-8 70zM266 139h164v746h-164v-746z" />
<glyph unicode="&#xa3;" horiz-adv-x="1087" d="M68 0v139h178v738h-178v147h178v299q0 114 44 163.5t138 49.5h250v-139h-272v-373h245v-147h-245v-738h436v240h139v-379h-913z" />
<glyph unicode="&#xa4;" horiz-adv-x="991" d="M55 256l101 100q-98 113 -95 269q0 167 95 270q-14 14 -101 100l76 76l98 -100q56 43 130 69.5t143 26.5q146 0 274 -96l98 100l76 -74l-102 -102q94 -104 94 -270q0 -73 -24 -145t-70 -124l102 -102l-76 -74l-98 103q-113 -99 -276 -99q-75 0 -146.5 25t-124.5 72 l-98 -101zM201 625q0 -130 88 -222t213 -92q128 0 215.5 93t87.5 221q0 127 -87.5 219t-215.5 92q-126 0 -213.5 -91t-87.5 -220z" />
<glyph unicode="&#xa5;" horiz-adv-x="1138" d="M51 1397v139h332v-139h-74l260 -500l267 500h-74v139h325v-139h-77l-283 -506h256v-135h-332v-181h332v-131h-332v-305h133v-139h-430v139h129v305h-327v131h329v183h-329v133h256l-269 506h-92z" />
<glyph unicode="&#xa6;" horiz-adv-x="530" d="M205 -307v741h141v-741h-141zM205 797v739h141v-739h-141z" />
<glyph unicode="&#xa7;" horiz-adv-x="1150" d="M123 618v246q0 51 1.5 80t9 64t22.5 53t41.5 31t66.5 14q-37 1 -61 12.5t-35 35t-14.5 47t-3.5 59.5v182q0 152 56 199q41 34 149 37q23 1 79 1h285q65 0 109 -4t75.5 -16t49 -27t27.5 -44t12.5 -59.5t2.5 -80.5v-135h-149v223h-535v-360h443q61 0 99.5 -3t72 -13t51 -26 t30.5 -45.5t17 -68.5t4 -98v-240q0 -50 -2 -80.5t-9.5 -64.5t-22.5 -52t-41.5 -31t-65.5 -14q27 -1 47.5 -10t32.5 -27t19.5 -34.5t10.5 -46t3.5 -48t0.5 -53.5v-127q0 -59 -6 -100t-25 -67t-35.5 -40.5t-57 -21t-68 -7.5t-90.5 -1h-2h-285q-65 0 -109 4t-75.5 16t-49 27 t-27.5 44t-12.5 59.5t-2.5 80.5v135h149v-223h535v365h-443q-62 0 -100 3t-71.5 12.5t-51 25.5t-30.5 45.5t-17 68.5t-4 98zM289 516h577v508h-577v-508z" />
<glyph unicode="&#xa8;" horiz-adv-x="481" d="M2 1233q0 35 26.5 62.5t61.5 27.5q36 0 62 -27t26 -63q0 -38 -26 -64t-64 -26q-34 0 -60 26t-26 64zM305 1233q0 35 26.5 62.5t61.5 27.5q36 0 62 -27t26 -63q0 -38 -26 -64t-64 -26q-34 0 -60 26t-26 64z" />
<glyph unicode="&#xa9;" horiz-adv-x="1814" d="M113 764q0 160 62.5 306t168.5 252t253 169t308 63q159 0 304.5 -63t251.5 -169t168.5 -252t62.5 -306q0 -161 -62.5 -307t-168.5 -251t-252 -167t-306 -62q-215 0 -396.5 105t-287.5 286.5t-106 395.5zM248 764q0 -132 52 -252.5t139.5 -207.5t209 -139t254.5 -52 q176 0 325.5 87t236.5 236.5t87 325.5q0 175 -87 325.5t-236.5 239t-325.5 88.5q-133 0 -254.5 -52t-209 -139t-139.5 -207.5t-52 -252.5zM541 444v627q0 83 46.5 127.5t137.5 44.5h467v-246h-133v113h-363v-704h363v112h133v-244h-483q-95 0 -131.5 45.5t-36.5 124.5z" />
<glyph unicode="&#xaa;" horiz-adv-x="692" d="M45 989v47q0 48 20 75.5t76 62.5l285 176v71h-244v-96h-108v211h352q70 0 101.5 -31t31.5 -94v-436h113v-115h-502q-73 0 -99 28.5t-26 100.5zM176 975h250v242l-250 -154v-88z" />
<glyph unicode="&#xab;" horiz-adv-x="907" d="M61 553l316 434l117 -82l-261 -352l261 -320l-113 -83zM455 553l315 434l117 -82l-260 -352l260 -320l-113 -83z" />
<glyph unicode="&#xac;" horiz-adv-x="1329" d="M88 725v137h1071v-692h-149v555h-922z" />
<glyph unicode="&#xad;" horiz-adv-x="770" d="M106 487v129h560v-129h-560z" />
<glyph unicode="&#xae;" horiz-adv-x="1841" d="M113 764q0 160 62.5 306t168.5 252t253 169t308 63q159 0 304.5 -63t251.5 -169t168.5 -252t62.5 -306q0 -161 -62.5 -307t-168.5 -251t-252 -167t-306 -62q-215 0 -396.5 105t-287.5 286.5t-106 395.5zM248 764q0 -132 52 -252.5t139.5 -207.5t209 -139t254.5 -52 q176 0 325.5 87t236.5 236.5t87 325.5q0 175 -87 325.5t-236.5 239t-325.5 88.5q-133 0 -254.5 -52t-209 -139t-139.5 -207.5t-52 -252.5zM528 305v123h115v668h-115v131h570q75 0 124.5 -36t49.5 -108v-108q0 -37 -9.5 -65.5t-30.5 -51t-37.5 -34.5t-47.5 -31l-88 -56 l82 -309h143v-123h-102q-78 0 -121.5 39.5t-67.5 124.5l-51 190l-154 -94v-137h103v-123h-363zM788 700l347 222v174h-347v-396z" />
<glyph unicode="&#xaf;" horiz-adv-x="522" d="M0 1178v129h522v-129h-522z" />
<glyph unicode="&#xb0;" horiz-adv-x="770" d="M76 1327q0 131 92 222t225 91q128 0 220 -92.5t92 -222.5t-92.5 -221.5t-221.5 -91.5q-131 0 -223 92.5t-92 222.5zM184 1329q0 -84 60.5 -145.5t146.5 -61.5q84 0 144.5 60.5t60.5 144.5q0 86 -60.5 146.5t-142.5 60.5q-87 0 -148 -60t-61 -145z" />
<glyph unicode="&#xb1;" horiz-adv-x="1236" d="M164 248v135h909v-135h-909zM164 860v135h383v348h143v-348h383v-135h-383v-342h-143v342h-383z" />
<glyph unicode="&#xb2;" horiz-adv-x="595" d="M90 860v164q0 78 57 115l273 149v160h-225v-107h-103v195h295q79 0 110 -25t31 -90v-104q0 -65 -55 -96q-30 -17 -127.5 -74.5t-152.5 -87.5v-113h227v80h108v-166h-438z" />
<glyph unicode="&#xb3;" horiz-adv-x="606" d="M90 993v62h100v-115h228v238h-256v77l223 193h-195v-62h-100v150h438v-80l-219 -192h90q71 0 99 -26.5t28 -90.5v-156q0 -73 -27.5 -102t-121.5 -29h-152q-46 0 -74.5 9.5t-41 30t-16 40.5t-3.5 53z" />
<glyph unicode="&#xb4;" horiz-adv-x="372" d="M2 1145l219 252h146l-215 -252h-150z" />
<glyph unicode="&#xb6;" d="M53 1210q0 328 424 328h494v-1745h-140v1641h-237v-1641h-141l2 1096q-182 0 -292 89t-110 232z" />
<glyph unicode="&#xb7;" horiz-adv-x="452" d="M123 541q0 41 31.5 73.5t72.5 32.5q42 0 72.5 -32t30.5 -74q0 -44 -30.5 -74.5t-74.5 -30.5q-41 0 -71.5 31t-30.5 74z" />
<glyph unicode="&#xb8;" horiz-adv-x="348" d="M0 4h121v-90h76q75 0 113 -37.5t38 -105.5v-76q0 -65 -29.5 -102t-109.5 -37h-209v108h221v137h-221v203z" />
<glyph unicode="&#xb9;" horiz-adv-x="348" d="M8 1440v96h135q93 0 93 -84v-498h88v-94h-291v94h94v486h-119z" />
<glyph unicode="&#xba;" horiz-adv-x="630" d="M47 1096v211q0 136 42 182.5t171 46.5h94q57 0 94.5 -4t64.5 -18t42 -30t23 -50t10 -67.5t2 -92.5v-162q0 -36 -0.5 -55.5t-2 -46t-4 -40t-8 -32t-13.5 -27t-20 -19.5t-27.5 -15.5t-36.5 -9t-46 -6t-57 -1.5h-103q-61 0 -98 6t-64 19.5t-39.5 42t-18 67t-5.5 101.5z M150 952h337v492h-337v-492z" />
<glyph unicode="&#xbb;" horiz-adv-x="907" d="M20 231l261 353l-261 319l113 84l320 -403l-316 -434zM414 231l260 353l-260 319l112 84l320 -403l-316 -434z" />
<glyph unicode="&#xbf;" horiz-adv-x="985" d="M41 211v395q0 99 47.5 154t144.5 55h265v315h164v-276q0 -94 -47 -137t-148 -43h-250v-543h455v234h149v-373h-551q-119 0 -174 47.5t-55 171.5zM475 1432q0 44 31 74t76 30q42 0 72 -30t30 -74q0 -42 -31 -74.5t-73 -32.5t-73.5 32.5t-31.5 74.5z" />
<glyph unicode="&#xc0;" horiz-adv-x="1312" d="M51 0v139h129l357 1397h241l350 -1397h134v-139h-400v139h111l-103 408h-430l-102 -408h113v-139h-400zM473 676h365l-183 721zM473 1909h145l220 -252h-150z" />
<glyph unicode="&#xc1;" horiz-adv-x="1312" d="M51 0v139h129l357 1397h241l350 -1397h134v-139h-400v139h111l-103 408h-430l-102 -408h113v-139h-400zM473 676h365l-183 721zM473 1657l219 252h146l-215 -252h-150z" />
<glyph unicode="&#xc2;" horiz-adv-x="1312" d="M51 0v139h129l357 1397h241l350 -1397h134v-139h-400v139h111l-103 408h-430l-102 -408h113v-139h-400zM362 1657l230 252h137l219 -252h-149l-142 164l-143 -164h-152zM473 676h365l-183 721z" />
<glyph unicode="&#xc3;" horiz-adv-x="1312" d="M51 0v139h129l357 1397h241l350 -1397h134v-139h-400v139h111l-103 408h-430l-102 -408h113v-139h-400zM317 1733q17 47 74.5 101t116.5 54q46 0 104.5 -28t106.5 -56t69 -28q37 0 73 30t54 70l78 -57q-17 -48 -78 -103t-127 -55q-33 0 -73 17.5t-70.5 38t-68 38 t-66.5 17.5q-34 0 -57 -21.5t-52 -79.5zM473 676h365l-183 721z" />
<glyph unicode="&#xc4;" horiz-adv-x="1312" d="M51 0v139h129l357 1397h241l350 -1397h134v-139h-400v139h111l-103 408h-430l-102 -408h113v-139h-400zM416 1745q0 35 26.5 62.5t61.5 27.5q36 0 62 -27t26 -63q0 -38 -26 -64t-64 -26q-34 0 -60 26t-26 64zM473 676h365l-183 721zM719 1745q0 35 26.5 62.5t61.5 27.5 q36 0 62 -27t26 -63q0 -38 -26 -64t-64 -26q-34 0 -60 26t-26 64z" />
<glyph unicode="&#xc5;" horiz-adv-x="1312" d="M51 0v139h129l357 1397h241l350 -1397h134v-139h-400v139h111l-103 408h-430l-102 -408h113v-139h-400zM473 676h365l-183 721zM473 1788q0 75 54 128.5t130 53.5q74 0 127.5 -53.5t53.5 -128.5t-54 -128.5t-129 -53.5t-128.5 54t-53.5 128zM573 1790q0 -34 24 -59 t58 -25q35 0 59.5 24.5t24.5 57.5q0 35 -24.5 59.5t-57.5 24.5q-35 0 -59.5 -24t-24.5 -58z" />
<glyph unicode="&#xc6;" horiz-adv-x="1753" d="M90 0v139h119l446 1258h-161v139h1101v-379h-139v240h-366v-537h344v-137h-344v-582l366 -2v240h139v-379h-802v143h129v580h-353l-204 -584h122v-139h-397zM618 860h304v537h-113z" />
<glyph unicode="&#xc7;" horiz-adv-x="1075" d="M123 219v1096q0 42 10 79.5t32 70.5t63 52t96 19h649v-379h-139v240h-543v-1258h543v240h139v-379h-490v-86h76q75 0 113.5 -38t38.5 -105v-76q0 -65 -30 -102t-110 -37h-209v108h222v137h-222v199h-18q-117 0 -169 60t-52 159z" />
<glyph unicode="&#xc8;" horiz-adv-x="1196" d="M133 0v139h129v1258h-129v139h961v-379h-140v240h-524v-533h289v146h139v-430h-139v145h-289v-586h524v240h140v-379h-961zM416 1909h145l219 -252h-149z" />
<glyph unicode="&#xc9;" horiz-adv-x="1196" d="M133 0v139h129v1258h-129v139h961v-379h-140v240h-524v-533h289v146h139v-430h-139v145h-289v-586h524v240h140v-379h-961zM416 1657l219 252h145l-215 -252h-149z" />
<glyph unicode="&#xca;" horiz-adv-x="1196" d="M133 0v139h129v1258h-129v139h961v-379h-140v240h-524v-533h289v146h139v-430h-139v145h-289v-586h524v240h140v-379h-961zM305 1657l230 252h137l219 -252h-150l-141 164l-143 -164h-152z" />
<glyph unicode="&#xcb;" horiz-adv-x="1196" d="M133 0v139h129v1258h-129v139h961v-379h-140v240h-524v-533h289v146h139v-430h-139v145h-289v-586h524v240h140v-379h-961zM358 1745q0 35 26.5 62.5t61.5 27.5q36 0 62.5 -27t26.5 -63q0 -38 -26.5 -64t-64.5 -26q-34 0 -60 26t-26 64zM662 1745q0 35 26.5 62.5 t61.5 27.5q36 0 62 -27t26 -63q0 -38 -26 -64t-64 -26q-34 0 -60 26t-26 64z" />
<glyph unicode="&#xcc;" horiz-adv-x="757" d="M164 0v139h129v1258h-129v139h430v-139h-133v-1258h133v-139h-430zM197 1909h145l219 -252h-149z" />
<glyph unicode="&#xcd;" horiz-adv-x="757" d="M164 0v139h129v1258h-129v139h430v-139h-133v-1258h133v-139h-430zM197 1657l219 252h145l-215 -252h-149z" />
<glyph unicode="&#xce;" horiz-adv-x="757" d="M86 1657l229 252h138l219 -252h-150l-141 164l-143 -164h-152zM164 0v139h129v1258h-129v139h430v-139h-133v-1258h133v-139h-430z" />
<glyph unicode="&#xcf;" horiz-adv-x="757" d="M139 1745q0 35 26.5 62.5t61.5 27.5q36 0 62 -27t26 -63q0 -38 -26 -64t-64 -26q-34 0 -60 26t-26 64zM164 0v139h129v1258h-129v139h430v-139h-133v-1258h133v-139h-430zM442 1745q0 35 26.5 62.5t61.5 27.5q36 0 62 -27t26 -63q0 -38 -26 -64t-64 -26q-34 0 -60 26 t-26 64z" />
<glyph unicode="&#xd0;" horiz-adv-x="1236" d="M115 727v135h137v535h-129v139h723q148 0 208 -64t60 -204v-1000q0 -140 -65 -204t-203 -64h-723v139h129v588h-137zM420 139h526v1258h-526v-535h291v-135h-291v-588z" />
<glyph unicode="&#xd1;" horiz-adv-x="1472" d="M133 0v139h129v1258h-129v139h316l593 -1221v1082h-133v139h430v-139h-129v-1397h-200l-580 1196v-1057h133v-139h-430zM397 1733q17 47 74.5 101t116.5 54q46 0 104.5 -28t106.5 -56t69 -28q37 0 73 30t54 70l78 -57q-17 -48 -78 -103t-127 -55q-33 0 -73 17.5t-70.5 38 t-68 38t-66.5 17.5q-34 0 -57 -21.5t-52 -79.5z" />
<glyph unicode="&#xd2;" d="M123 248v1016q0 139 48 205.5t179 66.5h400q123 0 180 -67.5t57 -204.5v-985q0 -150 -50.5 -214.5t-176.5 -64.5h-393q-134 0 -189 63.5t-55 184.5zM287 139h536v1258h-536v-1258zM373 1909h145l219 -252h-149z" />
<glyph unicode="&#xd3;" d="M123 248v1016q0 139 48 205.5t179 66.5h400q123 0 180 -67.5t57 -204.5v-985q0 -150 -50.5 -214.5t-176.5 -64.5h-393q-134 0 -189 63.5t-55 184.5zM287 139h536v1258h-536v-1258zM373 1657l219 252h145l-215 -252h-149z" />
<glyph unicode="&#xd4;" d="M123 248v1016q0 139 48 205.5t179 66.5h400q123 0 180 -67.5t57 -204.5v-985q0 -150 -50.5 -214.5t-176.5 -64.5h-393q-134 0 -189 63.5t-55 184.5zM262 1657l230 252h137l219 -252h-150l-141 164l-143 -164h-152zM287 139h536v1258h-536v-1258z" />
<glyph unicode="&#xd5;" d="M123 248v1016q0 139 48 205.5t179 66.5h400q123 0 180 -67.5t57 -204.5v-985q0 -150 -50.5 -214.5t-176.5 -64.5h-393q-134 0 -189 63.5t-55 184.5zM217 1733q17 47 74.5 101t116.5 54q46 0 104.5 -28t106.5 -56t69 -28q37 0 73 30t54 70l78 -57q-17 -48 -78 -103 t-127 -55q-33 0 -73 17.5t-70.5 38t-68 38t-66.5 17.5q-34 0 -57 -21.5t-52 -79.5zM287 139h536v1258h-536v-1258z" />
<glyph unicode="&#xd6;" d="M123 248v1016q0 139 48 205.5t179 66.5h400q123 0 180 -67.5t57 -204.5v-985q0 -150 -50.5 -214.5t-176.5 -64.5h-393q-134 0 -189 63.5t-55 184.5zM287 139h536v1258h-536v-1258zM315 1745q0 35 26.5 62.5t61.5 27.5q36 0 62.5 -27t26.5 -63q0 -38 -26.5 -64t-64.5 -26 q-34 0 -60 26t-26 64zM618 1745q0 35 27 62.5t62 27.5q36 0 62 -27t26 -63q0 -38 -26 -64t-64 -26q-35 0 -61 26.5t-26 63.5z" />
<glyph unicode="&#xd7;" horiz-adv-x="763" d="M10 524l273 273l-271 270l94 96l273 -270l272 274l103 -102l-275 -274l271 -271l-95 -94l-272 270l-272 -272z" />
<glyph unicode="&#xd8;" d="M123 248v1016q0 139 48 205.5t179 66.5h352l39 137h138l-43 -149q151 -42 151 -260v-985q0 -150 -50.5 -214.5t-176.5 -64.5h-357l-43 -156h-139l47 166q-79 22 -112 82t-33 156zM287 139h18l357 1258h-375v-1258zM444 139h379v1258h-22z" />
<glyph unicode="&#xd9;" horiz-adv-x="1396" d="M123 1397v139h430v-139h-133v-1258h557v1258h-133v139h430v-139h-129v-1184q0 -109 -45.5 -161t-138.5 -52h-527q-182 0 -182 203v1194h-129zM516 1909h146l219 -252h-150z" />
<glyph unicode="&#xda;" horiz-adv-x="1396" d="M123 1397v139h430v-139h-133v-1258h557v1258h-133v139h430v-139h-129v-1184q0 -109 -45.5 -161t-138.5 -52h-527q-182 0 -182 203v1194h-129zM516 1657l219 252h146l-215 -252h-150z" />
<glyph unicode="&#xdb;" horiz-adv-x="1396" d="M123 1397v139h430v-139h-133v-1258h557v1258h-133v139h430v-139h-129v-1184q0 -109 -45.5 -161t-138.5 -52h-527q-182 0 -182 203v1194h-129zM406 1657l229 252h137l219 -252h-149l-142 164l-143 -164h-151z" />
<glyph unicode="&#xdc;" horiz-adv-x="1396" d="M123 1397v139h430v-139h-133v-1258h557v1258h-133v139h430v-139h-129v-1184q0 -109 -45.5 -161t-138.5 -52h-527q-182 0 -182 203v1194h-129zM459 1745q0 35 26.5 62.5t61.5 27.5q36 0 62 -27t26 -63q0 -38 -26 -64t-64 -26q-34 0 -60 26t-26 64zM762 1745 q0 35 26.5 62.5t61.5 27.5q36 0 62 -27t26 -63q0 -38 -26 -64t-64 -26q-34 0 -60 26t-26 64z" />
<glyph unicode="&#xdd;" horiz-adv-x="1138" d="M51 1397v139h332v-139h-74l260 -500l267 500h-74v139h325v-139h-77l-359 -641v-617h133v-139h-430v139h129v617l-340 641h-92zM387 1657l219 252h146l-215 -252h-150z" />
<glyph unicode="&#xde;" horiz-adv-x="1216" d="M133 0v139h129v1256h-129v141h430v-141h-131v-127h432q136 0 183 -51.5t47 -202.5v-150q0 -28 -1.5 -50.5t-8 -42.5t-10.5 -33.5t-18.5 -29.5t-21.5 -24t-29.5 -23.5t-33 -22.5t-41.5 -25.5t-47 -28.5l-453 -283v-162h133v-139h-430zM430 465l514 317v344h-514v-661z" />
<glyph unicode="&#xdf;" horiz-adv-x="1124" d="M102 0v139h164v1184q0 113 44.5 163t138.5 50h280q119 0 175.5 -67.5t56.5 -176.5v-264q0 -76 -36 -130.5t-83 -59.5q57 -7 108 -65t51 -150v-349q0 -136 -69.5 -205t-218.5 -69h-148v139h269v615h-269v153h238v490h-377v-1397h-324z" />
<glyph unicode="&#xe0;" horiz-adv-x="1009" d="M41 180v76q0 74 23 107.5t116 89.5l451 280v152h-402v-119h-131v258h512q100 0 144.5 -43.5t44.5 -132.5v-709h129v-139h-713q-103 0 -138.5 39t-35.5 141zM205 139h426v430l-426 -266v-164zM322 1397h145l219 -252h-149z" />
<glyph unicode="&#xe1;" horiz-adv-x="1009" d="M41 180v76q0 74 23 107.5t116 89.5l451 280v152h-402v-119h-131v258h512q100 0 144.5 -43.5t44.5 -132.5v-709h129v-139h-713q-103 0 -138.5 39t-35.5 141zM205 139h426v430l-426 -266v-164zM322 1145l219 252h145l-215 -252h-149z" />
<glyph unicode="&#xe2;" horiz-adv-x="1009" d="M41 180v76q0 74 23 107.5t116 89.5l451 280v152h-402v-119h-131v258h512q100 0 144.5 -43.5t44.5 -132.5v-709h129v-139h-713q-103 0 -138.5 39t-35.5 141zM131 1145l229 252h138l219 -252h-150l-141 164l-143 -164h-152zM205 139h426v430l-426 -266v-164z" />
<glyph unicode="&#xe3;" horiz-adv-x="1009" d="M41 180v76q0 74 23 107.5t116 89.5l451 280v152h-402v-119h-131v258h512q100 0 144.5 -43.5t44.5 -132.5v-709h129v-139h-713q-103 0 -138.5 39t-35.5 141zM92 1221q17 47 74.5 101t116.5 54q46 0 104.5 -28t106.5 -56t69 -28q37 0 73 30t54 70l78 -57q-17 -48 -78 -103 t-127 -55q-51 0 -143 55.5t-135 55.5q-34 0 -57 -21.5t-52 -79.5zM205 139h426v430l-426 -266v-164z" />
<glyph unicode="&#xe4;" horiz-adv-x="1009" d="M41 180v76q0 74 23 107.5t116 89.5l451 280v152h-402v-119h-131v258h512q100 0 144.5 -43.5t44.5 -132.5v-709h129v-139h-713q-103 0 -138.5 39t-35.5 141zM176 1233q0 35 26.5 62.5t61.5 27.5q36 0 62 -27t26 -63q0 -38 -26 -64t-64 -26q-34 0 -60 26t-26 64zM205 139 h426v430l-426 -266v-164zM479 1233q0 35 26.5 62.5t61.5 27.5q36 0 62 -27t26 -63q0 -38 -26 -64t-64 -26q-34 0 -60 26t-26 64z" />
<glyph unicode="&#xe5;" horiz-adv-x="1009" d="M41 180v76q0 74 23 107.5t116 89.5l451 280v152h-402v-119h-131v258h512q100 0 144.5 -43.5t44.5 -132.5v-709h129v-139h-713q-103 0 -138.5 39t-35.5 141zM205 139h426v430l-426 -266v-164zM240 1276q0 75 54 128.5t130 53.5q74 0 127 -53.5t53 -128.5t-53.5 -128.5 t-128.5 -53.5t-128.5 54t-53.5 128zM340 1278q0 -34 24 -59t58 -25q35 0 59.5 24.5t24.5 57.5q0 35 -24.5 59.5t-57.5 24.5q-35 0 -59.5 -24t-24.5 -58z" />
<glyph unicode="&#xe6;" horiz-adv-x="1454" d="M102 180v72q0 75 24 110t116 91l409 241v191h-360v-119h-131v258h1001q102 0 146.5 -39.5t44.5 -140.5v-191l-541 -336v-178h379v119h162v-108q0 -66 -40.5 -108t-123.5 -42h-912q-103 0 -138.5 39t-35.5 141zM266 139h385v391l-385 -227v-164zM811 483l377 232v170h-377 v-402z" />
<glyph unicode="&#xe7;" horiz-adv-x="872" d="M102 180v664q0 88 49 135t146 47h494v-260h-140v119h-385v-746h385v119h140v-258h-408v-86h76q75 0 113 -37.5t38 -105.5v-76q0 -65 -29.5 -102t-109.5 -37h-209v108h221v137h-221v199q-90 4 -125 52t-35 128z" />
<glyph unicode="&#xe8;" horiz-adv-x="952" d="M102 150v673q0 101 51 152t160 51h346q102 0 146.5 -40.5t44.5 -141.5v-191l-584 -368v-146h422v119h162v-108q0 -66 -40.5 -108t-123.5 -42h-420q-83 0 -123.5 42t-40.5 108zM266 451l420 264v170h-420v-434zM293 1397h145l219 -252h-149z" />
<glyph unicode="&#xe9;" horiz-adv-x="952" d="M102 150v673q0 101 51 152t160 51h346q102 0 146.5 -40.5t44.5 -141.5v-191l-584 -368v-146h422v119h162v-108q0 -66 -40.5 -108t-123.5 -42h-420q-83 0 -123.5 42t-40.5 108zM266 451l420 264v170h-420v-434zM293 1145l219 252h145l-215 -252h-149z" />
<glyph unicode="&#xea;" horiz-adv-x="952" d="M102 150v673q0 101 51 152t160 51h346q102 0 146.5 -40.5t44.5 -141.5v-191l-584 -368v-146h422v119h162v-108q0 -66 -40.5 -108t-123.5 -42h-420q-83 0 -123.5 42t-40.5 108zM182 1145l230 252h137l219 -252h-150l-141 164l-143 -164h-152zM266 451l420 264v170h-420 v-434z" />
<glyph unicode="&#xeb;" horiz-adv-x="952" d="M102 150v673q0 101 51 152t160 51h346q102 0 146.5 -40.5t44.5 -141.5v-191l-584 -368v-146h422v119h162v-108q0 -66 -40.5 -108t-123.5 -42h-420q-83 0 -123.5 42t-40.5 108zM236 1233q0 35 26.5 62.5t61.5 27.5q36 0 62 -27t26 -63q0 -38 -26 -64t-64 -26q-34 0 -60 26 t-26 64zM266 451l420 264v170h-420v-434zM539 1233q0 35 26.5 62.5t61.5 27.5q36 0 62 -27t26 -63q0 -38 -26 -64t-64 -26q-34 0 -60 26t-26 64z" />
<glyph unicode="&#xec;" horiz-adv-x="614" d="M102 0v139h129v746h-129v139h297v-885h133v-139h-430zM125 1397h145l219 -252h-149z" />
<glyph unicode="&#xed;" horiz-adv-x="614" d="M102 0v139h129v746h-129v139h297v-885h133v-139h-430zM125 1145l219 252h145l-215 -252h-149z" />
<glyph unicode="&#xee;" horiz-adv-x="630" d="M-2 1145l229 252h138l219 -252h-150l-141 164l-143 -164h-152zM119 0v139h129v746h-129v139h297v-885h133v-139h-430z" />
<glyph unicode="&#xef;" horiz-adv-x="614" d="M68 1233q0 35 26.5 62.5t61.5 27.5q36 0 62 -27t26 -63q0 -38 -26 -64t-64 -26q-34 0 -60 26t-26 64zM102 0v139h129v746h-129v139h297v-885h133v-139h-430zM371 1233q0 35 26.5 62.5t61.5 27.5q36 0 62 -27t26 -63q0 -38 -26 -64t-64 -26q-34 0 -60 26t-26 64z" />
<glyph unicode="&#xf0;" horiz-adv-x="942" d="M68 1014l233 192l-225 92v140l346 -131l219 180h178l-276 -225l133 -50q100 -37 138 -93.5t38 -137.5v-801q0 -87 -40 -132.5t-146 -45.5h-377q-111 0 -149 44t-38 134v223q0 80 43 135.5t144 112.5l413 264v52q0 27 -4 44.5t-24 37.5t-56 32l-200 78l-180 -145h-170z M254 137h448v613l-448 -281v-332z" />
<glyph unicode="&#xf1;" horiz-adv-x="1163" d="M82 0v139h129v748h-129v137h295v-213l340 213q33 20 74 20q159 0 159 -157v-748h131v-139h-395v139h98v762l-407 -256v-506h100v-139h-395zM244 1221q17 47 74 101t116 54q46 0 104.5 -28t107 -56t69.5 -28q37 0 73 30t54 70l78 -57q-17 -48 -78 -103t-127 -55 q-33 0 -73 17.5t-71 38t-68.5 38t-66.5 17.5q-34 0 -56.5 -21t-51.5 -80z" />
<glyph unicode="&#xf2;" horiz-adv-x="923" d="M82 182v660q0 90 41 136t149 46h379q106 0 148.5 -46.5t42.5 -135.5v-660q0 -182 -191 -182h-379q-100 0 -145 46.5t-45 135.5zM248 139h428v746h-428v-746zM279 1397h145l219 -252h-149z" />
<glyph unicode="&#xf3;" horiz-adv-x="923" d="M82 182v660q0 90 41 136t149 46h379q106 0 148.5 -46.5t42.5 -135.5v-660q0 -182 -191 -182h-379q-100 0 -145 46.5t-45 135.5zM248 139h428v746h-428v-746zM279 1145l219 252h145l-215 -252h-149z" />
<glyph unicode="&#xf4;" horiz-adv-x="923" d="M82 182v660q0 90 41 136t149 46h379q106 0 148.5 -46.5t42.5 -135.5v-660q0 -182 -191 -182h-379q-100 0 -145 46.5t-45 135.5zM168 1145l229 252h138l219 -252h-150l-141 164l-144 -164h-151zM248 139h428v746h-428v-746z" />
<glyph unicode="&#xf5;" horiz-adv-x="923" d="M82 182v660q0 90 41 136t149 46h379q106 0 148.5 -46.5t42.5 -135.5v-660q0 -182 -191 -182h-379q-100 0 -145 46.5t-45 135.5zM123 1221q17 47 74 101t116 54q46 0 104.5 -28t107 -56t69.5 -28q37 0 73 30t54 70l78 -57q-17 -48 -78 -103t-127 -55q-33 0 -73 17.5 t-71 38t-68.5 38t-66.5 17.5q-34 0 -56.5 -21t-51.5 -80zM248 139h428v746h-428v-746z" />
<glyph unicode="&#xf6;" horiz-adv-x="923" d="M82 182v660q0 90 41 136t149 46h379q106 0 148.5 -46.5t42.5 -135.5v-660q0 -182 -191 -182h-379q-100 0 -145 46.5t-45 135.5zM221 1233q0 35 26.5 62.5t61.5 27.5q36 0 62 -27t26 -63q0 -38 -26 -64t-64 -26q-34 0 -60 26t-26 64zM248 139h428v746h-428v-746zM524 1233 q0 35 26.5 62.5t61.5 27.5q36 0 62 -27t26 -63q0 -38 -26 -64t-64 -26q-34 0 -60 26t-26 64z" />
<glyph unicode="&#xf7;" horiz-adv-x="741" d="M31 725v135h674v-135h-674zM262 524q0 41 32 74t73 33q42 0 72 -32.5t30 -74.5q0 -44 -30 -74t-74 -30q-41 0 -72 30.5t-31 73.5zM262 1069q0 43 32 75t73 32q42 0 72 -32t30 -75q0 -46 -30 -76t-74 -30q-41 0 -72 30.5t-31 75.5z" />
<glyph unicode="&#xf8;" horiz-adv-x="923" d="M82 182v660q0 90 41 136t149 46h279l39 129h145l-39 -131q80 -10 113 -56t33 -124v-660q0 -182 -191 -182h-262l-51 -174h-145l51 174q-86 7 -124 53.5t-38 128.5zM248 139h37l223 746h-260v-746zM432 139h244v746h-21z" />
<glyph unicode="&#xf9;" horiz-adv-x="1163" d="M82 887v139h297v-887l407 256v492h-100v139h266v-887h129v-139h-295v229l-340 -213q-33 -20 -73 -20q-160 0 -160 158v733h-131zM399 1397h146l219 -252h-150z" />
<glyph unicode="&#xfa;" horiz-adv-x="1163" d="M82 887v139h297v-887l407 256v492h-100v139h266v-887h129v-139h-295v229l-340 -213q-33 -20 -73 -20q-160 0 -160 158v733h-131zM399 1145l219 252h146l-215 -252h-150z" />
<glyph unicode="&#xfb;" horiz-adv-x="1163" d="M82 887v139h297v-887l407 256v492h-100v139h266v-887h129v-139h-295v229l-340 -213q-33 -20 -73 -20q-160 0 -160 158v733h-131zM289 1145l229 252h137l219 -252h-149l-141 164l-144 -164h-151z" />
<glyph unicode="&#xfc;" horiz-adv-x="1163" d="M82 887v139h297v-887l407 256v492h-100v139h266v-887h129v-139h-295v229l-340 -213q-33 -20 -73 -20q-160 0 -160 158v733h-131zM342 1233q0 35 26.5 62.5t61.5 27.5q36 0 62 -27t26 -63q0 -38 -26 -64t-64 -26q-34 0 -60 26t-26 64zM645 1233q0 35 26.5 62.5t61.5 27.5 q36 0 62 -27t26 -63q0 -38 -26 -64t-64 -26q-34 0 -60 26t-26 64z" />
<glyph unicode="&#xfd;" horiz-adv-x="1054" d="M82 885v139h297v-883l407 256v488h-100v139h266v-1296q0 -89 -44 -133t-144 -44h-473v279h139v-137h354v538l-360 -223q-48 -28 -94 -28q-51 0 -84 33.5t-33 99.5v772h-131zM344 1145l219 252h146l-215 -252h-150z" />
<glyph unicode="&#xfe;" horiz-adv-x="1079" d="M82 1395v141h297v-745l354 223q49 30 103 30q60 0 100.5 -35.5t40.5 -97.5v-718q0 -95 -38.5 -144t-145.5 -49h-414v-373h135v-139h-430v139h127v1768h-129zM379 139h434v760l-434 -272v-488z" />
<glyph unicode="&#xff;" horiz-adv-x="1054" d="M82 885v139h297v-883l407 256v488h-100v139h266v-1296q0 -89 -44 -133t-144 -44h-473v279h139v-137h354v538l-360 -223q-48 -28 -94 -28q-51 0 -84 33.5t-33 99.5v772h-131zM287 1233q0 35 26.5 62.5t61.5 27.5q36 0 62 -27t26 -63q0 -38 -26 -64t-64 -26q-34 0 -60 26 t-26 64zM590 1233q0 35 26.5 62.5t61.5 27.5q36 0 62 -27t26 -63q0 -38 -26 -64t-64 -26q-34 0 -60 26t-26 64z" />
<glyph unicode="&#x152;" horiz-adv-x="1677" d="M123 248v1016q0 139 48 205.5t179 66.5h1204v-379h-139v240h-477v-545l352 223v-166l-352 -219v-551h477v240h139v-379h-1187q-134 0 -189 63.5t-55 184.5zM287 139h483v445l-129 -82v166l129 82v647h-483v-1258z" />
<glyph unicode="&#x153;" horiz-adv-x="1523" d="M123 182v660q0 90 41 136t149 46h897q102 0 146.5 -39.5t44.5 -140.5v-191l-561 -368v-146h399v119h162v-108q0 -66 -40.5 -108t-123.5 -42h-924q-100 0 -145 46.5t-45 135.5zM289 139h387v746h-387v-746zM840 885l2 -434l395 264v170h-397z" />
<glyph unicode="&#x178;" horiz-adv-x="1138" d="M51 1397v139h332v-139h-74l260 -500l267 500h-74v139h325v-139h-77l-359 -641v-617h133v-139h-430v139h129v617l-340 641h-92zM330 1745q0 35 26.5 62.5t61.5 27.5q36 0 62 -27t26 -63q0 -38 -26 -64t-64 -26q-34 0 -60 26t-26 64zM633 1745q0 35 26.5 62.5t61.5 27.5 q36 0 62 -27t26 -63q0 -38 -26 -64t-64 -26q-34 0 -60 26t-26 64z" />
<glyph unicode="&#x2c6;" horiz-adv-x="598" d="M6 1145l230 252h137l219 -252h-150l-141 164l-143 -164h-152z" />
<glyph unicode="&#x2dc;" horiz-adv-x="686" d="M6 1221q17 47 74.5 101t116.5 54q46 0 104.5 -28t106.5 -56t69 -28q37 0 73 30t54 70l78 -57q-17 -48 -78 -103t-127 -55q-51 0 -143 55.5t-135 55.5q-34 0 -57 -21.5t-52 -79.5z" />
<glyph unicode="&#x2000;" horiz-adv-x="985" />
<glyph unicode="&#x2001;" horiz-adv-x="1970" />
<glyph unicode="&#x2002;" horiz-adv-x="985" />
<glyph unicode="&#x2003;" horiz-adv-x="1970" />
<glyph unicode="&#x2004;" horiz-adv-x="656" />
<glyph unicode="&#x2005;" horiz-adv-x="492" />
<glyph unicode="&#x2006;" horiz-adv-x="328" />
<glyph unicode="&#x2007;" horiz-adv-x="328" />
<glyph unicode="&#x2008;" horiz-adv-x="246" />
<glyph unicode="&#x2009;" horiz-adv-x="394" />
<glyph unicode="&#x200a;" horiz-adv-x="109" />
<glyph unicode="&#x2010;" horiz-adv-x="923" d="M164 725v135h596v-135h-596z" />
<glyph unicode="&#x2011;" horiz-adv-x="923" d="M164 725v135h596v-135h-596z" />
<glyph unicode="&#x2012;" horiz-adv-x="923" d="M164 725v135h596v-135h-596z" />
<glyph unicode="&#x2013;" horiz-adv-x="1236" d="M164 725v135h909v-135h-909z" />
<glyph unicode="&#x2014;" horiz-adv-x="1499" d="M164 725v135h1190v-135h-1190z" />
<glyph unicode="&#x2018;" horiz-adv-x="362" d="M4 1044l154 492h151l-155 -492h-150z" />
<glyph unicode="&#x2019;" horiz-adv-x="362" d="M4 1044l154 492h151l-155 -492h-150z" />
<glyph unicode="&#x201a;" horiz-adv-x="387" d="M20 -305l154 491h152l-156 -491h-150z" />
<glyph unicode="&#x201c;" horiz-adv-x="702" d="M4 1044l154 492h151l-155 -492h-150zM367 1044l153 492h152l-156 -492h-149z" />
<glyph unicode="&#x201d;" horiz-adv-x="702" d="M4 1044l154 492h151l-155 -492h-150zM367 1044l153 492h152l-156 -492h-149z" />
<glyph unicode="&#x201e;" horiz-adv-x="749" d="M20 -307l154 491h152l-156 -491h-150zM383 -307l154 491h151l-156 -491h-149z" />
<glyph unicode="&#x2022;" horiz-adv-x="847" d="M178 782q0 107 77 184t187 78q107 0 182.5 -76.5t75.5 -185.5q-2 -111 -76.5 -188.5t-181.5 -77.5q-109 0 -185.5 78t-78.5 188z" />
<glyph unicode="&#x2026;" horiz-adv-x="1247" d="M82 96q0 42 31.5 74.5t72.5 32.5q42 0 72.5 -32.5t30.5 -74.5q0 -44 -30.5 -74t-74.5 -30q-41 0 -71.5 30.5t-30.5 73.5zM520 96q0 41 32 74t73 33q42 0 72 -32.5t30 -74.5q0 -44 -30 -74t-74 -30q-41 0 -72 30.5t-31 73.5zM958 96q0 41 32 74t73 33q42 0 72 -32.5 t30 -74.5q0 -44 -30 -74t-74 -30q-41 0 -72 30.5t-31 73.5z" />
<glyph unicode="&#x202f;" horiz-adv-x="394" />
<glyph unicode="&#x2039;" horiz-adv-x="514" d="M61 553l316 434l117 -82l-261 -352l261 -320l-113 -83z" />
<glyph unicode="&#x203a;" horiz-adv-x="514" d="M20 231l261 353l-261 319l113 84l320 -403l-316 -434z" />
<glyph unicode="&#x205f;" horiz-adv-x="492" />
<glyph unicode="&#x20ac;" horiz-adv-x="1157" d="M82 532v138h123v219h-123v137h123v289q0 42 10 79.5t32 70.5t63 52t96 19h649v-276h-140v137h-542v-371h508v-137h-508v-219h508v-138h-508v-393h542v131h140v-270h-629q-117 0 -169 60t-52 159v313h-123z" />
<glyph unicode="&#x2122;" horiz-adv-x="1552" d="M41 1296v240h549v-240h-111v125h-100v-450h104v-111h-336v111h105v450h-96v-125h-115zM659 860v111h89v454h-89v111h256l170 -336l170 336h256v-111h-86v-454h86v-111h-299v111h91v413l-179 -360h-82l-176 356v-409h92v-111h-299z" />
<glyph unicode="&#x25fc;" horiz-adv-x="1024" d="M0 0v1024h1024v-1024h-1024z" />
</font>
</defs>
</svg>
