<?xml version="1.0" standalone="no"?>
<!DOCTYPE svg PUBLIC "-//W3C//DTD SVG 1.1//EN" "http://www.w3.org/Graphics/SVG/1.1/DTD/svg11.dtd" >
<svg xmlns="http://www.w3.org/2000/svg">
<metadata></metadata>
<defs>
<font id="elsieblack" horiz-adv-x="1527" >
<font-face units-per-em="2048" ascent="1638" descent="-410" />
<missing-glyph horiz-adv-x="512" />
<glyph unicode="&#x2e;&#x2e;&#x2e;" horiz-adv-x="1671" d="M109 174q0 82 56 138.5t138 56.5t138.5 -56.5t56.5 -138.5t-56.5 -138t-138.5 -56t-138 56t-56 138zM641 174q0 82 56.5 138.5t138.5 56.5t138 -56.5t56 -138.5t-56 -138t-138 -56t-138.5 56t-56.5 138zM1174 174q0 82 56 138.5t138 56.5t138.5 -56.5t56.5 -138.5 t-56.5 -138t-138.5 -56t-138 56t-56 138z" />
<glyph unicode="&#xfb02;" horiz-adv-x="1435" d="M33 18v33h127v877h-127v33h127v79q0 207 87 320t259 113q84 0 149 -39h2h95v-33h-50q70 -67 70 -168q0 -93 -60.5 -148t-140.5 -55q-85 0 -140.5 53.5t-55.5 135.5q0 81 48 136.5t150 71.5q-45 9 -67 9q-108 0 -166.5 -64t-58.5 -155q0 -117 83 -186.5t220 -69.5h116v-33 h-153v-877h153v-33h-667zM412 1223q0 -64 40.5 -110t120.5 -46q64 0 113 46t49 120q0 110 -94 168q-118 -4 -173.5 -48.5t-55.5 -129.5zM752 1401v33h122q226 0 410 39v-1422h131v-33h-645v33h127v1350h-145z" />
<glyph horiz-adv-x="0" />
<glyph horiz-adv-x="0" />
<glyph horiz-adv-x="682" />
<glyph unicode=" "  horiz-adv-x="512" />
<glyph unicode="&#x09;" horiz-adv-x="512" />
<glyph unicode="&#xa0;" horiz-adv-x="512" />
<glyph unicode="!" horiz-adv-x="577" d="M61 1235q0 101 58.5 169.5t169.5 68.5t169 -68.5t58 -169.5q0 -65 -21.5 -125t-52 -115.5t-61.5 -122t-52.5 -173.5t-21.5 -240h-37q0 133 -21.5 240t-52 173.5t-61.5 122t-52.5 115.5t-21.5 125zM94 174q0 82 56.5 138.5t138.5 56.5t138 -56.5t56 -138.5t-56 -138 t-138 -56t-138.5 56t-56.5 138z" />
<glyph unicode="&#x22;" horiz-adv-x="405" d="M82 999v435h39v-435h-39zM272 999v435h39v-435h-39z" />
<glyph unicode="#" horiz-adv-x="1492" d="M145 287v43h320l106 317h-295v43h310l106 309h45l-106 -309h354l107 309h45l-107 -309h299v-43h-313l-107 -317h289v-43h-303l-104 -307h-46l105 307h-354l-105 -307h-45l105 307h-306zM510 330h354l107 317h-355z" />
<glyph unicode="$" horiz-adv-x="960" d="M82 -10v389h31q39 -196 123 -278.5t229 -84.5v291q-53 24 -75.5 35t-72 38t-74 46.5t-60 53t-53 65.5t-31 76.5t-13.5 93.5q0 157 109.5 241t279.5 84h8v127h41v-131q37 -5 124.5 -27t123.5 -22q26 0 42.5 12.5t19.5 25.5l4 13h32v-354h-32q-18 136 -104.5 220.5 t-209.5 96.5v-303q16 -8 52.5 -24t55.5 -25t53 -26t53.5 -29.5t47.5 -32t44.5 -37t36 -41.5t29.5 -48t17 -54t7 -62q0 -71 -21.5 -128t-58.5 -95t-90.5 -64t-113.5 -38t-130 -14v-107h-41v107q-78 3 -165.5 32t-102.5 29q-23 0 -44 -12.5t-31 -25.5l-9 -13h-31zM324 889 q0 -54 41 -94t118 -78v287q-70 -2 -114.5 -31t-44.5 -84zM506 16q162 13 162 129q0 40 -41 73t-121 71v-273z" />
<glyph unicode="%" horiz-adv-x="2011" d="M61 956q0 210 118 344t300 134q56 0 112.5 -19.5t105 -46.5t98 -54.5t110.5 -47t125 -19.5q67 0 127.5 16.5t101.5 40.5t75 54.5t51.5 54t27.5 43.5l19 33l34 -14l-866 -1510l-29 19l754 1316q-136 -90 -295 -90q-96 0 -194 41q82 -127 82 -295q0 -210 -121.5 -342.5 t-307.5 -132.5t-307 132.5t-121 342.5zM371 956q0 -134 8.5 -224t26 -135t37 -62t46.5 -17t47 17.5t37 63t26 135t9 222.5q0 134 -9 224t-26 135.5t-37 63.5t-47 18t-46.5 -18.5t-36.5 -64.5t-26 -136t-9 -222zM1094 455q0 212 121 344.5t307 132.5t307 -132.5t121 -344.5 q0 -210 -121 -342.5t-307 -132.5t-307 132.5t-121 342.5zM1403 455q0 -134 9 -224t26.5 -135.5t37 -62.5t46.5 -17t46.5 18t36.5 63.5t26 135t9 222.5q0 134 -9 224t-26 135.5t-36.5 63t-46.5 17.5t-47 -18t-37 -64t-26 -136t-9 -222z" />
<glyph unicode="&#x26;" horiz-adv-x="1353" d="M47 389q0 145 110.5 247t311.5 142l-4 21q-182 0 -275.5 80t-93.5 194q0 63 33 122.5t94 108t158 78t215 29.5q105 0 192 -29t136 -86q49 -55 49 -127q0 -77 -47 -130.5t-127 -53.5q-68 0 -115 43t-47 111q0 62 38.5 103.5t98.5 41.5q55 0 90 -41q3 -4 8 -10.5t8 -10.5 t7.5 -7t9.5 -3q18 0 18 19q0 20 -43 61q-33 30 -88.5 50t-113.5 20q-92 0 -147.5 -69t-55.5 -218q0 -99 44.5 -172.5t127.5 -73.5q23 0 53.5 7.5t49.5 14.5l20 7l10 -37q-166 -70 -226.5 -158t-60.5 -251q0 -167 82 -261t232 -94q55 0 111.5 20t104.5 57t78.5 97.5 t30.5 133.5q0 115 -63 176t-166 61q-36 0 -72.5 -11.5t-68.5 -34.5t-52 -61.5t-20 -86.5q0 -51 20.5 -86.5t45.5 -53.5q18 -12 30 -12q19 0 19 18q0 5 -3 9.5t-7 7.5t-10.5 8t-10.5 8q-41 35 -41 90q0 59 41.5 97t103.5 38q68 0 111 -46t43 -113q0 -80 -53.5 -127 t-130.5 -47q-94 0 -158 69.5t-64 173.5q0 84 38 149t101 103t131 58t142 26q184 13 249 29q148 34 178 137q9 30 9 66q0 92 -65 139q-18 12 -31 12q-18 0 -18 -18q0 -5 3 -9.5t6.5 -7.5t10 -8t10.5 -8q41 -35 41 -90q0 -59 -41.5 -97t-103.5 -38q-68 0 -111 46t-43 113 q0 80 54 127.5t131 47.5q93 0 154 -73t61 -179q0 -67 -25.5 -124t-66.5 -94.5t-90.5 -66.5t-99.5 -45t-91 -26.5t-67 -13.5l-25 -3q46 -27 76 -90t30 -137q0 -54 -16 -106t-55 -103.5t-96.5 -90.5t-148.5 -63t-204 -24q-138 0 -245 25t-172 65t-107 95t-58 109.5t-16 114.5z " />
<glyph unicode="'" horiz-adv-x="864" d="M362 999v435h39v-435h-39z" />
<glyph unicode="(" horiz-adv-x="907" d="M143 506q0 144 32 280t96.5 253.5t154.5 205.5t214 138.5t267 50.5v-33q-448 0 -448 -895q0 -893 448 -893v-33q-143 0 -267 50.5t-214 138.5t-154.5 205t-96.5 252.5t-32 279.5z" />
<glyph unicode=")" horiz-adv-x="907" d="M0 -387q449 0 449 893q0 895 -449 895v33q143 0 267 -50.5t214 -138.5t154.5 -205.5t96.5 -253.5t32 -280t-32 -279.5t-96.5 -252.5t-154.5 -205t-214 -138.5t-267 -50.5v33z" />
<glyph unicode="*" horiz-adv-x="671" d="M41 1026q0 45 33 74.5t88 29.5q20 0 57 -4t51 -4q19 0 39 8q-17 -10 -33.5 -44t-29 -68t-40.5 -61t-67 -27q-38 0 -68 27.5t-30 68.5zM41 1260q0 41 30 68.5t68 27.5q39 0 67 -27.5t40.5 -61t29 -68t33.5 -44.5q-15 6 -39 6q-14 0 -51 -3t-57 -3q-55 0 -88 29.5t-33 75.5 zM238 911q0 34 23 71.5t48 70t27 53.5q2 -21 26.5 -53.5t48 -70t23.5 -71.5q0 -41 -28.5 -68.5t-69.5 -27.5t-69.5 27.5t-28.5 68.5zM238 1374q0 40 28.5 69.5t69.5 29.5t69.5 -29.5t28.5 -69.5q0 -34 -23.5 -72t-48 -70.5t-26.5 -51.5q-2 19 -50 84t-48 110zM362 1130 q20 -8 39 -8q15 0 51.5 4t55.5 4q56 0 89.5 -29.5t33.5 -74.5q0 -41 -30.5 -68.5t-68.5 -27.5q-39 0 -67 27t-40.5 61t-29 68t-33.5 44zM362 1155q17 10 33.5 44.5t29 68t40.5 61t67 27.5q38 0 68.5 -27.5t30.5 -68.5q0 -46 -33.5 -75.5t-89.5 -29.5q-19 0 -55.5 3t-51.5 3 q-24 0 -39 -6z" />
<glyph unicode="+" horiz-adv-x="1214" d="M170 463v43h465v465h41v-465h465v-43h-465v-463h-41v463h-465z" />
<glyph unicode="," horiz-adv-x="675" d="M111 160q0 92 58 150.5t150 58.5q46 0 90.5 -16t83.5 -48t63 -87t24 -126q0 -253 -281 -387l-16 33q30 14 57 29.5t66.5 48t67.5 69t48.5 92t20.5 117.5q0 74 -31.5 126.5t-79.5 82.5q-34 19 -51 19q-7 0 -11.5 -5.5t-4.5 -11.5q0 -15 22 -24q86 -39 86 -138 q0 -73 -52.5 -118t-123.5 -45q-83 0 -134.5 54.5t-51.5 125.5z" />
<glyph unicode="-" horiz-adv-x="632" d="M106 463v43h406v-43h-406z" />
<glyph unicode="." horiz-adv-x="604" d="M109 172q0 83 56 139t136 56q83 0 139 -56t56 -139q0 -80 -56 -136t-139 -56q-79 0 -135.5 56t-56.5 136z" />
<glyph unicode="/" horiz-adv-x="712" d="M68 -233l585 1667l39 -13l-583 -1669z" />
<glyph unicode="0" horiz-adv-x="1163" d="M61 489q0 229 144 369.5t377 140.5t376.5 -140.5t143.5 -369.5t-143.5 -369t-376.5 -140t-377 140t-144 369zM463 489q0 -105 5 -184t17.5 -148t37 -105t59.5 -36t59.5 36t36.5 104.5t17 147.5t5 185q0 105 -5 184.5t-17.5 148t-36.5 105t-59 36.5t-59.5 -36.5 t-37 -105.5t-17.5 -148t-5 -184z" />
<glyph unicode="1" horiz-adv-x="862" d="M63 602q296 91 343 359q49 2 112.5 11.5t101.5 17.5l39 9v-948h177v-33h-740v33h176v608q-44 -30 -93.5 -53t-76.5 -31l-28 -8z" />
<glyph unicode="2" horiz-adv-x="1122" d="M53 18q0 150 63.5 250.5t164.5 153.5q40 21 93.5 45t80.5 36t59 33t47 43.5t25 58.5t10 85q0 93 -52 154t-145 61q-107 0 -186.5 -66.5t-79.5 -152.5q0 -25 19 -25q14 0 18 21q5 55 39 89t90 34q66 0 104.5 -45t38.5 -109q0 -67 -47 -113.5t-123 -46.5t-126 55.5 t-50 133.5q0 71 35 126.5t95 90t134.5 52t157.5 17.5q213 0 345 -68.5t132 -191.5q0 -37 -6.5 -68.5t-20.5 -56.5t-30 -45.5t-41.5 -36.5t-47.5 -28t-55.5 -21t-58.5 -15t-63.5 -11.5t-62.5 -8t-64 -6.5q-187 -17 -262 -61q-45 -26 -80 -60.5t-49 -62.5l12 -10 q49 41 116 64.5t197 23.5h432q58 0 83 22t28 74h31v-414h-1000z" />
<glyph unicode="3" horiz-adv-x="1046" d="M49 -129q0 91 50.5 149t136.5 58q79 0 122 -49t43 -117q0 -64 -42.5 -108t-100.5 -44q-47 0 -85 25t-46 74q-2 8 -2 24q0 21 -16 21q-23 0 -23 -35q0 -89 68.5 -148t140.5 -59q75 0 131.5 27.5t88.5 74t47.5 101.5t15.5 117q0 42 -4 81t-17 84t-33.5 77.5t-58 54.5 t-86.5 22q-15 0 -34 -5t-31 -10t-35.5 -16t-30.5 -14l-17 35q29 13 44 20t58 30t70.5 42.5t66 53.5t61.5 67t40 78t17 92q0 103 -66.5 179.5t-163.5 76.5q-93 0 -158 -64t-65 -149q0 -36 12 -63t27 -27q19 0 19 16q0 6 -6.5 17t-6.5 12q-10 18 -10 51q0 48 39 84.5t96 36.5 q69 0 112.5 -45.5t43.5 -108.5q0 -76 -46.5 -123t-117.5 -47q-87 0 -143 56t-56 139q0 55 31 112q45 78 137.5 125t222.5 47q81 0 154.5 -19t133.5 -56t96 -99t36 -141q0 -120 -109.5 -201t-314.5 -110l7 -19q128 30 242.5 -4.5t182.5 -120t68 -198.5q0 -92 -31 -170 t-93.5 -140.5t-169.5 -98.5t-247 -36q-173 0 -284 82t-111 203z" />
<glyph unicode="4" horiz-adv-x="1189" d="M-35 -33q12 9 33 26.5t81.5 75.5t117 119.5t128 154.5t126 185.5t99 208t58.5 226.5q94 5 143.5 11.5t122.5 24.5v-960h304v-107h-304v-329h-387v329h-522v35zM111 39h376v455h-10q-84 -128 -175.5 -239.5t-141.5 -159.5l-49 -48v-8z" />
<glyph unicode="5" horiz-adv-x="1091" d="M106 -145q0 78 49 133t140 55q71 0 117.5 -44t46.5 -120q0 -66 -45.5 -106.5t-100.5 -40.5q-56 0 -87 28t-40 68q-6 24 -6 29q-3 16 -18 16q-19 0 -19 -23q0 -87 61.5 -144.5t145.5 -57.5q250 0 250 372q0 147 -57 234.5t-140 87.5q-57 0 -115 -40t-106 -118h-37v777h619 q58 0 82.5 22t27.5 74h37v-434h-725v-353h15q66 81 171.5 124.5t221.5 43.5q81 0 155 -25t133.5 -72.5t94.5 -124t35 -171.5q0 -217 -143 -341t-390 -124q-98 0 -173 24.5t-117 65.5t-62.5 88t-20.5 97z" />
<glyph unicode="6" horiz-adv-x="1210" d="M63 678q0 128 22 236.5t69 198t117 152t170.5 96.5t224.5 34q183 0 288 -83.5t105 -197.5q0 -78 -49.5 -133t-126.5 -55q-75 0 -121.5 48.5t-46.5 115.5q0 63 37.5 106t103.5 43q56 0 90 -34t39 -89q3 -20 19 -20q18 0 18 24q0 35 -17 72t-50 71t-89.5 56t-126.5 22 q-54 0 -96.5 -16t-70 -38t-46.5 -63.5t-28.5 -73.5t-14.5 -88t-5.5 -87t-0.5 -89v-5v-138h6q47 58 106.5 85.5t145.5 27.5q63 0 122.5 -15t113.5 -48t94 -80.5t64 -117t24 -153.5q0 -129 -65.5 -233.5t-190 -166.5t-285.5 -62q-123 0 -219.5 39.5t-157.5 105t-100.5 157 t-55.5 189t-16 207.5zM477 403q0 -214 30 -300.5t103 -86.5t103 86.5t30 300.5q0 212 -30 294.5t-103 82.5q-43 0 -88 -49t-45 -121v-207z" />
<glyph unicode="7" horiz-adv-x="980" d="M102 528v433h666q58 0 83 22t28 74h36v-199q0 -111 -19 -198t-49.5 -145t-67.5 -109t-74 -104.5t-67.5 -115.5t-49.5 -157.5t-19 -216.5q0 -99 -44.5 -162.5t-145.5 -63.5q-90 0 -143.5 63t-53.5 163q0 49 10 92.5t23.5 77t40.5 68t48 56.5t60.5 52t63.5 46.5t71 47 t70 45.5q61 41 99.5 72t85 82.5t75 118.5t41.5 151q-3 -4 -8.5 -10.5t-28.5 -23t-51.5 -29t-78.5 -23t-109 -10.5h-346q-58 0 -83 -22.5t-28 -74.5h-35z" />
<glyph unicode="8" horiz-adv-x="1087" d="M59 377q0 88 42 173.5t126 145.5q-139 149 -139 334q0 172 122 266.5t316 94.5q202 0 312 -92t110 -230q0 -75 -37 -144.5t-102 -121.5q102 -80 160.5 -172t58.5 -219q0 -86 -33 -163.5t-94.5 -137.5t-160 -95.5t-220.5 -35.5q-210 0 -335.5 110.5t-125.5 286.5zM98 379 q0 -150 101 -253t260 -103q97 0 159 53t62 160q0 49 -26.5 94.5t-74 86.5t-98 77t-115.5 84.5t-110 91.5q-75 -56 -116.5 -136.5t-41.5 -154.5zM481 1155q0 -34 13 -66t30.5 -56t51.5 -54t59 -48.5t70.5 -51.5t70.5 -52q135 98 135 234q0 119 -74 192.5t-182 73.5 q-74 0 -124 -42.5t-50 -129.5z" />
<glyph unicode="9" horiz-adv-x="1210" d="M57 537q0 129 65.5 233.5t190 166.5t285.5 62q123 0 219.5 -39.5t157.5 -105t100.5 -157t55.5 -189t16 -207.5q0 -161 -35.5 -290.5t-107 -226t-188 -148.5t-271.5 -52q-183 0 -288 83.5t-105 197.5q0 78 49.5 133t126.5 55q75 0 121.5 -48.5t46.5 -115.5q0 -63 -38 -106 t-104 -43q-56 0 -90 34t-39 89q-3 20 -18 20q-19 0 -19 -24q0 -35 17 -72t50 -71t89.5 -56t126.5 -22q54 0 96.5 16t70 38t46.5 63.5t28.5 73.5t14.5 88t5.5 87t0.5 89v5v138h-6q-47 -58 -106.5 -85.5t-145.5 -27.5q-63 0 -122.5 15t-113.5 48t-94 80.5t-64 117t-24 153.5z M467 575q0 -212 30 -294t103 -82q43 0 88 49t45 121v206q0 214 -30.5 301t-102.5 87t-102.5 -87t-30.5 -301z" />
<glyph unicode=":" horiz-adv-x="602" d="M96 174q0 82 56.5 138.5t138.5 56.5t138 -56.5t56 -138.5t-56 -138t-138 -56t-138.5 56t-56.5 138zM96 805q0 82 56.5 138t138.5 56t138 -56t56 -138t-56 -138.5t-138 -56.5t-138.5 56.5t-56.5 138.5z" />
<glyph unicode=";" horiz-adv-x="675" d="M102 160q0 91 58.5 150t150.5 59q47 0 90.5 -15.5t81.5 -46.5t61 -85.5t23 -125.5q0 -69 -21.5 -130t-51 -101.5t-70.5 -76t-70.5 -53t-60.5 -32.5l-17 33q28 13 56 29.5t65.5 49t65.5 70t47.5 93.5t19.5 118q0 142 -106 207q-34 19 -51 19q-7 0 -12 -5.5t-5 -11.5 q0 -15 23 -24q86 -39 86 -138q0 -73 -52.5 -118t-123.5 -45q-83 0 -135 54.5t-52 125.5zM106 805q0 82 56.5 138t138.5 56t138.5 -56t56.5 -138t-56.5 -138.5t-138.5 -56.5t-138.5 56.5t-56.5 138.5z" />
<glyph unicode="&#x3c;" horiz-adv-x="964" d="M29 451v41l934 346l16 -41l-881 -326l881 -326l-16 -41z" />
<glyph unicode="=" horiz-adv-x="1314" d="M170 295v43h971v-43h-971zM170 633v43h971v-43h-971z" />
<glyph unicode="&#x3e;" horiz-adv-x="1044" d="M4 145l881 326l-881 326l16 41l934 -346v-41l-934 -347z" />
<glyph unicode="?" horiz-adv-x="1032" d="M4 1167q0 134 123.5 221t312.5 87q105 0 189 -19.5t139.5 -52t92.5 -78t53 -95.5t16 -106q0 -79 -31 -142.5t-80.5 -104.5t-109.5 -75t-119.5 -61.5t-109 -55t-80.5 -64t-31 -80.5q0 -64 43 -98.5t102 -34.5q108 0 191 104l26 -25q-40 -53 -95.5 -84.5t-119.5 -31.5 q-76 0 -134 47t-58 133q0 56 19.5 101t47.5 81t56 78t47.5 114.5t19.5 168.5q0 305 -215 305q-100 0 -179 -68t-79 -162q0 -47 20 -77q12 -21 25 -21q7 0 12.5 5.5t5.5 13.5q0 5 -10 22q-14 24 -14 59q0 56 41 92.5t100 36.5q65 0 110.5 -46.5t45.5 -114.5 q0 -71 -50.5 -120.5t-125.5 -49.5q-87 0 -142 55.5t-55 142.5zM348 139q0 67 47 114.5t113 47.5q68 0 115 -47.5t47 -114.5q0 -66 -47.5 -112.5t-114.5 -46.5q-66 0 -113 46.5t-47 112.5z" />
<glyph unicode="@" horiz-adv-x="1708" d="M102 498q0 153 59.5 292.5t160 239.5t240 159.5t292.5 59.5q155 0 293 -53.5t239.5 -148t160.5 -232t59 -297.5q0 -193 -111.5 -315.5t-290.5 -122.5q-87 0 -147 58.5t-66 135.5h-10q-11 -43 -28 -75t-46 -60.5t-75.5 -43.5t-110.5 -15q-55 0 -103.5 11.5t-90 36.5 t-65.5 70t-24 105q0 56 26.5 100t74 70.5t98.5 44t115.5 25t108.5 10t93 2.5v55v42t-2 41t-5 42t-9 37.5t-14.5 35.5t-22 28.5t-31 23.5t-41.5 13.5t-53 5.5q-121 0 -196 -52q-26 -18 -39 -44.5t-13 -41.5q0 -7 5.5 -12.5t13.5 -5.5q17 0 20 22q7 28 28.5 44.5t37.5 20 t31 3.5q44 0 79 -35t35 -88q0 -56 -39 -91.5t-98 -35.5q-67 0 -110.5 44.5t-43.5 105.5q0 98 83 153.5t255 55.5q110 0 188 -15.5t128.5 -45t80 -78.5t41 -108.5t11.5 -142.5v-284q0 -74 51 -74q31 0 68 22.5t72.5 63t59 109t23.5 149.5q0 197 -93.5 352.5t-251.5 239.5 t-349 84q-188 0 -348 -93.5t-253 -254t-93 -348.5q0 -141 55 -270t148 -222.5t221.5 -149t269.5 -55.5q176 0 330 82l28 -47q-167 -90 -358 -90q-153 0 -292.5 59.5t-240 160t-160 240t-59.5 292.5zM758 338q0 -87 26 -129.5t66 -42.5q35 0 59.5 34t34.5 78t10 89v151 q-196 7 -196 -180z" />
<glyph unicode="A" horiz-adv-x="1282" d="M-68 18v33q49 0 85 10.5t59.5 28t42.5 49.5t32 65.5t31 85.5q0 2 0.5 3.5t1.5 3.5l355 1003q13 36 22.5 55.5t32.5 47t61 40.5t93 13l489 -1405h86v-33h-659v33h133l-158 455h-338l-72 -211q-26 -81 -26 -119q0 -72 47.5 -98.5t136.5 -26.5h72v-33h-527zM313 539h316 l-158 454z" />
<glyph unicode="B" horiz-adv-x="1486" d="M61 18v33h152v1350h-152v33h705q311 0 454.5 -68.5t143.5 -241.5q0 -82 -42 -146.5t-109.5 -100.5t-142.5 -54t-152 -18h-23v-12q98 -2 187.5 -22.5t167.5 -62t124.5 -112.5t46.5 -164q0 -414 -663 -414h-697zM629 51h61q72 0 126 19.5t87 51.5t53 80t27.5 99t7.5 115 q0 87 -18 152t-46.5 103t-71 61t-84 30.5t-93.5 7.5h-49v-719zM629 805h45q123 0 190.5 88t67.5 219q0 52 -13.5 100t-42.5 92t-83.5 70.5t-128.5 26.5h-35v-596z" />
<glyph unicode="C" horiz-adv-x="1333" d="M61 731q0 105 25.5 208t81.5 200t136.5 171t199.5 118.5t260 44.5q84 0 146 -18t108 -36t90 -18q33 0 56.5 18t30.5 36l7 18h27v-582h-27q-61 213 -107 309q-111 234 -284 234q-158 0 -226.5 -168.5t-68.5 -550.5q0 -166 16 -290.5t50 -215t91.5 -136.5t137.5 -46 q78 0 147 32.5t117.5 84t84 115t52.5 127t17 118.5h43q-7 -123 -51 -224t-112 -165.5t-154 -99.5t-181 -35q-180 0 -317.5 55t-223 156t-129 237t-43.5 303z" />
<glyph unicode="D" horiz-adv-x="1560" d="M68 18v33h131v1348h-131v35h637q213 0 370 -51.5t249 -146t135.5 -217t43.5 -276.5q0 -122 -26 -228t-85.5 -198.5t-148 -158t-221 -103t-297.5 -37.5h-657zM616 51h68q90 0 155.5 35t113.5 114t72 214t24 329q0 153 -17.5 269t-47.5 189t-76 118t-96 62.5t-114 17.5h-82 v-1348z" />
<glyph unicode="E" horiz-adv-x="1404" d="M61 18v33h132v1350h-132v33h1162v-467h-33q0 112 -20.5 190t-69 134.5t-131.5 83t-205 26.5h-154v-631h76q270 0 270 293h35v-625h-35q0 148 -72.5 223.5t-205.5 75.5h-68v-686h125q91 0 163 14t123 38.5t88.5 63.5t60.5 82.5t36.5 103t18 117.5t4.5 132h33v-584h-1201z " />
<glyph unicode="F" horiz-adv-x="1284" d="M61 18v33h132v1350h-132v33h1162v-488h-33q0 113 -21 194t-69 141.5t-131.5 90t-204.5 29.5h-154v-631h97q270 0 270 293h33v-625h-33q0 148 -73 223.5t-206 75.5h-88v-686h131v-33h-680z" />
<glyph unicode="G" horiz-adv-x="1460" d="M61 731q0 105 25.5 208t81.5 200t136.5 171t199.5 118.5t260 44.5q84 0 146 -18t108 -36t90 -18q33 0 56.5 18t30.5 36l7 18h27v-582h-27q-61 213 -107 309q-111 234 -284 234q-157 0 -226 -165.5t-69 -539.5q0 -354 68.5 -529t234.5 -175q53 0 94 8v571h-118v33h624v-33 h-100v-608q-67 33 -174 33q-57 0 -169.5 -24.5t-201.5 -24.5q-428 0 -606 299q-107 183 -107 452z" />
<glyph unicode="H" horiz-adv-x="1615" d="M61 18v33h152v1350h-152v33h701v-33h-131v-635h358v635h-131v33h701v-33h-152v-1350h152v-33h-701v33h131v682h-358v-682h131v-33h-701z" />
<glyph unicode="I" horiz-adv-x="868" d="M61 18v33h152v1350h-152v33h742v-33h-172v-1350h176v-33h-746z" />
<glyph unicode="J" horiz-adv-x="942" d="M20 -174q0 93 63.5 158t156.5 65q77 0 133.5 -53.5t56.5 -136.5q0 -74 -47.5 -128.5t-128.5 -54.5q-28 0 -52 7t-38 17t-23.5 20t-13.5 17l-4 7l-3 4q-2 5 -5 9.5t-7.5 8t-9.5 3.5q-18 0 -18 -19q0 -4 8 -24q17 -39 71 -73t122 -34q116 0 176.5 72.5t60.5 173.5 q0 67 -23.5 121t-57 83.5t-67.5 49t-58 25.5l-23 6v1251h-150v33h742v-33h-172v-1319q0 -242 -114 -372t-306 -130q-62 0 -121.5 25.5t-103.5 84t-44 136.5z" />
<glyph unicode="K" horiz-adv-x="1560" d="M61 18v33h132v1350h-132v33h646v-33h-97v-756l469 576q56 71 56 114q0 39 -40.5 52.5t-140.5 13.5h-108v33h602v-33q-96 0 -158.5 -32t-113.5 -95l-191 -236l524 -987h82v-33h-694v33h129l-313 654l-103 -127v-527h129v-33h-678z" />
<glyph unicode="L" horiz-adv-x="1247" d="M61 18v33h132v1350h-132v33h721v-33h-172v-1350h72q150 0 255.5 86.5t156.5 236.5t51 351h41v-707h-1125z" />
<glyph unicode="M" horiz-adv-x="1865" d="M-61 18v33h22q34 1 61 4t49 11t38.5 16t29.5 23.5t21.5 29.5t15 39t9.5 46.5t5 57t2.5 64.5t0.5 76v835q0 85 -45 116.5t-144 31.5v33h621l354 -926l301 926h524v-33h-131v-1350h131v-33h-667v33h131v1170h-15l-391 -1203h-39q-68 0 -108 39.5t-68 112.5l-405 1051h-9 v-805q0 -51 0.5 -82t2.5 -68t5 -58.5t9.5 -46.5t15 -38t21.5 -27.5t29.5 -21t39 -13t49 -8.5t60.5 -2h49v-33h-575z" />
<glyph unicode="N" horiz-adv-x="1411" d="M-70 18v33h33q37 1 66.5 7t52.5 15t40 26.5t29.5 34.5t20.5 46t12.5 54t7 66t3 74t0.5 85v729l-35 55q-2 3 -14 23.5t-19 30l-21 28.5t-26.5 29.5t-29 23t-35.5 18t-40 5.5v33h420q84 0 138 -27.5t114 -122.5l518 -833h9v503q0 51 -0.5 84t-2 74.5t-5 67.5t-9.5 57.5 t-15 50.5t-22 40t-30 32.5t-38.5 22t-49 14.5t-60.5 4h-68v33h596v-33h-24q-37 -1 -67 -8.5t-52.5 -19t-40 -32t-29 -40.5t-20 -53t-13 -60.5t-7 -71t-3 -77.5t-0.5 -87v-934h-120q-84 0 -138 27.5t-114 122.5l-606 954v-665q0 -64 1 -102t4 -84.5t9.5 -71.5t17.5 -54 t28 -43.5t41 -28t56 -18t74 -4.5h39v-33h-576z" />
<glyph unicode="O" d="M61 731q0 105 25.5 208t81.5 200t136.5 171t199.5 118.5t260 44.5q119 0 221.5 -30t178 -82.5t134.5 -123t95 -154t54.5 -172t18.5 -180.5q0 -111 -25.5 -216.5t-81.5 -203t-136 -171t-198.5 -117t-260.5 -43.5t-260.5 43.5t-199 117t-136.5 171t-81.5 203t-25.5 216.5z M516 731q0 -210 15.5 -350.5t48.5 -219.5t76.5 -111t107.5 -32t107.5 32t76.5 111t48.5 219.5t15.5 350.5q0 169 -10.5 291.5t-30 202t-50.5 126t-68.5 65t-88.5 18.5t-88.5 -18.5t-68.5 -65t-50.5 -126t-30 -202t-10.5 -291.5z" />
<glyph unicode="P" horiz-adv-x="1298" d="M61 18v33h132v1350h-132v33h701q112 0 199.5 -10t164.5 -35.5t127 -66.5t78.5 -106.5t28.5 -152.5q0 -124 -37 -210t-111 -135t-171 -70t-230 -21h-201v-576h129v-33h-678zM610 662h95q36 0 66 8.5t51.5 20.5t38 34.5t27.5 42t18.5 52t11.5 55t5.5 60.5t2 58.5t0.5 59.5 q0 105 -18 175.5t-53 107t-77 51t-100 14.5h-68v-739z" />
<glyph unicode="Q" d="M61 731q0 105 25.5 208t81.5 200t136.5 171t199.5 118.5t260 44.5q119 0 221.5 -30t178 -82.5t134.5 -123t95 -154t54.5 -172t18.5 -180.5q0 -278 -142 -473t-431 -272q-139 -38 -287 -54v-6q58 -5 119.5 -47.5t115.5 -98.5t108 -111.5t115.5 -93.5t119.5 -38q50 0 89 17 t58 41.5t28 43.5t9 29q0 7 -5 12t-11 5q-3 0 -5 -0.5t-4 -1.5t-3.5 -1.5t-3 -2.5t-2.5 -3.5t-2.5 -4.5l-2 -4t-2 -5t-2.5 -6q-31 -72 -129 -72q-77 0 -124.5 51t-47.5 123q0 83 58 137t135 54q92 0 147 -59.5t55 -153.5q0 -99 -62.5 -167.5t-172.5 -68.5q-76 0 -168.5 28.5 t-165.5 63t-165.5 63t-168.5 28.5q-174 0 -174 -91q0 -37 37 -92l-33 -18q-26 32 -43.5 81t-17.5 89q0 133 106 223.5t283 99.5v11q-124 12 -227 61.5t-173.5 122t-119 165.5t-71 192.5t-22.5 203.5zM516 731q0 -210 15.5 -350.5t48.5 -219.5t76.5 -111t107.5 -32t107.5 32 t76.5 111t48.5 219.5t15.5 350.5q0 169 -10.5 291.5t-30 202t-50.5 126t-68.5 65t-88.5 18.5t-88.5 -18.5t-68.5 -65t-50.5 -126t-30 -202t-10.5 -291.5z" />
<glyph unicode="R" horiz-adv-x="1517" d="M61 18v33h132v1350h-132v33h701q113 0 200 -10t164 -35.5t127 -67.5t78.5 -108t28.5 -154q0 -298 -404 -350v-9q205 0 314 -94q54 -48 72 -128.5t18 -254.5v-33q0 -110 45 -110q24 0 45.5 56.5t30.5 142.5l37 -5q-6 -48 -12 -80.5t-18.5 -69.5t-31.5 -60.5t-48 -44 t-71 -30t-98 -9.5q-176 0 -258 112q-32 45 -44.5 101t-12.5 176q0 101 -8 146.5t-31 82.5q-23 42 -78 59q-47 15 -98 15h-99v-621h129v-33h-678zM610 707h95q64 0 107.5 20.5t66 47t33.5 80.5t12.5 89t1.5 105q0 106 -18 177.5t-53 108.5t-77 51.5t-100 14.5h-68v-694z" />
<glyph unicode="S" horiz-adv-x="1316" d="M96 -20v581h33q27 -72 46.5 -120t50 -110.5t58.5 -103.5t68 -84.5t83 -68.5t99.5 -41.5t120.5 -16.5q96 0 164 56.5t68 171.5q0 29 -9.5 56t-23.5 47.5t-40.5 43t-47.5 37.5t-59.5 35.5t-62 32t-68 32.5t-66.5 31q-72 34 -121 61t-106.5 70.5t-92 89t-58 111t-23.5 141.5 q0 136 72 237.5t192.5 152.5t271.5 51q84 0 159.5 -18t134.5 -36t103 -18q33 0 56.5 18t31.5 36l7 18h32v-502h-32q-24 84 -66 163.5t-100.5 148.5t-137.5 111t-165 42q-219 0 -219 -207q0 -44 16.5 -83t41.5 -67.5t69 -59t84 -51.5t102 -50q23 -11 77.5 -35.5t83 -38 t77 -40.5t76 -48.5t62 -56.5t53 -71t31.5 -84.5t13 -103.5q0 -93 -31.5 -170t-86 -130t-128 -89.5t-157.5 -53.5t-175 -17q-66 0 -131 12t-107.5 26.5t-90.5 26.5t-84 12q-32 0 -61 -19.5t-41 -38.5l-13 -19h-33z" />
<glyph unicode="T" horiz-adv-x="1376" d="M61 793v641h1254v-641h-31q0 27 -4 67.5t-15.5 99.5t-29 117t-48 117.5t-69 104.5t-96 73.5t-125.5 28.5v-1350h152v-33h-721v33h151v1350q-68 0 -125.5 -28.5t-96 -73.5t-69 -104.5t-48 -117.5t-29 -117t-15.5 -99.5t-4 -67.5h-31z" />
<glyph unicode="U" horiz-adv-x="1503" d="M61 1401v33h680v-33h-131v-672q0 -77 1.5 -133.5t8.5 -132.5t18.5 -130.5t34 -112t53.5 -93.5t77.5 -59t105.5 -23q90 0 155 33t102 84.5t59 131t28.5 154.5t6.5 173v403q0 193 -82.5 285t-268.5 92v33h656v-33q-269 0 -269 -377v-406q0 -135 -15 -233.5t-50 -178 t-93.5 -127.5t-146 -73.5t-207.5 -25.5q-107 0 -192 17.5t-146.5 48t-106.5 80.5t-73 107.5t-44.5 136.5t-22.5 160t-6 185v686h-132z" />
<glyph unicode="V" horiz-adv-x="1253" d="M-41 1401v33h735v-33h-176l330 -948h6l244 716q20 62 20 103q0 31 -9.5 54.5t-28 37t-36 22t-43.5 11.5t-39.5 3.5t-34.5 0.5h-7h-68v33h524v-33q-27 0 -49.5 -3t-40 -6.5t-33 -14t-25.5 -16.5t-21 -23.5t-17 -26t-15.5 -33t-13 -35.5t-13.5 -42.5t-15 -45.5l-392 -1155 h-51q-69 0 -110 39t-66 113l-436 1249h-119z" />
<glyph unicode="W" horiz-adv-x="2166" d="M0 1401v33h735v-33h-176l330 -948h6l197 577l14 43l-115 328h-119v33h736v-33h-176l329 -948h6l197 577q9 26 16 50q7 22 14 62q8 42 8 76q0 31 -10 65q-10 36 -30.5 60.5t-61.5 41t-98 16.5h-78v33h566v-33q-26 0 -50 -6.5t-43 -15t-37 -25t-30.5 -29.5t-25.5 -35.5 t-20.5 -36t-17 -38t-12.5 -33.5t-10 -31.5t-8 -24.5l-381 -1126h-51q-69 0 -110.5 39t-66.5 113l-301 862l-344 -1014h-51q-69 0 -110 39t-66 113l-436 1249h-119z" />
<glyph unicode="X" horiz-adv-x="1312" d="M-102 18v33q100 3 166.5 38.5t107.5 129.5l236 535l-345 647h-129v33h740v-33h-139l325 -615l144 324q49 113 49 172q0 61 -44.5 90t-140.5 29h-100v33h604v-33q-100 -3 -166.5 -38.5t-107.5 -129.5l-215 -488l368 -694h133v-33h-739v33h135l-352 662l-162 -375 q-49 -113 -49 -168q0 -61 44 -90t140 -29h58v-33h-561z" />
<glyph unicode="Y" horiz-adv-x="1202" d="M-82 1401v33h739v-33h-178l340 -731l195 446q41 87 41 150q0 135 -213 135h-58v33h594v-33q-98 0 -157.5 -30.5t-90.5 -94.5l-290 -666v-559h131v-33h-680v33h131v527l-385 823h-119z" />
<glyph unicode="Z" horiz-adv-x="1337" d="M41 18l760 1377h-131q-136 0 -233.5 -40.5t-157.5 -121.5t-91 -187.5t-41 -252.5h-28v641h1157l-770 -1383h129q145 0 253 34.5t189 110.5t122.5 205.5t41.5 311.5h29v-695h-1229z" />
<glyph unicode="[" horiz-adv-x="626" d="M123 -438v1872h504v-33h-238v-1807h238v-32h-504z" />
<glyph unicode="\" horiz-adv-x="712" d="M20 1421l39 13l586 -1667l-41 -15z" />
<glyph unicode="]" horiz-adv-x="626" d="M0 -406h238v1807h-238v33h504v-1872h-504v32z" />
<glyph unicode="^" horiz-adv-x="976" d="M176 305l340 656h23l344 -658l-33 -18l-322 608l-321 -608z" />
<glyph unicode="_" horiz-adv-x="897" d="M-53 -395h1011v-43h-1011v43z" />
<glyph unicode="`" horiz-adv-x="720" d="M61 1251l11 37l610 -168l-10 -35z" />
<glyph unicode="a" horiz-adv-x="1236" d="M61 250q0 59 25.5 107t65.5 79t98 54t112.5 35t121.5 19.5t111.5 8.5t94.5 2v68q0 41 -1 66.5t-5 65t-12.5 64t-24.5 54t-39 46t-58.5 28t-80.5 11.5q-116 0 -205.5 -53t-89.5 -117q0 -8 6 -13t13 -5q8 0 12.5 4t8.5 16l5 11q1 3 3.5 8t11.5 17.5t21 22t32.5 17.5t44.5 8 q59 0 95 -44t36 -103q0 -67 -47.5 -111.5t-108.5 -44.5q-82 0 -132 50t-50 122q0 119 108.5 187.5t298.5 68.5q132 0 226.5 -18.5t156.5 -54t97.5 -94.5t50 -131t14.5 -173v-348q0 -84 37 -84q38 0 64 57.5t36 147.5l37 -4q-19 -150 -85 -233.5t-199 -83.5 q-103 0 -166.5 68.5t-71.5 164.5h-12q-14 -53 -33.5 -91t-54 -72.5t-90.5 -52t-133 -17.5q-68 0 -126.5 14t-109 43.5t-80 84t-29.5 128.5zM449 291q0 -104 32.5 -156.5t81.5 -52.5q32 0 57.5 23.5t40 61.5t22 79.5t7.5 81.5v190h-18q-94 0 -156 -49q-68 -54 -67 -178z" />
<glyph unicode="b" horiz-adv-x="1269" d="M8 1401v33h123q226 0 410 39v-654h10q39 97 108 138.5t179 41.5q99 0 172.5 -40.5t115.5 -112.5t62 -161t20 -196q0 -105 -24.5 -195.5t-72 -161.5t-125 -111.5t-177.5 -40.5q-187 0 -258 145h-10v-107h-514v33h127v1350h-146zM532 434q0 -180 46.5 -279.5t109.5 -99.5 q107 0 107 434q0 217 -21.5 317.5t-85.5 100.5q-50 0 -87 -67t-53 -159.5t-16 -191.5v-55z" />
<glyph unicode="c" horiz-adv-x="1007" d="M61 489q0 241 146.5 375.5t394.5 134.5q90 0 162 -25.5t114 -67t63.5 -89t21.5 -96.5q0 -80 -48 -132t-127 -52q-69 0 -115 44.5t-46 110.5q0 64 38 106t99 42q86 0 113 -82q8 -27 22 -27q9 0 14 6.5t5 14.5q0 2 -5 22q-27 78 -89 123t-154 45q-40 0 -71.5 -15.5 t-51.5 -38t-34.5 -62t-21.5 -71.5t-11 -84.5t-4.5 -84t-0.5 -84.5q0 -82 2 -137t8.5 -113t19 -93.5t32.5 -65.5t50.5 -43t71.5 -13q108 0 182 80t97 198l4 21h37q-19 -157 -123.5 -256.5t-257.5 -99.5q-249 0 -393 133t-144 376z" />
<glyph unicode="d" horiz-adv-x="1271" d="M82 489q0 115 21.5 205t67 160t124 107.5t186.5 37.5q187 0 258 -145h11v547h-146v33h123q226 0 410 39v-1422h127v-33h-514v142h-11q-39 -97 -107.5 -138.5t-178.5 -41.5q-92 0 -164.5 40.5t-117 111.5t-67 161.5t-22.5 195.5zM496 489q0 -202 21.5 -309.5t84.5 -107.5 q50 0 87 67t53 159t16 191v56q0 180 -46.5 279.5t-109.5 99.5q-58 0 -82 -104.5t-24 -330.5z" />
<glyph unicode="e" horiz-adv-x="1097" d="M61 489q0 238 143.5 374t389.5 136q93 0 173.5 -16.5t148.5 -51t107.5 -97t39.5 -146.5q0 -78 -36 -134t-101 -87t-142.5 -45t-171.5 -14h-135q0 -91 9.5 -156t33 -117.5t67 -79t107.5 -26.5q122 0 213 80.5t119 214.5l4 18l37 -6q-30 -167 -142 -261.5t-292 -94.5 q-273 0 -422.5 129.5t-149.5 379.5zM475 444h51q92 0 128 62.5t36 183.5q0 152 -25 212.5t-71 60.5q-42 0 -65.5 -25.5t-38.5 -108.5t-15 -237v-148z" />
<glyph unicode="f" horiz-adv-x="722" d="M20 18v33h127v877h-127v33h127v110q0 66 16 131.5t50 128.5t98.5 102.5t151.5 39.5q95 0 156 -64t61 -147q0 -82 -53 -142.5t-142 -60.5q-71 0 -121.5 51t-50.5 117q0 63 42.5 110t107.5 47q61 0 95.5 -33.5t39.5 -78.5q0 -5 0.5 -13.5t1 -13t2 -10t5.5 -8t11 -2.5 q23 0 23 41q0 75 -54 122.5t-124 47.5q-82 0 -146.5 -62.5t-64.5 -159.5q0 -253 336 -253h100v-33h-153v-877h153v-33h-668z" />
<glyph unicode="g" horiz-adv-x="1112" d="M41 -43q0 93 62.5 176t175.5 133q-88 49 -138.5 133.5t-50.5 198.5q0 98 39 176t105.5 126.5t150 73.5t176.5 25q63 0 125 -12q-51 57 -51 137q0 85 55.5 144t140.5 59q77 0 131 -47t54 -127q0 -67 -43 -113.5t-111 -46.5q-62 0 -103.5 38t-41.5 97q0 31 13.5 57t27.5 38 q3 3 13 9.5t13.5 11.5t3.5 11q0 19 -18 19q-13 0 -31 -12q-67 -48 -67 -138q0 -110 125 -172q108 -47 171.5 -136.5t63.5 -217.5q0 -98 -39 -176t-105.5 -126.5t-150 -73.5t-176.5 -25q-137 0 -242 47q-131 -57 -131 -115q0 -29 19 -44.5t44 -19.5t66 -4q96 0 271.5 41 t230.5 41q119 0 188.5 -61t69.5 -162q0 -157 -133.5 -268t-318.5 -111q-98 0 -193 41t-168 133q-101 7 -162 75.5t-61 166.5zM315 -285q56 -66 138.5 -101.5t171.5 -35.5q106 0 199.5 42t93.5 97q0 76 -111 76q-58 0 -242 -37t-250 -41zM453 598q0 -195 16 -264 q24 -101 92 -101q20 0 36 7.5t27 25t19.5 35t13 49t7.5 54t4.5 63t1.5 63.5v68v68t-1.5 63.5t-4.5 63t-7.5 54t-13 49t-19.5 35t-27 25t-36 7.5t-35.5 -7.5t-27 -25t-19.5 -34.5t-12.5 -48t-7.5 -53t-4.5 -62.5t-1.5 -63v-66.5v-5z" />
<glyph unicode="h" horiz-adv-x="1304" d="M20 1401v33h123q226 0 410 39v-654h10q39 97 108 138.5t179 41.5q73 0 128.5 -20.5t91 -56t58.5 -89.5t32 -115.5t9 -139.5v-527h127v-33h-632v33h127v441q0 210 -19 307.5t-82 97.5q-37 0 -66 -38t-45.5 -102t-25 -139t-8.5 -157v-443h-506v33h127v1350h-146z" />
<glyph unicode="i" horiz-adv-x="708" d="M29 928v33h123q229 0 409 38v-948h127v-33h-641v33h127v877h-145zM174 1278q0 83 56.5 139t136.5 56q83 0 138.5 -56t55.5 -139q0 -80 -56 -136.5t-138 -56.5q-79 0 -136 56.5t-57 136.5z" />
<glyph unicode="j" horiz-adv-x="708" d="M29 928v33h123q229 0 409 38v-1019q0 -63 -7.5 -120t-29 -117.5t-55 -103.5t-91 -70.5t-132.5 -27.5q-92 0 -153.5 59t-61.5 146q0 79 47.5 135t130.5 56q71 0 117.5 -45.5t46.5 -114.5q0 -64 -39 -107t-105 -43q-55 0 -90 41q-3 4 -8 10.5t-8 10.5t-7.5 7t-9.5 3 q-18 0 -18 -18q0 -13 12 -31q54 -72 146 -72q95 0 149 65t54 154q0 98 -72 167q-63 60 -171 60q-15 0 -32 -1v905h-145zM166 1278q0 83 56 139t136 56q83 0 139 -56t56 -139q0 -80 -56 -136.5t-139 -56.5q-79 0 -135.5 56.5t-56.5 136.5z" />
<glyph unicode="k" horiz-adv-x="1257" d="M20 1401v33h123q226 0 410 39v-877q103 8 187 27.5t151.5 52t105 83t37.5 115.5q0 51 -20 86.5t-45 53.5q-18 12 -31 12q-18 0 -18 -18q0 -5 3 -9.5t6.5 -7.5t10 -8t10.5 -8q41 -35 41 -90q0 -59 -40.5 -96t-102.5 -37q-68 0 -112 46t-44 113q0 80 54 126t131 46 q81 0 137.5 -60t56.5 -151q0 -165 -213 -251l2 -9q16 0 29.5 -0.5t44.5 -6t56 -15.5t55.5 -31t51 -49.5t34.5 -74.5t14 -103q0 -94 8.5 -156t25 -92.5t34 -41.5t42.5 -11q7 0 22 1t19 1l4 -31q-19 -2 -74 -9.5t-99 -11.5t-83 -4q-69 0 -121 15t-84.5 45.5t-53 65t-30.5 86 t-13 94.5t-3 104q0 27 -3.5 53t-12.5 56t-28.5 49t-47.5 20q-41 -4 -94 -8v-506h139v-33h-661v33h135v1350h-146z" />
<glyph unicode="l" horiz-adv-x="712" d="M29 1401v33h123q225 0 409 39v-1422h131v-33h-645v33h127v1350h-145z" />
<glyph unicode="m" horiz-adv-x="1886" d="M20 928v33h123q230 0 410 38v-200h10q80 200 287 200q209 0 283 -202l2 2h10q80 200 287 200q73 0 128.5 -20.5t91 -56t58.5 -89.5t32 -115.5t9 -139.5v-527h127v-33h-633v33h127v441q0 209 -18.5 303t-81.5 94q-37 0 -66.5 -46.5t-46 -121t-25 -157t-8.5 -165.5v-381 h-462v33h127v441q0 208 -19 302.5t-82 94.5q-37 0 -66 -46.5t-45.5 -121t-25 -157t-8.5 -165.5v-381h-506v33h127v877h-146z" />
<glyph unicode="n" horiz-adv-x="1304" d="M20 928v33h123q230 0 410 38v-200h10q80 200 287 200q73 0 128.5 -20.5t91 -56t58.5 -89.5t32 -115.5t9 -139.5v-527h127v-33h-632v33h127v441q0 208 -19 302.5t-82 94.5q-37 0 -66 -46.5t-45.5 -121t-25 -157t-8.5 -165.5v-381h-506v33h127v877h-146z" />
<glyph unicode="o" horiz-adv-x="1204" d="M61 489q0 228 149.5 369t391.5 141t391.5 -141t149.5 -369t-149.5 -368.5t-391.5 -140.5t-391.5 140.5t-149.5 368.5zM475 489q0 -265 27.5 -369t99.5 -104t99.5 104t27.5 369t-27.5 369.5t-99.5 104.5t-99.5 -104.5t-27.5 -369.5z" />
<glyph unicode="p" horiz-adv-x="1294" d="M12 928v33h123q230 0 410 38v-180h10q39 97 108 138.5t179 41.5q99 0 172.5 -40t115.5 -111.5t62 -160t20 -195.5q0 -105 -24.5 -195.5t-72 -161.5t-125 -112t-177.5 -41q-187 0 -258 145h-10v-514h153v-33h-667v33h127v1315h-146zM537 436q0 -180 46.5 -279.5 t108.5 -99.5q107 0 107 435q0 216 -21.5 315.5t-85.5 99.5q-38 0 -68.5 -38.5t-49 -100t-28 -133t-9.5 -143.5v-56z" />
<glyph unicode="q" horiz-adv-x="1290" d="M82 489q0 115 21.5 205t67 160t124 107.5t186.5 37.5q187 0 258 -145h11v145q180 -38 409 -38h123v-33h-145v-1315h127v-33h-668v33h154v549h-11q-39 -97 -107.5 -138.5t-178.5 -41.5q-92 0 -164.5 40.5t-117 111t-67 160.5t-22.5 195zM496 489q0 -202 21.5 -308.5 t84.5 -106.5q50 0 87 66.5t53 158t16 190.5v56q0 180 -46.5 279.5t-109.5 99.5q-58 0 -82 -104.5t-24 -330.5z" />
<glyph unicode="r" horiz-adv-x="976" d="M20 928v33h123q230 0 410 38v-165h10q32 74 92 119.5t140 45.5q91 0 151 -56.5t60 -137.5q0 -77 -47.5 -130.5t-127.5 -53.5q-67 0 -113 42.5t-46 110.5q0 62 38 104t97 42q55 0 90 -41q3 -4 8 -10.5t8 -10.5t7.5 -7t9.5 -3q18 0 18 18q0 13 -12 31q-48 66 -139 66 q-252 0 -252 -504v-408h153v-33h-659v33h127v877h-146z" />
<glyph unicode="s" horiz-adv-x="1064" d="M78 209q0 75 47 127.5t129 52.5q65 0 110.5 -42t45.5 -111q0 -62 -38.5 -102t-99.5 -40q-46 0 -79 33q-4 4 -9 10t-8 9t-7.5 5.5t-10.5 2.5t-11.5 -6t-5.5 -13q0 -10 11.5 -24.5t37 -31t60 -30t86.5 -22.5t110 -9q93 0 159.5 32t66.5 97q0 41 -32 80t-83 71t-113 64 t-124 67.5t-113 73.5t-83 89t-32 108q0 48 16.5 91t54 81t93.5 65.5t140.5 43.5t189.5 16q189 0 283 -63t94 -164q0 -75 -47 -127.5t-128 -52.5q-65 0 -110 43t-45 112q0 60 37 101t96 41q54 0 86 -37q19 -23 31 -23q7 0 12.5 5.5t5.5 13.5q0 13 -15.5 30.5t-45 36t-81 31 t-114.5 12.5q-99 0 -158 -39.5t-59 -113.5q0 -56 59.5 -103.5t144 -86.5t169 -82.5t144 -111.5t59.5 -153q0 -131 -134.5 -208.5t-402.5 -77.5q-47 0 -94.5 5.5t-102 21t-96 39.5t-69 66.5t-27.5 96.5z" />
<glyph unicode="t" horiz-adv-x="753" d="M41 928v33h14q34 0 80.5 10t105.5 36.5t111 64.5t95.5 101t60.5 140h27v-352h190v-33h-190v-748q0 -84 36 -84q38 0 65 58t36 147l37 -4q-9 -73 -27.5 -127.5t-52.5 -99t-89.5 -67.5t-131.5 -23q-119 0 -190 74t-71 225v649h-106z" />
<glyph unicode="u" horiz-adv-x="1304" d="M8 928v33h123q221 0 401 38v-514q0 -67 1 -113t4.5 -94t10.5 -78t18 -55.5t27.5 -37t39.5 -11.5q37 0 66 42t45.5 111t25 147.5t8.5 160.5v369h-145v35h123q221 0 401 38v-948h127v-33h-514v160h-10q-80 -201 -287 -201q-91 0 -154.5 30.5t-98.5 88.5t-50.5 131.5 t-15.5 171.5v529h-146z" />
<glyph unicode="v" horiz-adv-x="1042" d="M-63 928v33h122q240 0 420 38v-90q0 -368 66 -565t178 -197q67 0 124.5 80t88.5 195t31 227q0 117 -43 201t-113 104q-16 4 -23 4q-20 0 -20 -18q0 -14 27 -22q82 -27 82 -117q0 -61 -42 -99t-106 -38q-66 0 -111 46t-45 115q0 78 52 126t133 48q106 0 177 -93t71 -271 q0 -115 -31.5 -230.5t-87.5 -210.5t-142.5 -154.5t-187.5 -59.5q-103 0 -184.5 45t-135 122t-89 184.5t-51 227t-15.5 256.5v113h-145z" />
<glyph unicode="w" horiz-adv-x="1724" d="M-63 928v33h122q240 0 420 38v-90q0 -368 66 -565t178 -197q75 0 139 103q-96 215 -96 565v113h-145v33h122q240 0 420 38v-90q0 -368 66 -565t178 -197q67 0 124.5 80t88.5 195t31 227q0 117 -43 201t-113 104q-16 4 -22 4q-21 0 -21 -18q0 -14 27 -22q82 -27 82 -117 q0 -61 -42 -99t-106 -38q-66 0 -111 46t-45 115q0 78 52 126t133 48q106 0 177 -93t71 -271q0 -115 -31.5 -230.5t-87.5 -210.5t-142.5 -154.5t-187.5 -59.5q-229 0 -352 219q-62 -102 -146 -160.5t-186 -58.5q-103 0 -184.5 45t-135 122t-89 184.5t-51 227t-15.5 256.5v113 h-145z" />
<glyph unicode="x" horiz-adv-x="1206" d="M20 164q0 71 44.5 123.5t121.5 52.5q71 0 113.5 -45t42.5 -105q0 -51 -36 -91t-99 -44q-25 0 -25 -18q0 -21 37 -21q123 0 213 156q27 44 68 145l-129 277q-81 172 -109 217t-61 45q-28 0 -53.5 -22.5t-36.5 -45.5l-11 -22l-37 6q17 41 43.5 78.5t65.5 72t95 55.5t120 21 q109 0 180 -47t129 -153q42 88 110 144t146 56q89 0 144 -52.5t55 -131.5q0 -71 -44.5 -123.5t-121.5 -52.5q-71 0 -113.5 45t-42.5 104q0 51 36.5 91.5t99.5 44.5q24 0 24 18q0 21 -37 21q-66 0 -130.5 -58.5t-104.5 -146.5q1 -3 2.5 -5.5t3 -5.5t2.5 -4l154 -329 q63 -137 96 -197.5t49 -74t39 -13.5q19 0 39 21t30 42l11 21l35 -8q-15 -38 -43 -76t-68.5 -72t-98.5 -55.5t-122 -21.5q-60 0 -104 14t-79.5 48t-62.5 77.5t-61 116.5l-19 34q-27 -68 -55 -116q-104 -174 -246 -174q-89 0 -144 52.5t-55 131.5z" />
<glyph unicode="y" horiz-adv-x="1060" d="M-31 928v33h123q246 0 426 38q-4 -94 -4 -174q0 -152 23.5 -271t59.5 -184t73.5 -97.5t70.5 -32.5q115 0 205 200q47 106 47 260q0 150 -82 220q-11 11 -32 22.5t-35 11.5q-8 0 -13.5 -5.5t-5.5 -12.5q0 -13 19 -21q32 -15 50.5 -42.5t18.5 -61.5q0 -64 -41.5 -103.5 t-103.5 -39.5q-65 0 -109.5 46t-44.5 111q0 77 51 125.5t126 48.5q118 0 178.5 -86.5t60.5 -218.5q0 -307 -209 -487q-35 -30 -97.5 -72.5t-112.5 -78t-99.5 -79.5t-77.5 -97t-28 -111q0 -121 98 -177q12 -8 22 -8q8 0 13.5 6t5.5 13q0 10 -17 20q-30 20 -46.5 51.5 t-16.5 63.5q0 54 38.5 95.5t100.5 41.5q66 0 114 -45t48 -115q0 -82 -51 -130t-127 -48q-92 0 -155.5 62t-63.5 165q0 92 45.5 157.5t128.5 131.5q-106 35 -182 91t-123 127t-74 171t-37 205t-10 248v33h-148z" />
<glyph unicode="z" horiz-adv-x="1101" d="M59 0v29l568 905q-34 4 -92 12.5t-97 12.5t-69 4q-71 0 -122 -16.5t-76 -39t-44 -55.5q-6 -9 -6 -23q0 -8 5.5 -13t12.5 -5q11 0 21 16q1 2 6 10t7.5 11.5t8.5 11t10.5 11t13 9t17 8.5t20.5 5t25 2q61 0 98 -44t37 -103q0 -70 -45.5 -113t-109.5 -43q-82 0 -132 50 t-50 122q0 106 82 170.5t221 64.5q42 0 206 -21.5t271 -21.5q117 0 198 13v-29l-559 -891q32 -4 100.5 -13.5t115.5 -14.5t77 -5q71 0 122 16.5t76 39t44 55.5q6 9 6 23q0 8 -5.5 13t-12.5 5q-11 0 -21 -16q-1 -2 -6 -10t-7.5 -11.5t-8.5 -11t-10.5 -11t-13 -9t-17 -8.5 t-20.5 -5t-25 -2q-62 0 -99 44t-37 103q0 67 47.5 111.5t108.5 44.5q82 0 132 -50t50 -122q0 -106 -82 -170.5t-221 -64.5q-42 0 -207 21.5t-272 21.5q-106 0 -240 -23z" />
<glyph unicode="{" horiz-adv-x="516" d="M-6 -25q0 54 16 99t42 76t57 57.5t62.5 48t57.5 41.5t42 44t16 50q0 46 -39 72t-115 26v31q154 0 154 103q0 30 -21.5 58t-54.5 49t-70.5 50.5t-70.5 61.5t-54.5 83t-21.5 113q0 130 69.5 221t185 133t267.5 42v-33q-60 0 -102 -10q-88 -20 -123 -93t-35 -192 q0 -72 23.5 -146.5t47 -142.5t23.5 -123q0 -73 -26.5 -119.5t-98.5 -68.5q74 -23 99.5 -68.5t25.5 -118.5q0 -55 -23.5 -122.5t-47 -142t-23.5 -146.5q0 -119 35 -192t123 -93q42 -10 102 -10v-33q-152 0 -267.5 42t-185 132.5t-69.5 220.5z" />
<glyph unicode="|" horiz-adv-x="741" d="M348 -420v1893h45v-1893h-45z" />
<glyph unicode="}" horiz-adv-x="522" d="M0 -387q60 0 102 10q88 20 123 93t35 192q0 72 -23.5 146.5t-47 142t-23.5 122.5q0 73 26.5 120t98.5 69q-74 23 -99.5 68t-25.5 118q0 55 23.5 123t47 142.5t23.5 146.5q0 119 -35 192t-123 93q-42 10 -102 10v33q152 0 267.5 -42t185 -133t69.5 -221q0 -62 -21.5 -113 t-54.5 -83t-70.5 -61.5t-70.5 -50.5t-54.5 -49t-21.5 -58q0 -46 39 -73.5t115 -27.5v-26q-81 0 -117.5 -29t-36.5 -76q0 -26 16 -50t42 -44t57 -41.5t62.5 -48t57.5 -57.5t42 -76t16 -99q0 -130 -69.5 -220.5t-185 -132.5t-267.5 -42v33z" />
<glyph unicode="~" horiz-adv-x="1200" d="M106 498q87 56 149.5 78t135.5 22q78 0 220 -45t220 -45q128 0 234 86l25 -29q-77 -56 -130.5 -75t-121.5 -19q-86 0 -237 45t-214 45q-65 0 -125.5 -21t-138.5 -75z" />
<glyph horiz-adv-x="0" />
<glyph unicode="&#xa1;" horiz-adv-x="577" d="M63 -256q0 65 21.5 125t52.5 115.5t61.5 122t52 173.5t21.5 240h37q0 -133 21.5 -240t52.5 -173.5t61.5 -122t52 -115.5t21.5 -125q0 -101 -58 -169.5t-169 -68.5t-169.5 68.5t-58.5 169.5zM94 805q0 82 56.5 138t138.5 56t138 -56t56 -138t-56 -138.5t-138 -56.5 t-138.5 56.5t-56.5 138.5z" />
<glyph unicode="&#xa2;" horiz-adv-x="1085" d="M76 510q0 94 31.5 175.5t91.5 145.5t156.5 103.5t219.5 44.5v188h41v-186q90 0 162 -25.5t114 -67.5t63.5 -89.5t21.5 -96.5q0 -81 -48 -132.5t-126 -51.5q-69 0 -115.5 45t-46.5 111q0 64 38 105.5t99 41.5q86 0 113 -82q7 -26 22 -26q9 0 14 6t5 14q0 7 -4 23 q-27 78 -89.5 123t-154.5 45q-106 0 -154.5 -95.5t-48.5 -312.5q0 -219 48 -319.5t145 -100.5q108 0 181.5 80.5t96.5 198.5l4 20h37q-19 -157 -122 -256t-255 -100v-166h-41v166q-122 5 -218.5 44.5t-157 103.5t-92 146.5t-31.5 176.5z" />
<glyph unicode="&#xa3;" horiz-adv-x="1042" d="M41 162q0 75 66 124.5t167 49.5q57 0 140 -27q-8 15 -19.5 31t-20 27t-25 29t-23.5 25t-27.5 28.5t-24.5 25.5h-188v43h147q-53 54 -81.5 104t-28.5 107q0 78 39 139t107.5 97.5t154.5 55.5t186 19q179 0 270 -67t91 -168q0 -81 -48 -132.5t-126 -51.5q-69 0 -115.5 44.5 t-46.5 110.5q0 64 38 106t99 42q86 0 113 -82q8 -27 22 -27q9 0 14 6.5t5 14.5q0 6 -4 22q-22 64 -86 95.5t-144 31.5q-84 0 -127 -50.5t-43 -143.5q0 -25 3 -51t6.5 -45t12 -47.5t12.5 -42t15.5 -45.5t14.5 -42h227v-43h-215q20 -72 20 -137q0 -42 -14 -96q101 -33 158 -33 q84 0 128.5 24t51.5 99h37q3 -58 -5.5 -115.5t-30.5 -112.5t-69 -89.5t-112 -34.5q-74 0 -132.5 27.5t-127.5 78.5q-97 -84 -246 -84q-46 0 -94.5 18t-84.5 56t-36 86zM94 143q0 -40 47 -72t113 -32q156 0 186 92q-62 49 -114 74.5t-113 25.5q-58 0 -88.5 -25.5t-30.5 -62.5 z" />
<glyph unicode="&#xa4;" horiz-adv-x="1257" d="M102 907l103 94l166 -159q107 88 258 88t258 -88l166 159l102 -94l-182 -153q76 -120 76 -248q0 -173 -82 -275l182 -161l-105 -93l-161 166q-49 -46 -118 -71t-136 -25t-136 25t-118 71l-162 -166l-104 93l182 161q-82 102 -82 275q0 128 76 248zM520 487 q0 -140 26 -225.5t83 -85.5q108 0 108 311q0 141 -26 227.5t-82 86.5q-57 0 -83 -86.5t-26 -227.5z" />
<glyph unicode="&#xa5;" horiz-adv-x="1122" d="M20 967v32h601v-32h-111l217 -469l129 297q25 58 25 88q0 44 -32 64t-106 20h-36v32h395v-32q-133 0 -170 -84l-189 -430v-23h207v-33h-207v-90h207v-33h-207v-223h107v-33h-600v33h106v223h-190v33h190v90h-190v33h190l-252 537h-84z" />
<glyph unicode="&#xa6;" horiz-adv-x="452" d="M205 -246v721h45v-721h-45zM205 752v721h45v-721h-45z" />
<glyph unicode="&#xa7;" horiz-adv-x="1292" d="M96 512q0 103 56.5 194t162.5 148q-112 105 -112 254q0 167 124.5 266t385.5 99q86 0 155.5 -17.5t114 -45.5t74.5 -65.5t42.5 -75.5t12.5 -77q0 -76 -49.5 -128t-130.5 -52q-77 0 -125.5 46.5t-48.5 112.5q0 67 41.5 111.5t105.5 44.5q61 0 94 -34.5t37 -75.5l2 -19 q3 -16 19 -16q18 0 18 22q0 13 -5 34.5t-26 57.5t-54.5 65t-99 51t-151.5 22q-72 0 -132 -18.5t-102 -64.5t-42 -114q0 -52 31.5 -99.5t83.5 -84.5t118 -76.5t135.5 -74.5t135.5 -79t118 -88.5t83.5 -105t31.5 -127.5q0 -103 -57 -196t-164 -150q115 -115 115 -250 q0 -171 -132 -268t-407 -97q-103 0 -184 23.5t-129.5 63t-73.5 86.5t-25 98q0 77 50.5 133.5t130.5 56.5q77 0 125.5 -46.5t48.5 -113.5q0 -66 -42 -110.5t-106 -44.5q-61 0 -94 34.5t-37 75.5l-2 19q-3 16 -18 16q-19 0 -19 -22q0 -14 5.5 -35.5t27.5 -58t58.5 -65.5 t108 -51t165.5 -22q71 0 135 20.5t109 67.5t45 111q0 46 -25 88.5t-68 77.5t-98.5 69t-116.5 67t-122 67t-116.5 73.5t-98.5 82t-68 96.5t-25 114zM276 707q0 -55 46 -108t124.5 -101t163 -94t181 -106t159.5 -116q70 50 70 125q0 51 -43.5 101t-118.5 97t-155.5 91.5 t-176 103t-159.5 111.5l-23 18q-68 -48 -68 -122z" />
<glyph unicode="&#xa8;" horiz-adv-x="1529" d="M459 1190q0 51 36 87t87 36t88 -36t37 -87t-37 -88t-88 -37t-87 37t-36 88zM827 1190q0 51 36.5 87t88.5 36q51 0 87 -36t36 -87t-36 -88t-87 -37q-52 0 -88.5 37t-36.5 88z" />
<glyph unicode="&#xa9;" horiz-adv-x="1660" d="M102 498q0 153 59.5 292.5t160 239.5t240 159.5t292.5 59.5q200 0 360.5 -86t252.5 -245t92 -363q0 -113 -37.5 -212t-109 -176.5t-185.5 -122t-258 -44.5q-89 0 -166.5 17.5t-146 56.5t-117 98t-77 147.5t-28.5 198.5q0 88 32.5 170.5t91.5 148.5t152 106t205 40 q46 0 87 -13.5t70 -27.5t46 -14q18 0 31.5 14t17.5 28l4 13h27v-389h-27q-5 16 -14.5 53t-16 59.5t-18.5 57t-22.5 56.5t-27.5 48t-35 41t-42.5 25t-52.5 10q-90 0 -133 -111.5t-43 -347.5q0 -235 60.5 -328.5t207.5 -93.5q130 0 236 58.5t168.5 170.5t62.5 259 q0 142 -49 262.5t-134.5 204t-205 130t-258.5 46.5q-188 0 -348 -93.5t-253 -254t-93 -348.5q0 -141 55 -270t148 -222.5t221.5 -149t269.5 -55.5q87 0 180.5 23t165.5 61l12 -49q-167 -90 -358 -90q-153 0 -292.5 59.5t-240 160t-160 240t-59.5 292.5z" />
<glyph unicode="&#xaa;" horiz-adv-x="786" d="M49 793q0 28 10 50.5t24 39t39 29.5t46 21t54 14t54 8.5t56 4t49 1.5h43v43q0 35 -1 55.5t-8 50.5t-20.5 46.5t-39.5 29t-64 12.5q-59 0 -105.5 -23.5t-58.5 -56.5q-4 -12 -4 -18q0 -7 4.5 -13t11.5 -6q16 0 23 21q2 5 6 13t20.5 21t38.5 13q39 0 60.5 -27t21.5 -63 q0 -41 -33 -67.5t-81 -26.5q-53 0 -83 36t-30 80q0 70 65 114t183 44q98 0 161.5 -16.5t99 -53.5t49 -86.5t13.5 -124.5v-208q0 -39 23 -39q16 0 33 29.5t26 80.5l37 -4q-11 -86 -57 -136t-127 -50q-61 0 -96.5 42t-40.5 101h-9q-14 -51 -65.5 -97t-122.5 -46 q-86 0 -145.5 38.5t-59.5 123.5zM152 465v43h477v-43h-477zM279 817q0 -54 17 -82t42 -28q32 0 59 51t27 112v54q-24 0 -39.5 -1t-38 -7t-35.5 -16.5t-22.5 -31.5t-9.5 -51z" />
<glyph unicode="&#xab;" horiz-adv-x="641" d="M10 485l264 353l35 -27l-243 -326l243 -325l-35 -27zM240 485l264 353l35 -27l-244 -326h-55zM240 485h55l244 -325l-35 -27z" />
<glyph unicode="&#xac;" horiz-adv-x="1050" d="M70 496v43h909v-342h-45v299h-864z" />
<glyph unicode="&#xad;" horiz-adv-x="632" d="M106 463v43h406v-43h-406z" />
<glyph unicode="&#xae;" horiz-adv-x="1708" d="M102 498q0 153 59.5 292.5t160 239.5t240 159.5t292.5 59.5q155 0 293 -53.5t239.5 -148t160.5 -232t59 -297.5q0 -232 -103 -372t-276 -140q-115 0 -172 64q-56 61 -56 190v45t-1.5 37t-4.5 33.5t-8.5 24.5t-14.5 21t-21.5 13.5t-29.5 9.5t-40 2h-66v-393h86v-35h-467 v35h88v873h-88v35h481q93 0 162 -11t123.5 -36.5t82.5 -72.5t28 -114q0 -105 -67 -162.5t-212 -72.5v-19q80 6 134 -2t92 -35.5t55.5 -78.5t17.5 -130v-18q0 -80 45 -80q65 0 119.5 105t54.5 284q0 197 -93.5 352.5t-251.5 239.5t-349 84q-188 0 -348 -93.5t-253 -254 t-93 -348.5q0 -141 55 -270t148 -222.5t221.5 -149t269.5 -55.5q177 0 328 80l30 -45q-167 -90 -358 -90q-153 0 -292.5 59.5t-240 160t-160 240t-59.5 292.5zM813 485h64q71 0 97.5 55t26.5 154q0 97 -15.5 147.5t-45 67.5t-84.5 17h-43v-441z" />
<glyph unicode="&#xaf;" horiz-adv-x="579" d="M4 1167v39h571v-39h-571z" />
<glyph unicode="&#xb0;" horiz-adv-x="573" d="M49 1130q0 98 70 168t168 70t167.5 -70t69.5 -168t-69.5 -167.5t-167.5 -69.5t-168 69.5t-70 167.5zM113 1130q0 -72 51 -123t123 -51t123 51t51 123t-51 123.5t-123 51.5t-123 -51.5t-51 -123.5z" />
<glyph unicode="&#xb1;" horiz-adv-x="1259" d="M170 61v43h971v-43h-971zM170 565v43h465v363h41v-363h465v-43h-465v-360h-41v360h-465z" />
<glyph unicode="&#xb2;" horiz-adv-x="876" d="M102 600q0 62 21 115t55 90.5t75 71t82.5 63.5t75.5 60.5t55 69t21 81.5q0 58 -36 100.5t-103 42.5q-78 0 -132 -44t-54 -107q0 -21 16 -21q21 0 21 19q5 41 30 66.5t64 25.5q51 0 79.5 -32t28.5 -83q0 -48 -39 -84.5t-96 -36.5q-63 0 -102 41.5t-39 100.5q0 90 78 147 t198 57q180 0 266.5 -65t86.5 -162q0 -107 -57.5 -161t-194.5 -66q-42 -4 -64.5 -7t-66.5 -12.5t-71.5 -22t-57.5 -35t-47 -52.5l10 -8q4 3 15.5 13.5t17 14.5t18 12t24.5 11.5t30 8t42 6t54 1.5h262q42 0 61 17.5t21 54.5h24v-291h-672zM221 465v43h477v-43h-477z" />
<glyph unicode="&#xb3;" horiz-adv-x="843" d="M102 756q0 65 42 102t104 37q52 0 86.5 -33.5t34.5 -83.5q0 -39 -30 -72.5t-77 -33.5q-44 0 -80 45q-5 10 -14 10q-8 0 -13 -5.5t-5 -12.5q0 -5 4 -13q18 -31 55 -49t78 -18q75 0 121.5 43t46.5 123q0 57 -31 105t-88 48q-19 0 -88 -22l-10 35q1 0 21 6.5t31.5 11 t35.5 14.5t39.5 20t35.5 25.5t31.5 32t20 39t8.5 47.5q0 76 -37 111t-94 35q-58 0 -104 -32t-46 -77q0 -7 5.5 -12.5t13.5 -5.5q5 0 8 1.5t5.5 5t3.5 6t2 7.5l1 4q22 62 90 62q45 0 74 -34.5t29 -76.5q0 -52 -35.5 -88.5t-89.5 -36.5q-67 0 -106.5 42t-39.5 103 q0 80 71.5 126t178.5 46q140 0 216.5 -44.5t76.5 -124.5q0 -63 -58.5 -108t-172.5 -54l8 -19q14 2 41 2q98 0 168.5 -48.5t70.5 -147.5q0 -31 -10 -60t-36 -58.5t-66 -51t-106.5 -35.5t-151.5 -14q-131 0 -200 47.5t-69 128.5zM201 465v43h477v-43h-477z" />
<glyph unicode="&#xb4;" horiz-adv-x="671" d="M35 1120l610 168l10 -37l-610 -166z" />
<glyph unicode="&#xb5;" horiz-adv-x="1361" d="M20 932v29h123q230 0 410 38v-643q0 -137 24 -197.5t78 -60.5q61 0 100.5 112.5t39.5 281.5v440h-146v29h123q230 0 410 38v-970h139v-29h-526v186h-9q-29 -69 -82.5 -121.5t-130.5 -72.5h2q-31 -8 -52 -35t-21 -61q0 -26 14.5 -49t36.5 -35h-2q36 -19 58 -55.5t22 -78.5 q0 -63 -44.5 -107t-107.5 -44t-107 44t-44 107q0 43 21.5 79t56.5 55q23 12 37 35t14 49q0 33 -22.5 60.5t-55.5 35.5q-61 16 -104 53t-66 92.5t-33 120t-10 145.5v529h-146z" />
<glyph unicode="&#xb6;" horiz-adv-x="1017" d="M-2 1057q0 175 122.5 295.5t321.5 120.5q44 0 199 -19.5t354 -19.5v-33h-145v-1473q0 -189 -91 -288t-233 -99q-97 0 -162 58t-65 145q0 92 59 145.5t138 53.5q72 0 128 -46t56 -126q0 -64 -43 -108t-100 -44q-6 0 -18 1t-17 1q-9 0 -15 -5t-6 -13q0 -25 56 -25 q125 0 200.5 93t75.5 247v1483q-76 4 -135 10v-1499q-70 90 -215 84v663q-23 -4 -66 -4q-175 0 -287 115.5t-112 286.5z" />
<glyph unicode="&#xb7;" horiz-adv-x="602" d="M102 492q0 84 58 142t141 58q85 0 143 -57.5t58 -142.5q0 -83 -58 -141t-143 -58q-83 0 -141 58t-58 141z" />
<glyph unicode="&#xb8;" horiz-adv-x="768" d="M209 -193l76 201l41 -16l-52 -135q52 34 132 34q84 0 145 -60t61 -153q0 -79 -59 -133.5t-131 -54.5q-77 0 -121.5 51.5t-44.5 110.5q0 75 45.5 115t99.5 40q50 0 91 -37t45 -96q0 -26 18 -26t18 24q0 38 -15 77t-55 71.5t-97 32.5q-47 0 -93 -23.5t-69 -58.5z" />
<glyph unicode="&#xb9;" horiz-adv-x="735" d="M102 1044q25 12 41.5 21.5t43 33t42.5 50.5t28.5 72t12.5 100h66q129 0 201 22v-708h116v-41h-491v41h117v491h-11q-19 -37 -56.5 -66.5t-65.5 -40.5l-27 -11zM172 465v43h477v-43h-477z" />
<glyph unicode="&#xba;" horiz-adv-x="747" d="M51 934q0 137 88.5 221t231.5 84q145 0 235 -84t90 -221q0 -136 -90 -219.5t-235 -83.5q-143 0 -231.5 83.5t-88.5 219.5zM129 465v43h477v-43h-477zM299 934q0 -153 16 -209.5t56 -56.5q45 0 61.5 56t16.5 210q0 155 -16.5 211.5t-61.5 56.5q-27 0 -42.5 -23.5 t-22.5 -81.5t-7 -163z" />
<glyph unicode="&#xbb;" horiz-adv-x="641" d="M102 160l244 325l-244 326l35 27l264 -353l-264 -352zM332 160l243 325l-243 326l35 27l264 -353l-264 -352z" />
<glyph unicode="&#xbc;" horiz-adv-x="1697" d="M61 1044q25 12 41.5 21.5t43 33t42.5 50.5t28.5 72t12.5 100h66q129 0 201 22v-708h116v-41h-491v41h117v491h-11q-19 -37 -56.5 -66.5t-64.5 -40.5l-28 -11zM424 20l737 1323l43 -12l-739 -1327zM770 272v19q54 26 122 88.5t133 144.5t113 185.5t56 197.5q87 0 195 23 v-594h186v-64h-186v-231h-259v231h-360zM907 336h223v264h-4q-51 -84 -106 -148.5t-84 -87.5l-29 -22v-6z" />
<glyph unicode="&#xbd;" horiz-adv-x="1755" d="M63 1044q25 12 41.5 21.5t43 33t42.5 50.5t28.5 72t12.5 100h66q127 0 199 22v-708h116v-41h-489v41h117v491h-11q-19 -37 -56.5 -66.5t-64.5 -40.5l-28 -11zM424 20l737 1323l43 -12l-739 -1327zM999 133q0 62 21 115t55 90.5t75.5 71t82.5 63.5t75 60.5t55 69t21 81.5 q0 58 -36 100.5t-103 42.5q-78 0 -132 -44t-54 -107q0 -21 16 -21q21 0 21 19q5 41 30 66.5t64 25.5q51 0 79.5 -32t28.5 -83q0 -48 -39 -84.5t-96 -36.5q-63 0 -102 41.5t-39 100.5q0 90 78.5 147.5t197.5 57.5q179 0 266 -65.5t87 -162.5q0 -107 -57.5 -161t-194.5 -66 q-42 -4 -64.5 -7t-66.5 -12.5t-71.5 -22t-57.5 -35t-47 -52.5l10 -8q4 3 15.5 13.5t17 14.5t18 12t24.5 11.5t30 8t42 6t54 1.5h262q42 0 61 17.5t21 54.5h24v-291h-672z" />
<glyph unicode="&#xbe;" horiz-adv-x="1677" d="M4 756q0 65 42 102t104 37q52 0 86 -33.5t34 -83.5q0 -39 -30 -72.5t-76 -33.5q-44 0 -80 45q-5 10 -14 10q-8 0 -13.5 -5.5t-5.5 -12.5q0 -5 4 -13q18 -31 55 -49t78 -18q75 0 121.5 43t46.5 123q0 57 -30.5 105t-87.5 48q-19 0 -88 -22l-11 35q1 0 21 6.5t31.5 11 t35.5 14.5t39.5 20t35.5 25.5t31.5 32t20 39t8.5 47.5q0 76 -37 111t-94 35q-58 0 -103.5 -32t-45.5 -77q0 -8 5 -13t13 -5q13 0 21 24q22 62 90 62q45 0 73.5 -34t28.5 -77q0 -52 -35.5 -88.5t-89.5 -36.5q-67 0 -106 42t-39 103q0 80 71.5 126t178.5 46q140 0 216.5 -44.5 t76.5 -124.5q0 -63 -59 -108t-173 -54l8 -19q25 2 41 2q98 0 169 -48.5t71 -147.5q0 -40 -17.5 -75.5t-56.5 -69.5t-115.5 -54t-181.5 -20q-131 0 -199.5 47t-68.5 129zM424 20l737 1323l43 -12l-739 -1327zM770 272v19q54 26 122 88.5t133 144.5t113 185.5t56 197.5 q87 0 195 23v-594h186v-64h-186v-231h-259v231h-360zM907 336h223v264h-4q-51 -84 -106 -148.5t-84 -87.5l-29 -22v-6z" />
<glyph unicode="&#xbf;" horiz-adv-x="1069" d="M115 -145q0 79 31 142.5t80.5 104.5t109.5 75t119.5 61.5t109 55t80.5 64t31 80.5q0 63 -43.5 98t-102.5 35q-107 0 -190 -104l-27 25q40 53 95.5 84.5t119.5 31.5q77 0 135 -47t58 -133q0 -42 -10.5 -76.5t-27.5 -61t-37.5 -53t-40.5 -58.5t-37 -70t-27.5 -95.5 t-10.5 -128.5q0 -305 215 -305q100 0 179.5 68.5t79.5 161.5q0 46 -21 77q-12 21 -25 21q-7 0 -12.5 -5.5t-5.5 -13.5q0 -5 10 -22q15 -26 15 -60q0 -56 -41 -92.5t-101 -36.5q-65 0 -110 46.5t-45 115.5q0 71 50.5 120.5t125.5 49.5q87 0 141.5 -55.5t54.5 -142.5 q0 -134 -123.5 -221t-312.5 -87q-130 0 -227.5 29t-153 79.5t-82 111t-26.5 131.5zM375 840q0 66 47.5 112.5t114.5 46.5q66 0 112.5 -46.5t46.5 -112.5q0 -67 -46.5 -114.5t-112.5 -47.5q-67 0 -114.5 47t-47.5 115z" />
<glyph unicode="&#xc0;" horiz-adv-x="1253" d="M-96 18v33q42 0 74 6t56.5 23t40.5 33t32.5 50.5t26 59t26.5 74.5l346 991q21 65 39 91q55 76 174 77l498 -1405h77v-33h-659v33h139l-164 463h-334l-79 -231q-21 -59 -21 -105q0 -127 184 -127h68v-33h-524zM287 543h313l-156 444zM324 1716l10 37l610 -168l-10 -35z " />
<glyph unicode="&#xc1;" horiz-adv-x="1253" d="M-96 18v33q42 0 74 6t56.5 23t40.5 33t32.5 50.5t26 59t26.5 74.5l346 991q21 65 39 91q55 76 174 77l498 -1405h77v-33h-659v33h139l-164 463h-334l-79 -231q-21 -59 -21 -105q0 -127 184 -127h68v-33h-524zM287 543h313l-156 444zM418 1585l610 168l10 -37l-610 -166z " />
<glyph unicode="&#xc2;" horiz-adv-x="1253" d="M-96 18v33q49 0 85 10.5t59.5 28t42.5 49.5t32 65.5t31 85.5q0 2 0.5 3.5t1.5 3.5l354 1003q13 36 22.5 55.5t32.5 47t61 40.5t93 13l489 -1405h86v-33h-659v33h133l-158 455h-338l-71 -211q-27 -84 -27 -119q0 -72 47.5 -98.5t136.5 -26.5h72v-33h-526zM244 1595 l379 158v-41l-367 -151zM285 539h315l-158 454zM623 1712v41l378 -158l-12 -34z" />
<glyph unicode="&#xc3;" horiz-adv-x="1253" d="M-96 18v33q42 0 74 6t56.5 23t40.5 33t32.5 50.5t26 59t26.5 74.5l346 991q21 65 39 91q55 76 174 77l498 -1405h77v-33h-659v33h139l-164 463h-334l-79 -231q-21 -59 -21 -105q0 -127 184 -127h68v-33h-524zM258 1616q3 3 9.5 8.5t27 19t42 23.5t54.5 18.5t66 8.5 q71 0 164.5 -33t148.5 -33q44 0 86 17t62 34l20 17l29 -31q-9 -9 -25.5 -22t-69 -34.5t-108.5 -21.5t-152 33t-157 33q-44 0 -86 -17t-62 -34l-20 -17zM287 543h313l-156 444z" />
<glyph unicode="&#xc4;" horiz-adv-x="1253" d="M-96 18v33q42 0 74 6t56.5 23t40.5 33t32.5 50.5t26 59t26.5 74.5l346 991q21 65 39 91q55 76 174 77l498 -1405h77v-33h-659v33h139l-164 463h-334l-79 -231q-21 -59 -21 -105q0 -127 184 -127h68v-33h-524zM287 543h313l-156 444zM313 1671q0 51 36 87t87 36t88 -36 t37 -87t-37 -88t-88 -37t-87 37t-36 88zM682 1671q0 51 36.5 87t88.5 36q51 0 87 -36t36 -87t-36 -88t-87 -37q-52 0 -88.5 37t-36.5 88z" />
<glyph unicode="&#xc5;" horiz-adv-x="1253" d="M-96 18v33q42 0 74 6t56.5 23t40.5 33t32.5 50.5t26 59t26.5 74.5l346 991q21 65 39 91q55 76 174 77l498 -1405h77v-33h-659v33h139l-164 463h-334l-79 -231q-21 -59 -21 -105q0 -127 184 -127h68v-33h-524zM287 543h313l-156 444zM504 1671q0 51 35 87t86 36 q52 0 87.5 -36t35.5 -87q0 -53 -35.5 -89t-87.5 -36q-51 0 -86 36t-35 89zM541 1671q0 -35 25 -61.5t59 -26.5q35 0 60.5 26.5t25.5 61.5q0 34 -25.5 60t-60.5 26q-34 0 -59 -26t-25 -60z" />
<glyph unicode="&#xc6;" horiz-adv-x="1867" d="M-186 18v33q135 0 203 39t135 156l624 1057q41 71 97.5 101t146.5 30h772v-473h-29q0 114 -21 193t-70.5 136t-133 84t-205.5 27h-153v-662h75q277 0 277 299h29v-632h-29q0 149 -76 227t-209 78h-67v-660h125q91 0 163 14.5t123.5 39.5t89.5 65t61 85t36.5 105.5 t18.5 119.5t5 134h29v-596h-1221v33h152v660h-299v4l-256 -432q-48 -81 -38.5 -133t50 -75.5t103.5 -23.5h77v-33h-585zM477 739h285v459h-14z" />
<glyph unicode="&#xc7;" horiz-adv-x="1333" d="M61 731q0 105 25.5 208t81.5 200t136.5 171t199.5 118.5t260 44.5q84 0 146 -18t108 -36t90 -18q33 0 56.5 18t30.5 36l7 18h27v-582h-27q-61 213 -107 309q-111 234 -284 234q-158 0 -226.5 -168.5t-68.5 -550.5q0 -166 16 -290.5t50 -215t91.5 -136.5t137.5 -46 q78 0 147 32.5t117.5 84t84 115t52.5 127t17 118.5h43q-7 -123 -51 -224t-112 -165.5t-154 -99.5t-181 -35q-180 0 -317.5 55t-223 156t-129 237t-43.5 303zM537 -193l75 201l41 -16l-51 -135q52 34 131 34q84 0 145.5 -60t61.5 -153q0 -79 -59 -133.5t-131 -54.5 q-77 0 -121.5 51.5t-44.5 110.5q0 75 45.5 115t99.5 40q50 0 90.5 -37t44.5 -96q0 -26 19 -26q18 0 18 24q0 27 -9.5 56.5t-28 58.5t-52.5 47.5t-78 18.5q-47 0 -93 -23.5t-69 -58.5z" />
<glyph unicode="&#xc8;" horiz-adv-x="1404" d="M61 18v33h132v1350h-132v33h1162v-467h-33q0 112 -20.5 190t-69 134.5t-131.5 83t-205 26.5h-154v-631h76q270 0 270 293h35v-625h-35q0 148 -72.5 223.5t-205.5 75.5h-68v-686h125q91 0 163 14t123 38.5t88.5 63.5t60.5 82.5t36.5 103t18 117.5t4.5 132h33v-584h-1201z M391 1733l10 36l611 -167l-11 -35z" />
<glyph unicode="&#xc9;" horiz-adv-x="1404" d="M61 18v29h132v1358h-132v29h1162v-467h-29q0 112 -21.5 191t-70.5 136t-132.5 84t-205.5 27h-154v-637h76q277 0 277 295h28v-625h-28q0 148 -75.5 224.5t-209.5 76.5h-68v-692h125q91 0 163 14.5t124 39t89.5 64t61 83.5t37 103.5t18.5 118t5 132.5h29v-584h-1201z M418 1585l610 168l10 -37l-610 -166z" />
<glyph unicode="&#xca;" horiz-adv-x="1404" d="M61 18v33h132v1350h-132v33h1162v-467h-33q0 112 -20.5 190t-69 134.5t-131.5 83t-205 26.5h-154v-631h76q270 0 270 293h35v-625h-35q0 148 -72.5 223.5t-205.5 75.5h-68v-686h125q91 0 163 14t123 38.5t88.5 63.5t60.5 82.5t36.5 103t18 117.5t4.5 132h33v-584h-1201z M360 1595l379 158v-41l-366 -151zM739 1712v41l379 -158l-12 -34z" />
<glyph unicode="&#xcb;" horiz-adv-x="1404" d="M61 18v29h132v1358h-132v29h1162v-467h-29q0 112 -21.5 191t-70.5 136t-132.5 84t-205.5 27h-154v-637h76q277 0 277 295h28v-625h-28q0 148 -75.5 224.5t-209.5 76.5h-68v-692h125q91 0 163 14.5t124 39t89.5 64t61 83.5t37 103.5t18.5 118t5 132.5h29v-584h-1201z M395 1671q0 51 36 87t87 36t88 -36t37 -87t-37 -88t-88 -37t-87 37t-36 88zM764 1671q0 51 36.5 87t88.5 36q51 0 87 -36t36 -87t-36 -88t-87 -37q-52 0 -88.5 37t-36.5 88z" />
<glyph unicode="&#xcc;" horiz-adv-x="868" d="M61 18v33h152v1350h-152v33h742v-33h-172v-1350h176v-33h-746zM123 1741l10 37l610 -168l-10 -35z" />
<glyph unicode="&#xcd;" horiz-adv-x="868" d="M61 18v33h152v1350h-152v33h742v-33h-172v-1350h176v-33h-746zM152 1585l610 168l10 -37l-610 -166z" />
<glyph unicode="&#xce;" horiz-adv-x="868" d="M51 1595l379 158v-41l-367 -151zM61 18v33h152v1350h-152v33h742v-33h-172v-1350h176v-33h-746zM430 1712v41l379 -158l-12 -34z" />
<glyph unicode="&#xcf;" horiz-adv-x="868" d="M61 18v29h152v1358h-152v29h742v-29h-172v-1358h176v-29h-746zM113 1671q0 51 36 87t87 36t87.5 -36t36.5 -87t-36.5 -88t-87.5 -37t-87 37t-36 88zM481 1671q0 51 36.5 87t88.5 36q51 0 87 -36t36 -87t-36 -88t-87 -37q-52 0 -88.5 37t-36.5 88z" />
<glyph unicode="&#xd0;" horiz-adv-x="1560" d="M61 0v29h132v700h-132v43h132v633h-132v29h637q172 0 308 -35t227.5 -97t152 -151t87 -192.5t26.5 -227.5t-26 -230.5t-85.5 -200t-148.5 -159t-221.5 -103.5t-298.5 -38h-658zM610 29h68q122 0 200.5 64.5t122 221.5t43.5 416q0 155 -17.5 272.5t-47.5 193t-75.5 123 t-96.5 66.5t-115 19h-82v-633h221v-43h-221v-700z" />
<glyph unicode="&#xd1;" horiz-adv-x="1411" d="M-61 18v29q48 0 84 4t63.5 17.5t46 25.5t31 42.5t19 53.5t10 72t4 85t0.5 106v737l-37 57q-2 3 -14 23.5t-19 30l-21 28.5t-26.5 29.5t-29 23t-35.5 18t-40 5.5v29h420q84 0 138 -27.5t114 -122.5l518 -833h13v544q0 82 -6 143.5t-16 105.5t-30.5 73.5t-41 47t-56 26.5 t-68 11.5t-83.5 2.5v29h596v-29q-42 0 -77 -9t-60 -22t-45 -37t-32.5 -45t-21.5 -55.5t-13.5 -58t-6.5 -64.5t-2.5 -62.5t-0.5 -62.5v-6v-965h-120q-84 0 -138 27.5t-114 122.5l-600 950h-9v-661q0 -82 6 -143.5t16.5 -105.5t30.5 -73.5t41 -47t56.5 -26.5t68 -11.5 t83.5 -2.5v-29h-596zM367 1628q3 3 9.5 8.5t26.5 19t42 23.5t54.5 18.5t65.5 8.5q71 0 165 -33t149 -33q44 0 86 17t62 34l20 17l28 -31q-9 -9 -25.5 -22t-69 -34.5t-108.5 -21.5t-152 33t-157 33q-44 0 -86 -17t-62 -34l-20 -17z" />
<glyph unicode="&#xd2;" d="M61 731q0 105 25.5 208t81.5 200t136.5 171t199.5 118.5t260 44.5q119 0 221.5 -30t178 -82.5t134.5 -123t95 -154t54.5 -172t18.5 -180.5q0 -111 -25.5 -216.5t-81.5 -203t-136 -171t-198.5 -117t-260.5 -43.5t-260.5 43.5t-199 117t-136.5 171t-81.5 203t-25.5 216.5z M481 1716l11 37l610 -168l-10 -35zM516 731q0 -210 15.5 -350.5t48.5 -219.5t76.5 -111t107.5 -32t107.5 32t76.5 111t48.5 219.5t15.5 350.5q0 169 -10.5 291.5t-30 202t-50.5 126t-68.5 65t-88.5 18.5t-88.5 -18.5t-68.5 -65t-50.5 -126t-30 -202t-10.5 -291.5z" />
<glyph unicode="&#xd3;" d="M61 731q0 105 25.5 208t81.5 200t136.5 171t199.5 118.5t260 44.5q119 0 221.5 -30t178 -82.5t134.5 -123t95 -154t54.5 -172t18.5 -180.5q0 -111 -25.5 -216.5t-81.5 -203t-136 -171t-198.5 -117t-260.5 -43.5t-260.5 43.5t-199 117t-136.5 171t-81.5 203t-25.5 216.5z M397 1585l611 168l10 -37l-610 -166zM516 731q0 -210 15.5 -350.5t48.5 -219.5t76.5 -111t107.5 -32t107.5 32t76.5 111t48.5 219.5t15.5 350.5q0 169 -10.5 291.5t-30 202t-50.5 126t-68.5 65t-88.5 18.5t-88.5 -18.5t-68.5 -65t-50.5 -126t-30 -202t-10.5 -291.5z" />
<glyph unicode="&#xd4;" d="M61 731q0 105 25.5 208t81.5 200t136.5 171t199.5 118.5t260 44.5q119 0 221.5 -30t178 -82.5t134.5 -123t95 -154t54.5 -172t18.5 -180.5q0 -111 -25.5 -216.5t-81.5 -203t-136 -171t-198.5 -117t-260.5 -43.5t-260.5 43.5t-199 117t-136.5 171t-81.5 203t-25.5 216.5z M387 1595l379 158v-41l-367 -151zM516 731q0 -210 15.5 -350.5t48.5 -219.5t76.5 -111t107.5 -32t107.5 32t76.5 111t48.5 219.5t15.5 350.5q0 169 -10.5 291.5t-30 202t-50.5 126t-68.5 65t-88.5 18.5t-88.5 -18.5t-68.5 -65t-50.5 -126t-30 -202t-10.5 -291.5zM766 1712 v41l379 -158l-12 -34z" />
<glyph unicode="&#xd5;" d="M61 731q0 105 25.5 208t81.5 200t136.5 171t199.5 118.5t260 44.5q119 0 221.5 -30t178 -82.5t134.5 -123t95 -154t54.5 -172t18.5 -180.5q0 -111 -25.5 -216.5t-81.5 -203t-136 -171t-198.5 -117t-260.5 -43.5t-260.5 43.5t-199 117t-136.5 171t-81.5 203t-25.5 216.5z M416 1616q3 3 9.5 8.5t26.5 19t42 23.5t54.5 18.5t65.5 8.5q71 0 165 -33t149 -33q44 0 86 17t62 34l20 17l28 -31q-3 -3 -9 -8.5t-26 -19t-42 -23.5t-56 -18.5t-69 -8.5q-56 0 -152 33t-158 33q-44 0 -86 -17t-62 -34l-20 -17zM516 731q0 -210 15.5 -350.5t48.5 -219.5 t76.5 -111t107.5 -32t107.5 32t76.5 111t48.5 219.5t15.5 350.5q0 169 -10.5 291.5t-30 202t-50.5 126t-68.5 65t-88.5 18.5t-88.5 -18.5t-68.5 -65t-50.5 -126t-30 -202t-10.5 -291.5z" />
<glyph unicode="&#xd6;" d="M61 731q0 105 25.5 208t81.5 200t136.5 171t199.5 118.5t260 44.5q119 0 221.5 -30t178 -82.5t134.5 -123t95 -154t54.5 -172t18.5 -180.5q0 -111 -25.5 -216.5t-81.5 -203t-136 -171t-198.5 -117t-260.5 -43.5t-260.5 43.5t-199 117t-136.5 171t-81.5 203t-25.5 216.5z M457 1671q0 51 36 87t87 36t88 -36t37 -87t-37 -88t-88 -37t-87 37t-36 88zM516 731q0 -210 15.5 -350.5t48.5 -219.5t76.5 -111t107.5 -32t107.5 32t76.5 111t48.5 219.5t15.5 350.5q0 169 -10.5 291.5t-30 202t-50.5 126t-68.5 65t-88.5 18.5t-88.5 -18.5t-68.5 -65 t-50.5 -126t-30 -202t-10.5 -291.5zM825 1671q0 51 36.5 87t88.5 36q51 0 87 -36t36 -87t-36 -88t-87 -37q-52 0 -88.5 37t-36.5 88z" />
<glyph unicode="&#xd7;" horiz-adv-x="933" d="M127 147l328 338l-312 322l33 29l307 -320l310 320l30 -31l-309 -320l330 -338l-31 -30l-328 338l-327 -338z" />
<glyph unicode="&#xd8;" d="M61 731q0 105 25.5 208t81.5 200t136.5 171t199.5 118.5t260 44.5q134 0 246 -39l71 202l45 -14l-71 -205q136 -56 231 -167.5t137.5 -243t42.5 -275.5q0 -111 -25.5 -216.5t-81.5 -203t-136 -171t-198.5 -117t-260.5 -43.5q-109 0 -211 26l-78 -223l-43 14l78 223 q-112 40 -200 115.5t-141 172t-80.5 204t-27.5 219.5zM516 731q0 -377 53 -545l385 1092q-29 85 -76 120.5t-114 35.5q-51 0 -88.5 -18.5t-68.5 -65t-50.5 -126t-30 -202t-10.5 -291.5zM596 123q55 -105 168 -105q64 0 107.5 32t76.5 111t48.5 219.5t15.5 350.5 q0 306 -35 467z" />
<glyph unicode="&#xd9;" horiz-adv-x="1503" d="M61 1401h132v-686q0 -104 6 -185t22.5 -160t44.5 -136.5t73 -107.5t106.5 -80.5t146.5 -48t192 -17.5q120 0 207.5 25.5t146 73.5t93.5 127.5t50 178t15 233.5v406q0 377 269 377v33h-656v-33q186 0 268.5 -92t82.5 -285v-403q0 -98 -6.5 -173t-28.5 -154.5t-59 -131 t-102 -84.5t-155 -33q-59 0 -105.5 23t-77.5 59t-53.5 93.5t-34 112t-18.5 130.5t-8.5 132.5t-1.5 133.5v672h131v33h-680v-33zM446 1716l11 37l610 -168l-10 -35z" />
<glyph unicode="&#xda;" horiz-adv-x="1503" d="M61 1401h132v-686q0 -104 6 -185t22.5 -160t44.5 -136.5t73 -107.5t106.5 -80.5t146.5 -48t192 -17.5q120 0 207.5 25.5t146 73.5t93.5 127.5t50 178t15 233.5v406q0 377 269 377v33h-656v-33q186 0 268.5 -92t82.5 -285v-403q0 -98 -6.5 -173t-28.5 -154.5t-59 -131 t-102 -84.5t-155 -33q-59 0 -105.5 23t-77.5 59t-53.5 93.5t-34 112t-18.5 130.5t-8.5 132.5t-1.5 133.5v672h131v33h-680v-33zM541 1585l610 168l10 -37l-610 -166z" />
<glyph unicode="&#xdb;" horiz-adv-x="1503" d="M61 1401h132v-686q0 -104 6 -185t22.5 -160t44.5 -136.5t73 -107.5t106.5 -80.5t146.5 -48t192 -17.5q120 0 207.5 25.5t146 73.5t93.5 127.5t50 178t15 233.5v406q0 377 269 377v33h-656v-33q186 0 268.5 -92t82.5 -285v-403q0 -98 -6.5 -173t-28.5 -154.5t-59 -131 t-102 -84.5t-155 -33q-59 0 -105.5 23t-77.5 59t-53.5 93.5t-34 112t-18.5 130.5t-8.5 132.5t-1.5 133.5v672h131v33h-680v-33zM467 1595l379 158v-41l-367 -151zM846 1712v41l379 -158l-13 -34z" />
<glyph unicode="&#xdc;" horiz-adv-x="1503" d="M61 1405h132v-690q0 -104 6 -185t22.5 -160t44.5 -136t73 -107t106.5 -80.5t146.5 -47.5t192 -17q150 0 249 37.5t157.5 119t82 196t23.5 283.5v410q0 377 269 377v29h-656v-29q186 0 268.5 -92t82.5 -285v-407q0 -68 -3 -123.5t-12.5 -117t-25 -108t-42.5 -90.5 t-63 -72.5t-88 -45.5t-117 -17q-59 0 -105.5 23t-77.5 58.5t-53.5 93t-34 111.5t-18.5 130t-8.5 132.5t-1.5 133.5v676h131v29h-680v-29zM506 1671q0 51 36 87t87 36t88 -36t37 -87t-37 -88t-88 -37t-87 37t-36 88zM874 1671q0 51 36.5 87t88.5 36q51 0 87 -36t36 -87 t-36 -88t-87 -37q-52 0 -88.5 37t-36.5 88z" />
<glyph unicode="&#xdd;" horiz-adv-x="1316" d="M-82 1405v29h739v-29h-178l344 -737l195 446q39 83 39 150q0 141 -215 141h-58v29h594v-29q-98 0 -157.5 -30.5t-90.5 -94.5l-290 -666v-585h131v-29h-680v29h131v553l-385 823h-119zM377 1585l610 168l10 -37l-610 -166z" />
<glyph unicode="&#xde;" horiz-adv-x="1363" d="M55 1401v33h664v-33h-137v-234h145q307 0 446.5 -94.5t139.5 -292.5q0 -211 -143 -314.5t-392 -103.5q-102 0 -196 23v-334h139v-33h-664v33h138v1350h-140zM582 430q53 -16 94 -16q109 0 166 86t57 280q0 198 -61 276.5t-226 78.5h-30v-705z" />
<glyph unicode="&#xdf;" horiz-adv-x="1409" d="M14 18v33h123v1008q0 92 32.5 164.5t86 118.5t127.5 76t151 42.5t162 12.5q154 0 262.5 -18.5t170 -55t89 -84.5t27.5 -113q0 -36 -9.5 -66t-24 -53t-39.5 -43t-48 -33.5t-58 -27t-62 -22t-66 -19.5q-13 -4 -35.5 -9.5t-35.5 -9t-31 -9t-28 -10t-20.5 -10.5t-15 -12.5 t-4.5 -13.5q0 -19 33.5 -38t87.5 -38.5t119 -43t130 -57.5t119 -77t87.5 -107.5t33.5 -142.5t-29 -143.5t-75.5 -108t-107.5 -72.5t-123 -43t-123 -13q-131 0 -210 60t-79 157q0 77 47 130.5t127 53.5q67 0 113.5 -43t46.5 -111q0 -62 -38.5 -103.5t-97.5 -41.5 q-55 0 -90 41q-3 4 -9.5 13.5t-11.5 13.5t-11 4q-19 0 -19 -19q0 -13 12 -31q31 -41 84.5 -63.5t112.5 -22.5q87 0 149 47.5t62 137.5q0 49 -26.5 89.5t-68.5 68.5t-93.5 54t-102.5 53.5t-93 60t-68.5 80t-26.5 106.5q0 52 21.5 94t53.5 68t69.5 57.5t69.5 62t53.5 82.5 t21.5 117q0 238 -211 238q-107 0 -145 -77.5t-38 -279.5v-1026h123v-33h-633z" />
<glyph unicode="&#xe0;" horiz-adv-x="1236" d="M61 250q0 59 25.5 107t65.5 79t98 54t112.5 35t121.5 19.5t111.5 9t94.5 1.5v68q0 41 -1 66.5t-5 65t-12.5 64t-24.5 54t-39 46t-58.5 28t-80.5 11.5q-116 0 -205.5 -53t-89.5 -117q0 -8 6 -13t13 -5q8 0 12.5 4t8.5 16l5 11q1 3 3.5 8t11.5 17.5t21 22t32.5 17.5t44.5 8 q59 0 95 -44t36 -103q0 -67 -47.5 -111.5t-108.5 -44.5q-82 0 -132 50t-50 122q0 119 108.5 187.5t298.5 68.5q132 0 226.5 -18.5t156.5 -54t97.5 -94.5t50 -131t14.5 -173v-348q0 -84 37 -84q38 0 64 57.5t36 147.5l37 -4q-19 -150 -85 -233.5t-199 -83.5 q-103 0 -166.5 68.5t-71.5 164.5h-12q-14 -53 -33.5 -91t-54 -72.5t-90.5 -52t-133 -17.5q-68 0 -126.5 14t-109 43.5t-80 84t-29.5 128.5zM307 1251l10 37l611 -168l-10 -35zM449 291q0 -104 32.5 -156.5t81.5 -52.5q32 0 57.5 23.5t40 61.5t22 79.5t7.5 81.5v190 q-106 5 -173.5 -49t-67.5 -178z" />
<glyph unicode="&#xe1;" horiz-adv-x="1236" d="M61 250q0 59 25.5 107t65.5 79t98 54t112.5 35t121.5 19.5t111.5 9t94.5 1.5v68q0 41 -1 66.5t-5 65t-12.5 64t-24.5 54t-39 46t-58.5 28t-80.5 11.5q-116 0 -205.5 -53t-89.5 -117q0 -8 6 -13t13 -5q8 0 12.5 4t8.5 16l5 11q1 3 3.5 8t11.5 17.5t21 22t32.5 17.5t44.5 8 q59 0 95 -44t36 -103q0 -67 -47.5 -111.5t-108.5 -44.5q-82 0 -132 50t-50 122q0 119 108.5 187.5t298.5 68.5q132 0 226.5 -18.5t156.5 -54t97.5 -94.5t50 -131t14.5 -173v-348q0 -84 37 -84q38 0 64 57.5t36 147.5l37 -4q-19 -150 -85 -233.5t-199 -83.5 q-103 0 -166.5 68.5t-71.5 164.5h-12q-14 -53 -33.5 -91t-54 -72.5t-90.5 -52t-133 -17.5q-68 0 -126.5 14t-109 43.5t-80 84t-29.5 128.5zM307 1120l611 168l10 -37l-611 -166zM449 291q0 -104 32.5 -156.5t81.5 -52.5q32 0 57.5 23.5t40 61.5t22 79.5t7.5 81.5v190 q-106 5 -173.5 -49t-67.5 -178z" />
<glyph unicode="&#xe2;" horiz-adv-x="1236" d="M61 250q0 59 25.5 107t65.5 79t98 54t112.5 35t121.5 19.5t111.5 9t94.5 1.5v68q0 41 -1 66.5t-5 65t-12.5 64t-24.5 54t-39 46t-58.5 28t-80.5 11.5q-116 0 -205.5 -53t-89.5 -117q0 -8 6 -13t13 -5q8 0 12.5 4t8.5 16l5 11q1 3 3.5 8t11.5 17.5t21 22t32.5 17.5t44.5 8 q59 0 95 -44t36 -103q0 -67 -47.5 -111.5t-108.5 -44.5q-82 0 -132 50t-50 122q0 119 108.5 187.5t298.5 68.5q132 0 226.5 -18.5t156.5 -54t97.5 -94.5t50 -131t14.5 -173v-348q0 -84 37 -84q38 0 64 57.5t36 147.5l37 -4q-19 -150 -85 -233.5t-199 -83.5 q-103 0 -166.5 68.5t-71.5 164.5h-12q-14 -53 -33.5 -91t-54 -72.5t-90.5 -52t-133 -17.5q-68 0 -126.5 14t-109 43.5t-80 84t-29.5 128.5zM240 1130l378 158v-41l-366 -151zM449 291q0 -104 32.5 -156.5t81.5 -52.5q32 0 57.5 23.5t40 61.5t22 79.5t7.5 81.5v190 q-106 5 -173.5 -49t-67.5 -178zM618 1247v41l379 -158l-12 -34z" />
<glyph unicode="&#xe3;" horiz-adv-x="1236" d="M61 250q0 59 25.5 107t65.5 79t98 54t112.5 35t121.5 19.5t111.5 9t94.5 1.5v68q0 41 -1 66.5t-5 65t-12.5 64t-24.5 54t-39 46t-58.5 28t-80.5 11.5q-116 0 -205.5 -53t-89.5 -117q0 -8 6 -13t13 -5q8 0 12.5 4t8.5 16l5 11q1 3 3.5 8t11.5 17.5t21 22t32.5 17.5t44.5 8 q59 0 95 -44t36 -103q0 -67 -47.5 -111.5t-108.5 -44.5q-82 0 -132 50t-50 122q0 119 108.5 187.5t298.5 68.5q132 0 226.5 -18.5t156.5 -54t97.5 -94.5t50 -131t14.5 -173v-348q0 -84 37 -84q38 0 64 57.5t36 147.5l37 -4q-19 -150 -85 -233.5t-199 -83.5 q-103 0 -166.5 68.5t-71.5 164.5h-12q-14 -53 -33.5 -91t-54 -72.5t-90.5 -52t-133 -17.5q-68 0 -126.5 14t-109 43.5t-80 84t-29.5 128.5zM264 1163q3 3 9.5 8.5t27 19t42 23.5t54.5 18.5t66 8.5q71 0 164.5 -32.5t148.5 -32.5q44 0 86 17t62 33l20 17l29 -31 q-3 -3 -9 -8.5t-26.5 -18.5t-42.5 -23t-56 -18.5t-69 -8.5q-56 0 -152 32.5t-157 32.5q-44 0 -86 -17t-62 -33l-20 -17zM449 291q0 -104 32.5 -156.5t81.5 -52.5q32 0 57.5 23.5t40 61.5t22 79.5t7.5 81.5v190q-106 5 -173.5 -49t-67.5 -178z" />
<glyph unicode="&#xe4;" horiz-adv-x="1236" d="M61 250q0 59 25.5 107t65.5 79t98 54t112.5 35t121.5 19.5t111.5 9t94.5 1.5v68q0 41 -1 66.5t-5 65t-12.5 64t-24.5 54t-39 46t-58.5 28t-80.5 11.5q-116 0 -205.5 -53t-89.5 -117q0 -8 6 -13t13 -5q8 0 12.5 4t8.5 16l5 11q1 3 3.5 8t11.5 17.5t21 22t32.5 17.5t44.5 8 q59 0 95 -44t36 -103q0 -67 -47.5 -111.5t-108.5 -44.5q-82 0 -132 50t-50 122q0 119 108.5 187.5t298.5 68.5q132 0 226.5 -18.5t156.5 -54t97.5 -94.5t50 -131t14.5 -173v-348q0 -84 37 -84q38 0 64 57.5t36 147.5l37 -4q-19 -150 -85 -233.5t-199 -83.5 q-103 0 -166.5 68.5t-71.5 164.5h-12q-14 -53 -33.5 -91t-54 -72.5t-90.5 -52t-133 -17.5q-68 0 -126.5 14t-109 43.5t-80 84t-29.5 128.5zM311 1190q0 51 36 87t87 36t88 -36t37 -87t-37 -88t-88 -37t-87 37t-36 88zM449 291q0 -104 32.5 -156.5t81.5 -52.5q32 0 57.5 23.5 t40 61.5t22 79.5t7.5 81.5v190q-106 5 -173.5 -49t-67.5 -178zM680 1190q0 51 36.5 87t88.5 36q51 0 87 -36t36 -87t-36 -88t-87 -37q-52 0 -88.5 37t-36.5 88z" />
<glyph unicode="&#xe5;" horiz-adv-x="1236" d="M61 250q0 59 25.5 107t65.5 79t98 54t112.5 35t121.5 19.5t111.5 9t94.5 1.5v68q0 41 -1 66.5t-5 65t-12.5 64t-24.5 54t-39 46t-58.5 28t-80.5 11.5q-116 0 -205.5 -53t-89.5 -117q0 -8 6 -13t13 -5q8 0 12.5 4t8.5 16l5 11q1 3 3.5 8t11.5 17.5t21 22t32.5 17.5t44.5 8 q59 0 95 -44t36 -103q0 -67 -47.5 -111.5t-108.5 -44.5q-82 0 -132 50t-50 122q0 119 108.5 187.5t298.5 68.5q132 0 226.5 -18.5t156.5 -54t97.5 -94.5t50 -131t14.5 -173v-348q0 -84 37 -84q38 0 64 57.5t36 147.5l37 -4q-19 -150 -85 -233.5t-199 -83.5 q-103 0 -166.5 68.5t-71.5 164.5h-12q-14 -53 -33.5 -91t-54 -72.5t-90.5 -52t-133 -17.5q-68 0 -126.5 14t-109 43.5t-80 84t-29.5 128.5zM449 291q0 -104 32.5 -156.5t81.5 -52.5q32 0 57.5 23.5t40 61.5t22 79.5t7.5 81.5v190q-106 5 -173.5 -49t-67.5 -178zM473 1190 q0 51 35 87t86 36q52 0 87.5 -36t35.5 -87q0 -53 -35.5 -89t-87.5 -36q-51 0 -86 36t-35 89zM510 1190q0 -35 25 -61.5t59 -26.5q35 0 60.5 26.5t25.5 61.5q0 34 -25.5 60t-60.5 26q-34 0 -59 -26t-25 -60z" />
<glyph unicode="&#xe6;" horiz-adv-x="1875" d="M160 250q0 59 25.5 107t65 79t98 54t112.5 35t121 19.5t111.5 9t94.5 1.5v68q0 41 -1 66.5t-5 65t-12.5 64t-24.5 54t-39 46t-58.5 28t-80.5 11.5q-116 0 -205.5 -53t-89.5 -117q0 -8 6 -13t13 -5q8 0 12.5 4t8.5 16l5 11q1 3 3.5 8t11.5 17.5t21 22t32.5 17.5t44.5 8 q59 0 95 -44t36 -103q0 -67 -47 -111.5t-108 -44.5q-82 0 -132.5 50t-50.5 122q0 119 109 187.5t299 68.5q227 0 352 -67q125 67 315 67q74 0 142.5 -10t134.5 -34t114 -59.5t77.5 -91t29.5 -124.5q0 -55 -16.5 -98t-48 -72.5t-71 -50t-92.5 -31.5t-106 -15.5t-116 -4.5 h-170v-33q0 -194 54 -273t163 -79q35 0 72 7.5t82.5 29t83.5 55.5t70.5 93t47.5 134l37 -6q-74 -356 -453 -356q-107 0 -200.5 34.5t-149.5 98.5q-7 -5 -20 -14t-55.5 -32t-87.5 -40.5t-113 -32t-136 -14.5q-81 0 -152 15t-130.5 45.5t-94 84.5t-34.5 125zM547 272 q0 -129 32 -187t83 -58q126 0 126 245v246q-51 2 -92.5 -8.5t-76 -36.5t-53.5 -77t-19 -124zM1176 444h34q107 0 160 63.5t53 203.5q0 50 -6 92.5t-19.5 80t-38 58.5t-59.5 21q-68 0 -96 -69t-28 -204v-246z" />
<glyph unicode="&#xe7;" horiz-adv-x="1054" d="M41 489q0 241 146.5 375.5t394.5 134.5q90 0 161.5 -25.5t113.5 -67t63.5 -89t21.5 -96.5q0 -81 -48 -132.5t-126 -51.5q-69 0 -115.5 44.5t-46.5 110.5q0 64 38 106t99 42q86 0 113 -82q8 -27 23 -27q18 0 18 21q0 6 -4 22q-27 78 -89.5 123t-154.5 45 q-40 0 -71.5 -15.5t-51.5 -37.5t-34 -62t-21.5 -72t-11 -85t-4 -83.5t-0.5 -84.5q0 -82 2 -137t8.5 -113t19 -93.5t32.5 -65.5t50.5 -43t71.5 -13q108 0 182 80t97 198l4 21h36q-19 -157 -123 -256.5t-257 -99.5q-249 0 -393 133t-144 376zM352 -193l76 201l41 -16l-51 -135 q52 34 131 34q84 0 145.5 -60t61.5 -153q0 -79 -59.5 -133.5t-131.5 -54.5q-77 0 -121.5 51.5t-44.5 110.5q0 75 46 115t100 40q50 0 90.5 -37t44.5 -96q0 -26 18 -26q19 0 19 24q0 27 -9.5 56.5t-28 58.5t-52.5 47.5t-78 18.5q-47 0 -93 -23.5t-69 -58.5z" />
<glyph unicode="&#xe8;" horiz-adv-x="1112" d="M61 489q0 238 143.5 374t389.5 136q93 0 173.5 -16.5t148.5 -51t107.5 -97t39.5 -146.5q0 -78 -36 -134t-101 -87t-142.5 -45t-171.5 -14h-135q0 -91 9.5 -156t33 -117.5t67 -79t107.5 -26.5q122 0 213 80.5t119 214.5l4 18l37 -6q-30 -167 -142 -261.5t-292 -94.5 q-273 0 -422.5 129.5t-149.5 379.5zM287 1251l10 37l610 -168l-10 -35zM475 444h51q92 0 128 62.5t36 183.5q0 152 -25 212.5t-71 60.5q-42 0 -65.5 -25.5t-38.5 -108.5t-15 -237v-148z" />
<glyph unicode="&#xe9;" horiz-adv-x="1128" d="M51 489q0 238 143.5 374t389.5 136q93 0 173.5 -16.5t148.5 -51t107.5 -97t39.5 -146.5q0 -78 -36 -134t-101 -87t-142.5 -45t-171.5 -14h-135q0 -91 9.5 -156t33 -117.5t67 -79t107.5 -26.5q122 0 213 80.5t119 214.5l4 18l37 -6q-30 -167 -142 -261.5t-292 -94.5 q-273 0 -422.5 129.5t-149.5 379.5zM252 1120l610 168l10 -37l-610 -166zM465 444h51q92 0 128 62.5t36 183.5q0 152 -25 212.5t-71 60.5q-42 0 -65.5 -25.5t-38.5 -108.5t-15 -237v-148z" />
<glyph unicode="&#xea;" horiz-adv-x="1150" d="M51 489q0 238 143.5 374t389.5 136q93 0 173.5 -16.5t148.5 -51t107.5 -97t39.5 -146.5q0 -78 -36 -134t-101 -87t-142.5 -45t-171.5 -14h-135q0 -91 9.5 -156t33 -117.5t67 -79t107.5 -26.5q122 0 213 80.5t119 214.5l4 18l37 -6q-30 -167 -142 -261.5t-292 -94.5 q-273 0 -422.5 129.5t-149.5 379.5zM209 1141l379 157l381 -157l-13 -35l-368 147l-367 -147zM465 444h51q92 0 128 62.5t36 183.5q0 152 -25 212.5t-71 60.5q-42 0 -65.5 -25.5t-38.5 -108.5t-15 -237v-148z" />
<glyph unicode="&#xeb;" horiz-adv-x="1118" d="M41 489q0 238 143 374t389 136q93 0 173.5 -16.5t148.5 -51t107.5 -97t39.5 -146.5q0 -78 -36 -134t-100.5 -87t-142 -45t-171.5 -14h-135q0 -91 9.5 -156t33 -117.5t67 -79t107.5 -26.5q122 0 213 80.5t119 214.5l4 18l37 -6q-30 -167 -142.5 -261.5t-292.5 -94.5 q-272 0 -421.5 129.5t-149.5 379.5zM252 1190q0 51 36 87t87 36t88 -36t37 -87t-37 -88t-88 -37t-87 37t-36 88zM455 444h51q92 0 128 62.5t36 183.5q0 152 -25.5 212.5t-71.5 60.5q-42 0 -65.5 -25.5t-38 -108.5t-14.5 -237v-148zM621 1190q0 51 36 87t88 36q51 0 87 -36 t36 -87t-36 -88t-87 -37q-52 0 -88 37t-36 88z" />
<glyph unicode="&#xec;" horiz-adv-x="745" d="M39 928v33h123q229 0 409 38v-948h127v-33h-641v33h127v877h-145zM63 1251l11 37l610 -168l-10 -35z" />
<glyph unicode="&#xed;" horiz-adv-x="745" d="M39 928v33h123q229 0 409 38v-948h127v-33h-641v33h127v877h-145zM76 1120l610 168l10 -37l-610 -166z" />
<glyph unicode="&#xee;" horiz-adv-x="745" d="M-39 1141l379 157l381 -157l-12 -35l-369 147l-367 -147zM39 928v33h123q229 0 409 38v-948h127v-33h-641v33h127v877h-145z" />
<glyph unicode="&#xef;" horiz-adv-x="745" d="M39 928v33h123q229 0 409 38v-948h127v-33h-641v33h127v877h-145zM59 1190q0 51 36 87t87 36t88 -36t37 -87t-37 -88t-88 -37t-87 37t-36 88zM428 1190q0 51 36.5 87t88.5 36q51 0 87 -36t36 -87t-36 -88t-87 -37q-52 0 -88.5 37t-36.5 88z" />
<glyph unicode="&#xf0;" horiz-adv-x="1251" d="M41 424q0 86 29.5 159.5t80 125t117 88t140.5 54t151 17.5q51 0 96 -8.5t65 -17.5l19 -8l15 8q-24 207 -133 346l-232 -92l-16 39l219 88q-151 167 -422 217l8 33q335 -27 572 -187l264 107l16 -39l-239 -97q151 -115 232 -281.5t81 -379.5q0 -81 -18.5 -164t-61 -165 t-103 -145t-153 -102.5t-203.5 -39.5q-230 0 -377 123t-147 321zM455 424q0 -228 27.5 -318t99.5 -90t99.5 90t27.5 318q0 218 -27 313q-15 50 -39 72t-61 22q-72 0 -99.5 -89.5t-27.5 -317.5z" />
<glyph unicode="&#xf1;" horiz-adv-x="1300" d="M0 928v33h123q229 0 409 38v-200h11q40 101 110 150.5t176 49.5q73 0 128.5 -20.5t91.5 -56t58.5 -89.5t32 -116t9.5 -139v-527h127v-33h-633v33h127v441q0 209 -18.5 303t-81.5 94q-37 0 -66.5 -46.5t-46 -121t-25 -157t-8.5 -165.5v-381h-506v33h127v877h-145z M270 1163q3 3 9.5 8.5t27 19t42 23.5t54.5 18.5t66 8.5q71 0 164.5 -32.5t148.5 -32.5q44 0 86 17t62 33l20 17l29 -31q-3 -3 -9 -8.5t-26.5 -18.5t-42.5 -23t-56 -18.5t-69 -8.5q-56 0 -152 32.5t-157 32.5q-44 0 -86 -17t-62 -33l-20 -17z" />
<glyph unicode="&#xf2;" horiz-adv-x="1183" d="M51 489q0 228 149.5 369t391.5 141t391.5 -141t149.5 -369t-149.5 -368.5t-391.5 -140.5t-391.5 140.5t-149.5 368.5zM309 1251l10 37l611 -168l-10 -35zM465 489q0 -265 27.5 -369t99.5 -104t99.5 104t27.5 369t-27.5 369.5t-99.5 104.5t-99.5 -104.5t-27.5 -369.5z" />
<glyph unicode="&#xf3;" horiz-adv-x="1204" d="M61 489q0 228 149.5 369t391.5 141t391.5 -141t149.5 -369t-149.5 -368.5t-391.5 -140.5t-391.5 140.5t-149.5 368.5zM332 1120l610 168l10 -37l-610 -166zM475 489q0 -265 27.5 -369t99.5 -104t99.5 104t27.5 369t-27.5 369.5t-99.5 104.5t-99.5 -104.5t-27.5 -369.5z " />
<glyph unicode="&#xf4;" horiz-adv-x="1183" d="M51 489q0 228 149.5 369t391.5 141t391.5 -141t149.5 -369t-149.5 -368.5t-391.5 -140.5t-391.5 140.5t-149.5 368.5zM209 1141l379 157l381 -157l-13 -35l-368 147l-367 -147zM465 489q0 -265 27.5 -369t99.5 -104t99.5 104t27.5 369t-27.5 369.5t-99.5 104.5 t-99.5 -104.5t-27.5 -369.5z" />
<glyph unicode="&#xf5;" horiz-adv-x="1183" d="M51 489q0 228 149.5 369t391.5 141t391.5 -141t149.5 -369t-149.5 -368.5t-391.5 -140.5t-391.5 140.5t-149.5 368.5zM238 1163q3 3 9.5 8.5t26.5 19t42 23.5t54.5 18.5t65.5 8.5q71 0 165 -32.5t149 -32.5q44 0 86 17t62 33l20 17l28 -31q-3 -3 -9 -8.5t-26.5 -18.5 t-42.5 -23t-56 -18.5t-69 -8.5q-55 0 -151 32.5t-158 32.5q-44 0 -86 -17t-62 -33l-20 -17zM465 489q0 -265 27.5 -369t99.5 -104t99.5 104t27.5 369t-27.5 369.5t-99.5 104.5t-99.5 -104.5t-27.5 -369.5z" />
<glyph unicode="&#xf6;" horiz-adv-x="1183" d="M51 489q0 228 149.5 369t391.5 141t391.5 -141t149.5 -369t-149.5 -368.5t-391.5 -140.5t-391.5 140.5t-149.5 368.5zM285 1190q0 51 36 87t87 36t87.5 -36t36.5 -87t-36.5 -88t-87.5 -37t-87 37t-36 88zM465 489q0 -265 27.5 -369t99.5 -104t99.5 104t27.5 369 t-27.5 369.5t-99.5 104.5t-99.5 -104.5t-27.5 -369.5zM653 1190q0 51 36.5 87t88.5 36q51 0 87 -36t36 -87t-36 -88t-87 -37q-52 0 -88.5 37t-36.5 88z" />
<glyph unicode="&#xf7;" horiz-adv-x="1040" d="M35 463v43h971v-43h-971zM352 145q0 70 48.5 119t117.5 49q70 0 119 -48.5t49 -119.5q0 -69 -49 -117t-119 -48q-69 0 -117.5 48t-48.5 117zM352 831q0 70 48.5 119t117.5 49q70 0 119 -48.5t49 -119.5q0 -69 -49 -117t-119 -48q-69 0 -117.5 48t-48.5 117zM395 145 q0 -51 36 -86.5t87 -35.5q52 0 87.5 35.5t35.5 86.5q0 53 -35.5 88t-87.5 35q-51 0 -87 -35.5t-36 -87.5zM395 831q0 -51 36 -86.5t87 -35.5q52 0 87.5 35.5t35.5 86.5q0 53 -35.5 88t-87.5 35q-51 0 -87 -35.5t-36 -87.5z" />
<glyph unicode="&#xf8;" horiz-adv-x="1163" d="M41 489q0 228 149.5 369t391.5 141t391 -140.5t149 -369.5q0 -228 -149 -368.5t-391 -140.5t-391.5 140.5t-149.5 368.5zM309 -219l508 1440l45 -15l-510 -1439zM455 489q0 -265 27.5 -369t99.5 -104t99.5 104t27.5 369t-27.5 369.5t-99.5 104.5t-99.5 -104.5 t-27.5 -369.5z" />
<glyph unicode="&#xf9;" horiz-adv-x="1304" d="M8 928v33h123q221 0 401 38v-514q0 -67 1 -113t4.5 -94t10.5 -78t18 -55.5t27.5 -37t39.5 -11.5q37 0 66 42t45.5 111t25 147.5t8.5 160.5v369h-145v35h123q221 0 401 38v-948h127v-33h-514v160h-10q-80 -201 -287 -201q-91 0 -154.5 30.5t-98.5 88.5t-50.5 131.5 t-15.5 171.5v529h-146zM336 1251l10 37l610 -168l-10 -35z" />
<glyph unicode="&#xfa;" horiz-adv-x="1304" d="M8 928v33h123q221 0 401 38v-514q0 -67 1 -113t4.5 -94t10.5 -78t18 -55.5t27.5 -37t39.5 -11.5q37 0 66 42t45.5 111t25 147.5t8.5 160.5v369h-145v35h123q221 0 401 38v-948h127v-33h-514v160h-10q-80 -201 -287 -201q-91 0 -154.5 30.5t-98.5 88.5t-50.5 131.5 t-15.5 171.5v529h-146zM432 1120l610 168l11 -37l-611 -166z" />
<glyph unicode="&#xfb;" horiz-adv-x="1304" d="M8 928v33h123q221 0 401 38v-514q0 -67 1 -113t4.5 -94t10.5 -78t18 -55.5t27.5 -37t39.5 -11.5q37 0 66 42t45.5 111t25 147.5t8.5 160.5v369h-145v35h123q221 0 401 38v-948h127v-33h-514v160h-10q-80 -201 -287 -201q-91 0 -154.5 30.5t-98.5 88.5t-50.5 131.5 t-15.5 171.5v529h-146zM254 1141l379 157l381 -157l-13 -35l-368 147l-367 -147z" />
<glyph unicode="&#xfc;" horiz-adv-x="1325" d="M29 928v33h123q221 0 401 38v-514q0 -68 1 -113t4.5 -93.5t10 -78.5t17.5 -55.5t27.5 -37t39.5 -11.5q37 0 66.5 42t46 110.5t25 147.5t8.5 161v369h-146v35h123q222 0 402 38v-948h127v-33h-514v160h-11q-80 -201 -286 -201q-91 0 -154.5 30.5t-99 88.5t-51 131.5 t-15.5 171.5v529h-145zM375 1190q0 51 36 87t87 36t88 -36t37 -87t-37 -88t-88 -37t-87 37t-36 88zM743 1190q0 51 36.5 87t88.5 36q51 0 87 -36t36 -87t-36 -88t-87 -37q-52 0 -88.5 37t-36.5 88z" />
<glyph unicode="&#xfd;" horiz-adv-x="1044" d="M-90 928v33h123q246 0 426 38q-4 -94 -4 -174q0 -152 23.5 -271t59.5 -184t73.5 -97.5t70.5 -32.5q115 0 205 200q47 106 47 260q0 150 -82 220q-10 10 -32 22t-36 12q-8 0 -13 -5t-5 -13q0 -13 18 -21q70 -33 70 -104q0 -64 -41.5 -103.5t-103.5 -39.5q-65 0 -109.5 46 t-44.5 111q0 77 50.5 125.5t125.5 48.5q118 0 179 -86.5t61 -218.5q0 -307 -209 -487q-35 -30 -97.5 -72.5t-112.5 -78t-100 -79.5t-78 -97t-28 -111q0 -121 98 -177q12 -8 23 -8q8 0 13 6t5 13q0 10 -16 20q-30 20 -46.5 51.5t-16.5 63.5q0 54 38.5 95.5t100.5 41.5 q67 0 114.5 -45t47.5 -115q0 -82 -51.5 -130t-127.5 -48q-92 0 -155.5 62t-63.5 165q0 92 45.5 157.5t128.5 131.5q-106 35 -182 91t-123 127t-74 171t-37 205t-10 248v33h-147zM172 1120l610 168l11 -37l-611 -166z" />
<glyph unicode="&#xfe;" horiz-adv-x="1353" d="M80 1401v33h123q225 0 409 39v-654h11q39 97 107.5 138.5t178.5 41.5q80 0 143.5 -26.5t105.5 -72.5t70 -111.5t40 -138.5t12 -158q0 -105 -24.5 -195.5t-72 -161.5t-125 -112t-177.5 -41q-187 0 -258 145h-11v-514h140v-33h-662v33h135v1788h-145zM604 436 q0 -180 46.5 -279.5t109.5 -99.5q106 0 106 435q0 217 -21 316t-85 99q-50 0 -87 -66.5t-53 -158t-16 -190.5v-56z" />
<glyph unicode="&#xff;" horiz-adv-x="1044" d="M-90 928v33h123q246 0 426 38q-4 -94 -4 -174q0 -152 23.5 -271t59.5 -184t73.5 -97.5t70.5 -32.5q115 0 205 200q47 106 47 260q0 150 -82 220q-10 10 -32 22t-36 12q-8 0 -13 -5t-5 -13q0 -13 18 -21q70 -33 70 -104q0 -64 -41.5 -103.5t-103.5 -39.5q-65 0 -109.5 46 t-44.5 111q0 77 50.5 125.5t125.5 48.5q118 0 179 -86.5t61 -218.5q0 -307 -209 -487q-35 -30 -97.5 -72.5t-112.5 -78t-100 -79.5t-78 -97t-28 -111q0 -121 98 -177q12 -8 23 -8q8 0 13 6t5 13q0 10 -16 20q-30 20 -46.5 51.5t-16.5 63.5q0 54 38.5 95.5t100.5 41.5 q67 0 114.5 -45t47.5 -115q0 -82 -51.5 -130t-127.5 -48q-92 0 -155.5 62t-63.5 165q0 92 45.5 157.5t128.5 131.5q-106 35 -182 91t-123 127t-74 171t-37 205t-10 248v33h-147zM182 1190q0 51 36 87t87 36t88 -36t37 -87t-37 -88t-88 -37t-87 37t-36 88zM551 1190 q0 51 36.5 87t88.5 36q51 0 87 -36t36 -87t-36 -88t-87 -37q-52 0 -88.5 37t-36.5 88z" />
<glyph unicode="&#x152;" horiz-adv-x="2287" d="M127 729q0 100 25 197.5t81 189.5t135.5 162t197.5 112.5t259 43.5h2h31h1247v-473h-30q0 114 -21 193t-70 136t-132 84t-205 27h-154v-639h76q274 0 274 297h31v-633h-31q0 149 -74.5 226t-207.5 77h-68v-678h125q126 0 216.5 26t144 69.5t84.5 115.5t41 147.5t10 182.5 h30v-574h-1302h-15q-141 0 -259 41.5t-198.5 111t-136 161.5t-81 192t-25.5 205zM580 729q0 -199 15.5 -331.5t48 -207.5t76 -105t107.5 -30t107.5 30t76 105t47.5 207.5t15 331.5q0 265 -29 413.5t-80 201.5t-137 53q-64 0 -107.5 -29t-76.5 -102t-48 -205t-15 -332z" />
<glyph unicode="&#x153;" horiz-adv-x="1796" d="M61 489q0 228 149.5 369t391.5 141q193 0 330 -92q142 92 336 92q74 0 142.5 -10t134 -34t113.5 -59.5t77.5 -91t29.5 -124.5q0 -55 -16.5 -98t-48 -72.5t-71 -50t-92.5 -31.5t-106 -15.5t-116 -4.5h-170v-33q0 -194 54 -273t163 -79q35 0 72 7.5t82.5 29t83.5 55.5 t70.5 93t47.5 134l37 -6q-32 -164 -145.5 -260t-294.5 -96q-238 0 -383 92q-137 -92 -330 -92q-242 0 -391.5 140.5t-149.5 368.5zM475 489q0 -265 27.5 -369t99.5 -104t99.5 103t27.5 366v23q-2 255 -29.5 355t-97.5 100q-72 0 -99.5 -104.5t-27.5 -369.5zM1145 444h35 q107 0 160 63.5t53 203.5q0 50 -6 92.5t-19.5 80t-38 58.5t-59.5 21q-69 0 -97 -69.5t-28 -203.5v-246z" />
<glyph unicode="&#x178;" horiz-adv-x="1316" d="M-82 1401v33h739v-33h-178l340 -731l195 446q41 87 41 150q0 135 -213 135h-58v33h594v-33q-98 0 -157.5 -30.5t-90.5 -94.5l-290 -666v-559h131v-33h-680v33h131v527l-385 823h-119zM334 1671q0 51 36 87t87 36t88 -36t37 -87t-37 -88t-88 -37t-87 37t-36 88zM702 1671 q0 51 36.5 87t88.5 36q51 0 87 -36t36 -87t-36 -88t-87 -37q-52 0 -88.5 37t-36.5 88z" />
<glyph unicode="&#x2c6;" horiz-adv-x="747" d="M-4 1130l379 158v-41l-367 -151zM375 1247v41l379 -158l-13 -34z" />
<glyph unicode="&#x2dc;" horiz-adv-x="960" d="M127 1163q3 3 9.5 8.5t27 19t42 23.5t54.5 18.5t66 8.5q71 0 164.5 -32.5t148.5 -32.5q44 0 86 17t62 33l20 17l29 -31q-3 -3 -9 -8.5t-26.5 -18.5t-42.5 -23t-56 -18.5t-69 -8.5q-55 0 -151 32.5t-158 32.5q-44 0 -86 -17t-62 -33l-20 -17z" />
<glyph unicode="&#x2000;" horiz-adv-x="897" />
<glyph unicode="&#x2001;" horiz-adv-x="1794" />
<glyph unicode="&#x2002;" horiz-adv-x="897" />
<glyph unicode="&#x2003;" horiz-adv-x="1794" />
<glyph unicode="&#x2004;" horiz-adv-x="598" />
<glyph unicode="&#x2005;" horiz-adv-x="448" />
<glyph unicode="&#x2006;" horiz-adv-x="299" />
<glyph unicode="&#x2007;" horiz-adv-x="299" />
<glyph unicode="&#x2008;" horiz-adv-x="224" />
<glyph unicode="&#x2009;" horiz-adv-x="358" />
<glyph unicode="&#x200a;" horiz-adv-x="99" />
<glyph unicode="&#x2010;" horiz-adv-x="632" d="M106 463v43h406v-43h-406z" />
<glyph unicode="&#x2011;" horiz-adv-x="632" d="M106 463v43h406v-43h-406z" />
<glyph unicode="&#x2012;" horiz-adv-x="632" d="M106 463v43h406v-43h-406z" />
<glyph unicode="&#x2013;" horiz-adv-x="991" d="M10 463v43h971v-43h-971z" />
<glyph unicode="&#x2014;" horiz-adv-x="1953" d="M2 463v43h1940v-43h-1940z" />
<glyph unicode="&#x2018;" horiz-adv-x="585" d="M55 1047q0 143 93.5 255t289.5 171l4 -35q-50 -14 -101.5 -37.5t-114 -73.5t-93.5 -110q-41 -77 -41 -170q0 -74 32.5 -136.5t98.5 -89.5q15 -6 23 -6t13 6t5 13q0 12 -20 22q-84 33 -84 145q0 76 53 123t125 47q82 0 135 -57.5t53 -130.5q0 -94 -62 -153.5t-155 -59.5 q-122 0 -188 80t-66 197z" />
<glyph unicode="&#x2019;" horiz-adv-x="602" d="M57 1260q0 94 62 153.5t155 59.5q122 0 188 -80t66 -197q0 -143 -93.5 -255t-289.5 -171l-4 35q36 10 74 26.5t84.5 43t87 66t64.5 85.5q41 77 41 170q0 74 -33 135.5t-99 89.5q-15 6 -22 6q-8 0 -13.5 -5.5t-5.5 -12.5q0 -13 21 -23q84 -33 84 -145q0 -76 -53 -123 t-125 -47q-82 0 -135.5 58t-53.5 131z" />
<glyph unicode="&#x201a;" horiz-adv-x="591" d="M63 168q0 93 63.5 150t147.5 57q96 0 173 -67t77 -183q0 -80 -30.5 -147.5t-72 -109t-97.5 -75t-94.5 -48t-75.5 -24.5l-9 39q36 10 72.5 24t87.5 44t89 68t65.5 97.5t27.5 129.5q0 63 -26.5 108.5t-65.5 69.5q-20 12 -28 12q-7 0 -13 -5t-6 -11q0 -13 14 -23 q64 -43 64 -114q0 -85 -51.5 -132.5t-122.5 -47.5q-85 0 -137 58t-52 130z" />
<glyph unicode="&#x201c;" horiz-adv-x="1146" d="M72 1047q0 143 93.5 255t289.5 171l4 -35q-50 -14 -101.5 -37.5t-114 -73.5t-93.5 -110q-41 -77 -41 -170q0 -74 32.5 -136.5t98.5 -89.5q15 -6 22 -6q8 0 13.5 6t5.5 13q0 12 -21 22q-84 33 -84 145q0 76 53 123t125 47q83 0 136 -57.5t53 -130.5q0 -94 -62 -153.5 t-155 -59.5q-122 0 -188 80t-66 197zM604 1047q0 143 93.5 255t289.5 171l4 -35q-50 -14 -101.5 -37.5t-114 -73.5t-93.5 -110q-41 -77 -41 -170q0 -74 32.5 -136.5t98.5 -89.5q15 -6 23 -6t13 6t5 13q0 12 -20 22q-84 33 -84 145q0 76 53 123t125 47q82 0 135 -57.5 t53 -130.5q0 -94 -62 -153.5t-155 -59.5q-122 0 -188 80t-66 197z" />
<glyph unicode="&#x201d;" horiz-adv-x="1146" d="M72 1260q0 94 62 153.5t155 59.5q122 0 188 -80t66 -197q0 -143 -93.5 -255t-289.5 -171l-4 35q50 14 101.5 37.5t114 73.5t93.5 110q41 77 41 170q0 74 -32.5 136t-98.5 89q-15 6 -23 6t-13 -5.5t-5 -12.5q0 -13 20 -23q84 -33 84 -145q0 -76 -53 -123t-125 -47 q-82 0 -135 58t-53 131zM604 1260q0 94 62 153.5t155 59.5q122 0 188 -80t66 -197q0 -143 -93.5 -255t-289.5 -171l-4 35q50 14 101.5 37.5t114 73.5t93.5 110q41 77 41 170q0 74 -32.5 136t-98.5 89q-15 6 -22 6q-8 0 -13.5 -5.5t-5.5 -12.5q0 -13 21 -23q84 -33 84 -145 q0 -76 -53 -123t-125 -47q-82 0 -135.5 58t-53.5 131z" />
<glyph unicode="&#x201e;" horiz-adv-x="1171" d="M63 168q0 93 63.5 150t147.5 57q96 0 173 -67t77 -183q0 -80 -30.5 -147.5t-72 -109t-97.5 -75t-94.5 -48t-75.5 -24.5l-9 39q36 10 72.5 24t87.5 44t89 68t65.5 97.5t27.5 129.5q0 63 -26.5 108.5t-65.5 69.5q-20 12 -28 12q-7 0 -13 -5t-6 -11q0 -13 14 -23 q64 -43 64 -114q0 -85 -51.5 -132.5t-122.5 -47.5q-85 0 -137 58t-52 130zM621 168q0 93 63 150t147 57q96 0 173 -67t77 -183q0 -80 -30.5 -147.5t-72 -109t-97.5 -75t-94.5 -48t-75.5 -24.5l-9 39q36 10 72.5 24t87.5 44t89 68t65.5 97.5t27.5 129.5q0 63 -26.5 108.5 t-65.5 69.5q-20 12 -28 12q-7 0 -13 -5t-6 -11q0 -12 15 -23q63 -43 63 -114q0 -85 -51.5 -132.5t-122.5 -47.5q-85 0 -136.5 58t-51.5 130z" />
<glyph unicode="&#x2022;" horiz-adv-x="1116" d="M250 774q0 135 90.5 228.5t214.5 93.5t215.5 -94t91.5 -228q0 -132 -91 -223.5t-216 -91.5q-127 0 -216 91t-89 224z" />
<glyph unicode="&#x202f;" horiz-adv-x="358" />
<glyph unicode="&#x2039;" horiz-adv-x="411" d="M102 160l244 325l-244 326l35 27l264 -353l-264 -352z" />
<glyph unicode="&#x203a;" horiz-adv-x="411" d="M10 485l264 353l35 -27l-243 -326h-56zM10 485h56l243 -325l-35 -27z" />
<glyph unicode="&#x205f;" horiz-adv-x="448" />
<glyph unicode="&#x20ac;" horiz-adv-x="1095" d="M20 451v32h115v49v41h-115v33h119q24 204 174.5 319t362.5 115q34 0 70.5 -8.5t52 -14.5t49.5 -20q21 -8 49 -8q49 0 49 51h33v-395h-33q-29 155 -57 221q-59 132 -166 133q-96 0 -133.5 -90.5t-42.5 -302.5h258v-33h-258v-45v-45h258v-32h-258q1 -65 3 -111t7 -97.5 t16 -85t27 -63t41.5 -43.5t58.5 -14q70 0 129 49.5t89.5 111.5t35.5 117q0 3 1 10.5t1 10.5h37q-11 -82 -39.5 -146t-66.5 -103t-88 -63.5t-98 -34t-101 -9.5q-188 0 -314 125.5t-147 345.5h-119z" />
<glyph unicode="&#x2122;" horiz-adv-x="2377" d="M119 502q0 271 105.5 430t337.5 232t628 73q397 0 629.5 -73t338 -232t105.5 -430t-105.5 -430t-338 -232t-629.5 -73q-396 0 -628 73t-337.5 232t-105.5 430zM176 502q0 -152 34 -263t106.5 -192.5t193 -130.5t286.5 -72.5t394 -23.5q229 0 395 23.5t287 72.5 t193.5 130.5t106.5 192.5t34 263t-34 263t-106.5 192.5t-193.5 130.5t-287 72.5t-395 23.5q-228 0 -394 -23.5t-286.5 -72.5t-193 -130.5t-106.5 -192.5t-34 -263zM395 528v414h815l226 -590l186 590h350v-37h-84v-852h84v-37h-432v37h86v729h-14l-246 -766h-94l-295 766h-8 v-729h84v-37h-486v37h99v852q-51 0 -91.5 -22.5t-64.5 -60.5t-40.5 -78.5t-23.5 -87t-9.5 -75.5t-2.5 -53h-39zM852 53h80v750q0 88 -80 100v-850zM1135 831q0 -25 12 -59l229 -594l41 119l-235 614q-5 -2 -13 -7t-21 -25.5t-13 -47.5zM1772 53h81v848q-3 0 -8.5 -1 t-19.5 -7.5t-24.5 -17.5t-19.5 -35t-9 -56v-731z" />
<glyph unicode="&#x25fc;" horiz-adv-x="1003" d="M0 0v1004h1004v-1004h-1004z" />
<glyph unicode="&#xfb01;" horiz-adv-x="1417" d="M20 18v33h127v877h-127v33h127v110q0 52 8.5 103.5t31 106.5t56.5 96.5t90 68.5t126 27q90 0 155.5 -65t65.5 -146q0 -82 -53 -142.5t-142 -60.5q-71 0 -121.5 51t-50.5 117q0 63 42.5 110t107.5 47q61 0 95.5 -33.5t39.5 -78.5q0 -5 0.5 -13.5t1 -13t2 -10t5.5 -8 t11 -2.5q23 0 23 41q0 74 -57 122t-125 48q-82 0 -144.5 -62.5t-62.5 -159.5q0 -253 336 -253h248q83 0 145.5 5.5t124.5 22.5t101.5 45.5t64 77t24.5 115.5q0 86 -58.5 147.5t-147.5 61.5q-79 0 -131 -46.5t-52 -123.5q0 -41 23 -41q7 0 11 2.5t5.5 8t2 10t1 13t0.5 13.5 q5 45 39.5 78.5t95.5 33.5q65 0 107.5 -47t42.5 -110q0 -66 -50.5 -117t-121.5 -51q-89 0 -142 60.5t-53 142.5q0 85 60 148t162 63q103 0 173 -71t70 -173q0 -98 -45 -164t-151.5 -103.5t-276.5 -37.5h-325v-873h153v-33h-668zM760 18v33h127v797q291 0 387 110v-907h127 v-33h-641z" />
</font>
</defs>
</svg>
