<?xml version="1.0" standalone="no"?>
<!DOCTYPE svg PUBLIC "-//W3C//DTD SVG 1.1//EN" "http://www.w3.org/Graphics/SVG/1.1/DTD/svg11.dtd" >
<svg xmlns="http://www.w3.org/2000/svg">
<metadata></metadata>
<defs>
<font id="abeezeeitalic" horiz-adv-x="1228" >
<font-face units-per-em="2048" ascent="1638" descent="-410" />
<missing-glyph horiz-adv-x="614" />
<glyph horiz-adv-x="0" />
<glyph horiz-adv-x="0" />
<glyph horiz-adv-x="682" />
<glyph horiz-adv-x="0" />
<glyph horiz-adv-x="0" />
<glyph horiz-adv-x="0" />
<glyph horiz-adv-x="0" />
<glyph horiz-adv-x="0" />
<glyph horiz-adv-x="0" />
<glyph horiz-adv-x="0" />
<glyph horiz-adv-x="0" />
<glyph unicode="&#x9;" horiz-adv-x="0" />
<glyph unicode="&#xd;" horiz-adv-x="614" />
<glyph horiz-adv-x="0" />
<glyph horiz-adv-x="0" />
<glyph horiz-adv-x="0" />
<glyph horiz-adv-x="0" />
<glyph horiz-adv-x="0" />
<glyph horiz-adv-x="0" />
<glyph horiz-adv-x="0" />
<glyph horiz-adv-x="0" />
<glyph horiz-adv-x="0" />
<glyph horiz-adv-x="0" />
<glyph unicode=" "  horiz-adv-x="614" />
<glyph unicode="&#x09;" horiz-adv-x="614" />
<glyph unicode="&#xa0;" horiz-adv-x="614" />
<glyph unicode="!" horiz-adv-x="643" d="M106 92q0 72 45 115t107 43q57 0 92 -34.5t35 -82.5q0 -72 -45 -115t-107 -43q-57 0 -92 34.5t-35 82.5zM221 424l72 559l90 510h205l-90 -510l-125 -559h-152z" />
<glyph unicode="&#x22;" horiz-adv-x="614" d="M133 977l64 457h178l-96 -457h-146zM465 977l63 457h179l-97 -457h-145z" />
<glyph unicode="#" horiz-adv-x="1536" d="M96 254l49 149h189l180 512h-186l49 150h188l90 254h164l-90 -254h401l91 254h163l-90 -254h189l-49 -150h-191l-180 -512h186l-49 -149h-190l-88 -254h-164l88 254h-402l-88 -254h-163l88 254h-185zM498 403h401l180 512h-401z" />
<glyph unicode="$" d="M119 176l117 146q142 -132 329 -132q122 0 195.5 54.5t73.5 146.5q0 78 -55.5 140t-211.5 151q-151 87 -211.5 167t-60.5 202q0 149 115.5 243.5t302.5 102.5l22 231h180l-59 -237q139 -22 274 -99l-94 -147q-81 49 -150.5 74.5t-158.5 25.5q-112 0 -183 -48.5 t-71 -125.5q0 -67 51.5 -122.5t180.5 -125.5q177 -96 246 -189t69 -224q0 -163 -111.5 -260.5t-296.5 -112.5l-22 -232h-180l59 232q-200 17 -350 139z" />
<glyph unicode="%" horiz-adv-x="1843" d="M117 883q0 73 13 146.5t45.5 150t80.5 135t125.5 96t173.5 37.5q142 0 218.5 -86t76.5 -242q0 -58 -9.5 -119t-29.5 -126t-54.5 -121.5t-80.5 -102t-112.5 -72t-145.5 -26.5q-143 0 -222 88t-79 242zM289 874q0 -184 141 -184q58 0 103.5 32.5t72 80.5t43.5 110.5 t23 114.5t6 100q0 185 -141 185q-57 0 -102.5 -32.5t-72 -80.5t-44 -110t-23.5 -115t-6 -101zM322 2l1153 1514l112 -82l-1153 -1514zM1055 315q0 73 13 146.5t45.5 150.5t80.5 135.5t125.5 96t173.5 37.5q142 0 218.5 -86t76.5 -242q0 -58 -9.5 -119t-29.5 -126 t-54.5 -121.5t-80.5 -102t-112.5 -72t-145.5 -26.5q-143 0 -222 87.5t-79 241.5zM1227 307q0 -184 141 -184q58 0 103.5 32.5t72 80.5t43.5 110.5t23 114.5t6 100q0 184 -141 184q-57 0 -102.5 -32.5t-72 -80.5t-44 -109.5t-23.5 -114.5t-6 -101z" />
<glyph unicode="&#x26;" horiz-adv-x="1558" d="M123 340q0 148 89.5 258t268.5 170q-104 63 -150 136t-46 173q0 169 132 275t324 106q209 0 385 -121l-102 -149q-135 106 -283 106q-114 0 -193 -64t-79 -171q0 -97 87 -168.5t220 -71.5h529q67 0 108.5 16.5t73.5 53.5l51 -131q-57 -88 -217 -88h-78 q-36 -338 -216.5 -516.5t-455.5 -178.5q-190 0 -319 104t-129 261zM317 379q0 -103 84 -169.5t207 -66.5q197 0 325 140.5t159 386.5h-344q-195 0 -313 -83t-118 -208z" />
<glyph unicode="'" horiz-adv-x="307" d="M147 979l64 455h178l-96 -455h-146z" />
<glyph unicode="(" horiz-adv-x="614" d="M123 408q0 302 116.5 584.5t331.5 570.5l105 -70q-180 -294 -272.5 -571t-92.5 -584q0 -280 62 -541l-113 -49q-137 349 -137 660z" />
<glyph unicode=")" horiz-adv-x="614" d="M-20 -182q180 293 272 570.5t92 584.5q0 283 -61 540l112 50q137 -349 137 -660q0 -302 -116.5 -584.5t-331.5 -570.5z" />
<glyph unicode="*" horiz-adv-x="921" d="M207 1202l49 156l233 -94l-18 252h164l-19 -248l234 90l47 -154l-238 -59l158 -193l-131 -94l-131 211l-135 -213l-129 96l155 189z" />
<glyph unicode="+" d="M213 623l27 159h313l59 334h174l-59 -334h311l-26 -159h-312l-59 -332h-174l59 332h-313z" />
<glyph unicode="," horiz-adv-x="614" d="M-72 -270q101 106 170 213t121 241l176 -51q-87 -308 -370 -461z" />
<glyph unicode="-" d="M260 618l31 168h696l-31 -168h-696z" />
<glyph unicode="." horiz-adv-x="614" d="M117 92q0 72 44.5 115t106.5 43q57 0 92 -34.5t35 -82.5q0 -72 -44.5 -115t-106.5 -43q-57 0 -92 34.5t-35 82.5z" />
<glyph unicode="/" horiz-adv-x="921" d="M0 -72l856 1655l143 -74l-856 -1654z" />
<glyph unicode="0" d="M115 512q0 141 23 275.5t72.5 256.5t121 213.5t175.5 146t228 54.5q202 0 311 -142.5t109 -393.5q0 -141 -23 -275.5t-72.5 -257t-121 -214t-175.5 -146t-228 -54.5q-201 0 -310.5 143t-109.5 394zM313 500q0 -173 61.5 -265t180.5 -92q125 0 218 112t138 289t45 390 q0 173 -61 264.5t-180 91.5q-125 0 -218.5 -112t-138.5 -289t-45 -389z" />
<glyph unicode="1" d="M199 0l28 164h293l182 1030l-305 -213l-84 147l480 306h135l-223 -1270h243l-28 -164h-721z" />
<glyph unicode="2" d="M125 76q0 116 43 218.5t112 178.5t152 143.5t166 126t152 113t112 116.5t43 126q0 89 -60 142.5t-153 53.5q-152 0 -299 -125l-86 140q184 149 408 149q172 0 280.5 -97t108.5 -249q0 -69 -24 -132t-64.5 -114t-94 -99t-114 -91.5t-121.5 -87t-119 -90.5t-106 -95.5 t-82.5 -109t-46.5 -125.5h651l-29 -168h-823q-6 30 -6 76z" />
<glyph unicode="3" d="M74 94l108 146q120 -101 287 -101q144 0 234 69t90 193q0 119 -92.5 195t-266.5 76h-104l24 149h66q202 0 322 73t120 198q0 93 -64 149.5t-165 56.5q-145 0 -283 -98l-71 139q168 119 376 119q180 0 289 -99t109 -237q0 -141 -82 -230t-248 -140q129 -46 198.5 -134 t69.5 -208q0 -196 -146 -315.5t-376 -119.5q-116 0 -220 31.5t-175 87.5z" />
<glyph unicode="4" d="M96 309l25 144l600 995l158 -68l-543 -907h399l74 408h180l-74 -408h177l-29 -164h-176l-53 -309h-181l54 309h-611z" />
<glyph unicode="5" d="M84 92l111 158q120 -107 297 -107q151 0 247.5 81t96.5 218q0 122 -89 196.5t-251 74.5h-203l125 721h706l-28 -166h-533l-67 -389h39q122 0 219 -32.5t157 -89.5t91.5 -130.5t31.5 -157.5q0 -220 -153 -357t-400 -137q-121 0 -224.5 31t-172.5 86z" />
<glyph unicode="6" d="M133 463q0 147 34 287t106 265t174.5 219t248.5 149t318 55q44 0 98 -4l-29 -168q-46 4 -75 4q-243 0 -403 -127.5t-232 -378.5q127 143 329 143q166 0 274.5 -111t108.5 -284q0 -150 -62.5 -272t-180 -193.5t-267.5 -71.5q-199 0 -320.5 129.5t-121.5 358.5zM324 467 q0 -148 72.5 -238t187.5 -90q131 0 221 103.5t90 251.5q0 116 -69 188t-175 72q-93 0 -170 -43t-151 -136q-6 -50 -6 -108z" />
<glyph unicode="7" d="M262 0q35 208 80 366.5t99 282t133.5 231t167.5 195t216 191.5h-682l29 168h907l-24 -148q-142 -118 -240.5 -220.5t-175.5 -211t-131.5 -236t-94.5 -273t-77 -345.5h-207z" />
<glyph unicode="8" d="M84 346q0 160 98 267.5t297 172.5q-100 63 -147 134t-47 167q0 158 131 264.5t317 106.5q181 0 295.5 -99.5t114.5 -234.5q0 -131 -78.5 -215t-239.5 -143q140 -67 206.5 -151.5t66.5 -202.5q0 -131 -73 -231.5t-196 -153t-276 -52.5q-202 0 -335.5 104.5t-133.5 266.5z M279 375q0 -100 83.5 -168t210.5 -68q87 0 161.5 31t121.5 92.5t47 140.5q0 89 -72 165.5t-204 125.5q-70 -15 -130 -42t-110 -65.5t-79 -93t-29 -118.5zM469 1090q0 -74 59 -137.5t158 -110.5q118 34 195 103.5t77 156.5q0 85 -66 145t-169 60q-66 0 -122.5 -23.5 t-94 -74.5t-37.5 -119z" />
<glyph unicode="9" d="M115 135l141 131q107 -123 248 -123q133 0 240 137t151 406q-142 -133 -313 -133q-166 0 -281 109t-115 292q0 212 144.5 358t359.5 146q198 0 314 -125q112 -121 112 -329q0 -158 -22 -304t-71 -279t-121 -231.5t-178 -156.5t-235 -58q-224 0 -374 160zM377 967 q0 -118 67 -190t177 -72q79 0 158 37.5t141 107.5q6 74 6 129q0 151 -68 233t-184 82q-125 0 -211 -93.5t-86 -233.5z" />
<glyph unicode=":" horiz-adv-x="614" d="M102 92q0 72 45 115t107 43q57 0 92 -34.5t35 -82.5q0 -72 -45 -115t-107 -43q-57 0 -92 34.5t-35 82.5zM254 932q0 72 45 115t107 43q56 0 91 -34.5t35 -82.5q0 -72 -44.5 -115t-106.5 -43q-57 0 -92 34.5t-35 82.5z" />
<glyph unicode=";" horiz-adv-x="614" d="M-123 -270q101 106 170 213t121 241l176 -51q-43 -154 -139 -270.5t-232 -190.5zM250 932q0 72 44.5 115t106.5 43q57 0 92 -34.5t35 -82.5q0 -72 -44.5 -115t-106.5 -43q-57 0 -92 34.5t-35 82.5z" />
<glyph unicode="&#x3c;" d="M227 643l21 117l721 411l73 -143l-587 -338l473 -325l-119 -132z" />
<glyph unicode="=" d="M174 436l29 162h809l-29 -162h-809zM238 809l28 162h809l-28 -162h-809z" />
<glyph unicode="&#x3e;" d="M186 377l588 338l-473 325l119 131l581 -409l-20 -117l-721 -412z" />
<glyph unicode="?" horiz-adv-x="1019" d="M178 1317q96 109 206 166t253 57q162 0 270.5 -94t108.5 -234q0 -73 -27 -133.5t-70.5 -103t-97 -80t-108.5 -73t-102 -72.5t-81 -88t-43 -111l-18 -127h-150q-8 66 -8 113q0 84 28 153.5t72 115.5t98 85t108 71.5t98 65t72 75t28 93.5q0 76 -57.5 126t-147.5 50 q-165 0 -309 -178zM238 92q0 72 44.5 115t106.5 43q57 0 92 -34.5t35 -82.5q0 -72 -44.5 -115t-106.5 -43q-57 0 -92 34.5t-35 82.5z" />
<glyph unicode="@" horiz-adv-x="2150" d="M147 340q0 246 80.5 455t221 354.5t336 227t421.5 81.5q182 0 334 -58t253 -159t156.5 -237t55.5 -291q0 -157 -44 -295.5t-118 -235t-174.5 -152t-210.5 -55.5q-109 0 -166 55.5t-57 159.5v19q-50 -92 -130.5 -150.5t-174.5 -58.5q-63 0 -120.5 23.5t-105.5 68.5 t-77 120t-29 169q0 267 167 434.5t431 167.5q163 0 315 -65l-120 -680q-5 -30 -5 -43q0 -42 26 -65.5t71 -23.5q59 0 118 43.5t107.5 118t78.5 185.5t30 235q0 172 -78 310.5t-219.5 217t-321.5 78.5q-185 0 -346.5 -74.5t-274 -202t-177 -301t-64.5 -366.5 q0 -202 84.5 -353t231 -229.5t333.5 -78.5q139 0 261 33.5t251 93.5l33 -160q-268 -131 -567 -131q-177 0 -326.5 55.5t-258 158t-170 257t-61.5 344.5zM764 403q0 -120 62.5 -190t152.5 -70q97 0 180 93.5t109 238.5l63 350q-62 19 -149 19q-186 0 -302 -121.5t-116 -319.5 z" />
<glyph unicode="A" horiz-adv-x="1357" d="M-57 76l786 1358h219l314 -1411l-187 -43l-86 409h-663l-228 -405zM418 553h536l-145 690z" />
<glyph unicode="B" horiz-adv-x="1263" d="M86 41l242 1376q205 41 383 41q120 0 215 -29.5t153 -79.5t88.5 -112.5t30.5 -132.5q0 -270 -307 -359q262 -98 262 -329q0 -108 -51.5 -193.5t-139.5 -139t-201 -81t-241 -27.5q-230 0 -434 66zM303 166q113 -29 232 -29q197 0 308 75.5t111 197.5q0 111 -96 182.5 t-291 71.5h-178zM416 815h200q188 0 290 75.5t102 186.5q0 99 -80.5 163.5t-225.5 64.5q-108 0 -202 -17z" />
<glyph unicode="C" horiz-adv-x="1146" d="M96 586q0 244 94.5 443t267 314t390.5 115q192 0 366 -100l-88 -160q-71 44 -138.5 67t-156.5 23q-148 0 -270 -88t-193 -246t-71 -354q0 -216 106.5 -335.5t278.5 -119.5q86 0 158 23t159 68l33 -177q-179 -84 -377 -84q-256 0 -407.5 161.5t-151.5 449.5z" />
<glyph unicode="D" horiz-adv-x="1357" d="M86 41l240 1376q185 41 374 41q127 0 230 -34t173.5 -93t118.5 -140t69.5 -172.5t21.5 -193.5q0 -247 -97 -439t-281.5 -301.5t-428.5 -109.5q-241 0 -420 66zM303 170q106 -27 215 -27q266 0 430 184.5t164 481.5q0 99 -25.5 184.5t-76.5 153.5t-134.5 107.5 t-191.5 39.5q-96 0 -188 -20z" />
<glyph unicode="E" horiz-adv-x="1110" d="M86 0l252 1434h850l-29 -168h-657l-76 -437h563l-28 -163h-564l-88 -498h656l-29 -168h-850z" />
<glyph unicode="F" horiz-adv-x="1038" d="M86 0l252 1434h840l-29 -168h-647l-76 -439h537l-29 -159h-537l-116 -668h-195z" />
<glyph unicode="G" horiz-adv-x="1355" d="M96 553q0 258 95 464t268 323.5t391 117.5q222 0 416 -127l-103 -155q-81 56 -155.5 84t-167.5 28q-153 0 -277 -89t-195 -251.5t-71 -367.5q0 -196 92.5 -315.5t253.5 -119.5q140 0 246.5 102t136.5 259l18 100h-299l27 154h481l-79 -461q-5 -35 -5 -51q0 -105 121 -105 l-67 -153q-226 0 -226 219q-68 -107 -170.5 -170.5t-236.5 -63.5q-217 0 -355.5 156t-138.5 422z" />
<glyph unicode="H" horiz-adv-x="1435" d="M86 0l252 1434h194l-108 -613h684l109 613h194l-252 -1434h-194l114 653h-684l-114 -653h-195z" />
<glyph unicode="I" horiz-adv-x="557" d="M86 0l252 1434h194l-251 -1434h-195z" />
<glyph unicode="J" horiz-adv-x="841" d="M-98 121l118 143q94 -121 216 -121q80 0 138 60.5t83 193.5l186 1037h195l-187 -1045q-19 -104 -56.5 -181.5t-80.5 -121t-97.5 -69.5t-98 -34t-91.5 -8q-193 0 -325 146z" />
<glyph unicode="K" horiz-adv-x="1222" d="M86 0l252 1434h194l-112 -637l680 633l119 -132l-635 -569l323 -407q83 -104 134 -137t120 -33l-71 -166q-90 0 -154.5 36.5t-136.5 127.5l-402 512l-116 -662h-195z" />
<glyph unicode="L" horiz-adv-x="1044" d="M86 0l252 1434h194l-221 -1260h658l-31 -174h-852z" />
<glyph unicode="M" horiz-adv-x="1701" d="M86 0l252 1434h264l242 -914l540 914h293l-252 -1434h-194l211 1198l-531 -874h-190l-240 882l-211 -1206h-184z" />
<glyph unicode="N" horiz-adv-x="1437" d="M86 0l252 1434h258l420 -1205l213 1205h184l-252 -1434h-254l-428 1196l-209 -1196h-184z" />
<glyph unicode="O" horiz-adv-x="1511" d="M96 604q0 165 53 317.5t149 272.5t244 192t326 72q187 0 324.5 -84.5t205.5 -225.5t68 -319q0 -165 -53 -317.5t-149 -272.5t-244 -192t-326 -72q-187 0 -324.5 84.5t-205.5 225.5t-68 319zM295 616q0 -133 46.5 -239t142 -170t227.5 -64q127 0 234 56.5t176.5 151 t108 215t38.5 251.5q0 133 -46.5 239t-142 170t-227.5 64q-127 0 -234 -56.5t-176.5 -151t-108 -215t-38.5 -251.5z" />
<glyph unicode="P" horiz-adv-x="1146" d="M86 0l248 1413q192 37 364 37q120 0 216.5 -34t156.5 -92.5t91.5 -132.5t31.5 -157q0 -164 -83 -281t-224 -174t-326 -57q-103 0 -186 21l-94 -543h-195zM403 707q76 -23 185 -23q211 0 313.5 89t102.5 239q0 124 -87 200t-239 76q-92 0 -174 -14z" />
<glyph unicode="Q" horiz-adv-x="1527" d="M96 604q0 165 51.5 317.5t145.5 272.5t241 192t324 72q139 0 252 -49t185.5 -135t111.5 -200t39 -245q0 -181 -54.5 -322t-156.5 -265q69 -53 121.5 -77t105.5 -24l-69 -166q-67 0 -120.5 30.5t-156.5 127.5q-189 -158 -432 -158q-139 0 -252 49t-185.5 134.5 t-111.5 199.5t-39 246zM295 616q0 -98 26 -183t75 -150t127.5 -102.5t176.5 -37.5q164 0 299 99l-149 141l115 119l143 -154q67 90 103 213.5t36 255.5q0 133 -44.5 238t-137.5 170t-223 65q-127 0 -232.5 -56.5t-173 -151t-104.5 -215t-37 -251.5z" />
<glyph unicode="R" horiz-adv-x="1271" d="M86 0l250 1413q198 37 362 37q225 0 352.5 -104t127.5 -261q0 -338 -433 -403q67 -31 115 -77t73 -94.5t43.5 -100t33.5 -96.5t35.5 -81.5t58 -57.5t92.5 -21l-72 -168q-68 0 -118.5 22t-82 59t-55.5 85t-43.5 101t-41 105.5t-53 100.5t-74 85t-110 59t-155.5 22 l-110 -625h-195zM420 788h170q180 0 287.5 74.5t107.5 198.5q0 102 -80 164.5t-219 62.5q-98 0 -180 -16z" />
<glyph unicode="S" horiz-adv-x="1103" d="M4 127l127 158q153 -140 369 -140q132 0 211.5 59t79.5 158q0 87 -59.5 155t-225.5 161q-162 90 -227.5 179t-65.5 224q0 170 132.5 273.5t346.5 103.5q226 0 428 -117l-100 -159q-84 52 -164.5 80t-179.5 28q-121 0 -194.5 -52t-73.5 -136q0 -77 52.5 -135.5 t192.5 -132.5q193 -103 264.5 -205.5t71.5 -247.5q0 -187 -140.5 -296.5t-369.5 -109.5q-287 0 -475 152z" />
<glyph unicode="T" horiz-adv-x="1134" d="M158 1262l30 172h1076l-31 -172h-440l-222 -1262h-194l221 1262h-440z" />
<glyph unicode="U" horiz-adv-x="1394" d="M127 371q0 70 16 176l152 887h194l-157 -930q-10 -61 -10 -119q0 -110 65.5 -175t177.5 -65q149 0 279 134t170 360l141 795h195l-201 -1135q-4 -28 -4 -51q0 -105 121 -105l-68 -153q-115 0 -173 54.5t-58 168.5v45q-183 -283 -457 -283q-164 0 -273.5 105.5 t-109.5 290.5z" />
<glyph unicode="V" horiz-adv-x="1273" d="M137 1415l195 41l248 -1243l651 1237l172 -94l-744 -1356h-223z" />
<glyph unicode="W" horiz-adv-x="1927" d="M168 1427l201 21l110 -1241l500 1077h244l114 -1077l547 1235l172 -80l-631 -1362h-241l-117 1077l-502 -1077h-241z" />
<glyph unicode="X" horiz-adv-x="1271" d="M-16 115l567 626l-365 607l174 104l324 -582l492 576l143 -129l-539 -594l398 -639l-174 -104l-357 610l-520 -604z" />
<glyph unicode="Y" horiz-adv-x="1150" d="M-16 88l118 139q74 -84 166 -84q122 0 211 156l88 160l-270 723q-20 55 -56 77.5t-98 22.5l82 162q107 0 164.5 -43.5t91.5 -145.5l207 -604l440 799l162 -88l-616 -1075q-96 -168 -190.5 -240t-229.5 -72q-79 0 -151.5 30.5t-118.5 82.5z" />
<glyph unicode="Z" horiz-adv-x="1153" d="M-16 0l26 152l899 1114h-698l29 168h940l-25 -148l-905 -1114h778l-31 -172h-1013z" />
<glyph unicode="[" horiz-adv-x="614" d="M70 -205l305 1721h356l-29 -154h-192l-252 -1413h197l-29 -154h-356z" />
<glyph unicode="\" horiz-adv-x="921" d="M283 1559l149 24l287 -1704l-150 -24z" />
<glyph unicode="]" horiz-adv-x="614" d="M-117 -205l29 154h188l250 1413h-192l28 154h357l-305 -1721h-355z" />
<glyph unicode="^" d="M254 1171l442 345h86l316 -353l-129 -119l-248 299l-367 -299z" />
<glyph unicode="_" d="M-123 -236l21 123h1228l-22 -123h-1227z" />
<glyph unicode="`" horiz-adv-x="632" d="M82 1401l106 155l363 -266l-74 -112z" />
<glyph unicode="a" horiz-adv-x="1212" d="M76 420q0 295 190.5 482.5t487.5 187.5q183 0 362 -74l-129 -727q-4 -28 -4 -51q0 -105 119 -105l-64 -143q-227 0 -227 223q-62 -107 -150 -172.5t-198 -65.5q-157 0 -272 123.5t-115 321.5zM264 442q0 -140 74 -221.5t174 -81.5q123 0 217.5 125t128.5 326l55 317 q-86 27 -182 27q-210 0 -338.5 -138.5t-128.5 -353.5z" />
<glyph unicode="b" horiz-adv-x="1173" d="M76 37l260 1479h184l-117 -666q60 112 154.5 176t208.5 64q148 0 245 -110.5t97 -283.5q0 -202 -92.5 -366.5t-259 -259.5t-373.5 -95q-179 0 -307 62zM281 156q73 -17 145 -17q138 0 251.5 70.5t178 192.5t64.5 270q0 118 -55.5 188t-145.5 70q-59 0 -115.5 -29 t-111 -90t-99 -170.5t-71.5 -257.5z" />
<glyph unicode="c" horiz-adv-x="942" d="M76 453q0 172 69 316t202.5 232.5t307.5 88.5q161 0 303 -82l-75 -158q-124 76 -242 76q-168 0 -272.5 -128.5t-104.5 -320.5q0 -155 78.5 -246.5t212.5 -91.5q122 0 246 62l22 -162q-140 -64 -299 -64q-200 0 -324 131.5t-124 346.5z" />
<glyph unicode="d" horiz-adv-x="1243" d="M86 420q0 151 48 280t125.5 212.5t173.5 130.5t194 47q104 0 184 -51t125 -134l108 611h185l-217 -1227q-4 -28 -4 -51q0 -105 118 -105l-63 -143q-227 0 -227 225q-66 -108 -157 -174t-202 -66q-161 0 -276 123t-115 322zM274 446q0 -143 74.5 -225t177.5 -82 q118 0 215 110t129 288l37 211q-41 86 -111 134t-153 48q-72 0 -138 -34t-117.5 -94.5t-82.5 -153.5t-31 -202z" />
<glyph unicode="e" horiz-adv-x="1060" d="M76 461q0 127 41 241.5t114.5 200.5t182.5 136.5t237 50.5q170 0 272.5 -93.5t102.5 -222.5q0 -87 -36 -154.5t-91.5 -108t-132 -66t-148.5 -35t-149 -9.5q-88 0 -205 17q15 -134 94.5 -206.5t206.5 -72.5q149 0 318 80l16 -164q-168 -80 -364 -80q-205 0 -332 131.5 t-127 354.5zM268 565q94 -18 201 -18q373 0 373 213q0 74 -57 124t-148 50q-142 0 -243.5 -104t-125.5 -265z" />
<glyph unicode="f" horiz-adv-x="761" d="M-272 -406l73 152q64 -61 152 -61q123 0 151 163l181 1018h-164l29 160h163l31 164q34 182 131 266t254 84q148 0 285 -74l-72 -155q-41 22 -65.5 33t-66 21.5t-83.5 10.5q-77 0 -129.5 -45t-69.5 -135l-30 -170h315l-29 -160h-315l-180 -1013q-58 -328 -338 -328 q-132 0 -223 69z" />
<glyph unicode="g" horiz-adv-x="1181" d="M66 -285l143 107q101 -137 264 -137q232 0 291 333l35 201q-63 -99 -148.5 -159t-185.5 -60q-75 0 -144 28.5t-124 80.5t-88 134t-33 181q0 194 88 346.5t242 236t346 83.5q185 0 364 -74l-178 -1028q-19 -108 -57 -191.5t-84.5 -134t-105 -82.5t-114 -43.5t-116.5 -11.5 q-242 0 -395 190zM264 444q0 -131 74 -205.5t176 -74.5q117 0 213.5 122t132.5 324l53 297q-86 27 -182 27q-134 0 -241.5 -64.5t-166.5 -176.5t-59 -249z" />
<glyph unicode="h" horiz-adv-x="1206" d="M76 0l266 1516h184l-118 -674q64 113 167 180.5t218 67.5q138 0 222.5 -83.5t84.5 -209.5q0 -46 -13 -129l-116 -668h-185l113 637q14 77 14 117q0 78 -45.5 126t-119.5 48q-57 0 -118 -30t-119.5 -87t-106 -155t-68.5 -220l-76 -436h-184z" />
<glyph unicode="i" horiz-adv-x="522" d="M76 0l186 1065h184l-186 -1065h-184zM281 1360q0 64 40.5 104.5t102.5 40.5q55 0 86 -32.5t31 -79.5q0 -64 -41 -105t-103 -41q-54 0 -85 33t-31 80z" />
<glyph unicode="j" horiz-adv-x="540" d="M-313 -406l73 152q64 -61 152 -61q123 0 151 163l216 1217h184l-213 -1212q-58 -328 -340 -328q-132 0 -223 69zM297 1360q0 64 40.5 104.5t102.5 40.5q55 0 86 -32.5t31 -79.5q0 -64 -40.5 -105t-102.5 -41q-54 0 -85.5 33t-31.5 80z" />
<glyph unicode="k" horiz-adv-x="1112" d="M76 0l266 1516h184l-110 -629q56 95 146.5 149t201.5 54q131 0 217 -80t86 -195q0 -105 -51 -177.5t-136.5 -105t-199.5 -32.5q-27 0 -45 2l174 -266q36 -55 81 -79t118 -24l-64 -143q-102 0 -164.5 30t-111.5 113l-252 434l18 60q75 -33 184 -33q130 0 200.5 54.5 t70.5 146.5q0 65 -47 108t-123 43q-37 0 -77 -11.5t-85.5 -41.5t-84 -75.5t-71.5 -120t-49 -167.5l-92 -530h-184z" />
<glyph unicode="l" horiz-adv-x="671" d="M106 260q0 46 9 105l200 1151h185l-201 -1147q-8 -49 -8 -86q0 -70 41 -109t112 -39q67 0 134 31l18 -150q-80 -41 -193 -41q-130 0 -213.5 73t-83.5 212z" />
<glyph unicode="m" horiz-adv-x="1869" d="M76 0l186 1065h178l-45 -246q62 123 166.5 197t218.5 74q124 0 203 -76t90 -195q70 128 171.5 199.5t219.5 71.5q134 0 216.5 -83.5t82.5 -209.5q0 -53 -12 -129l-119 -668h-184l117 637q14 77 14 117q0 79 -46 126.5t-120 47.5q-53 0 -110.5 -29.5t-112.5 -86.5 t-100 -154t-66 -218l-78 -440h-184l117 637q14 77 14 117q0 79 -46 126.5t-120 47.5q-56 0 -114 -30.5t-113 -90t-99.5 -159t-66.5 -224.5l-74 -424h-184z" />
<glyph unicode="n" horiz-adv-x="1206" d="M76 0l186 1065h178l-45 -246q63 124 171 197.5t227 73.5q137 0 222 -84t85 -209q0 -46 -13 -129l-116 -668h-185l113 637q14 77 14 117q0 79 -46.5 126.5t-121.5 47.5q-56 0 -116.5 -31t-119 -89.5t-106 -158.5t-69.5 -225l-74 -424h-184z" />
<glyph unicode="o" horiz-adv-x="1230" d="M76 457q0 177 71.5 320.5t206 228t308.5 84.5q224 0 358.5 -134t134.5 -348q0 -177 -71.5 -320.5t-206 -228t-308.5 -84.5q-225 0 -359 134.5t-134 347.5zM264 473q0 -144 83.5 -239t227.5 -95q119 0 209 60.5t136.5 162.5t46.5 230q0 144 -84 239t-228 95 q-178 0 -284.5 -129t-106.5 -324z" />
<glyph unicode="p" horiz-adv-x="1232" d="M14 -451l213 1219q6 34 6 57q0 97 -100 97l66 143q213 0 213 -184v-43q62 116 156.5 184t215.5 68q164 0 263.5 -123t99.5 -320q0 -119 -29.5 -225.5t-80.5 -187t-118 -139.5t-144 -89.5t-157 -30.5q-95 0 -180.5 48t-134.5 122l-104 -596h-185zM332 311 q44 -83 115 -127.5t155 -44.5q148 0 252 138.5t104 351.5q0 138 -63.5 219.5t-165.5 81.5q-126 0 -226.5 -113.5t-133.5 -298.5z" />
<glyph unicode="q" horiz-adv-x="1181" d="M76 420q0 194 87.5 347.5t242 238t348.5 84.5q183 0 362 -74l-258 -1467h-184l110 631q-133 -205 -319 -205q-103 0 -191 53t-143 156t-55 236zM264 442q0 -141 73 -222t175 -81q116 0 210 113t126 295l63 360q-83 27 -178 27q-211 0 -340 -138.5t-129 -353.5z" />
<glyph unicode="r" horiz-adv-x="829" d="M106 0l136 766q4 28 4 51q0 105 -119 105l63 143q110 0 168 -52.5t58 -154.5v-41q109 273 364 273q73 0 138 -25l-82 -180q-50 18 -113 18q-47 0 -89.5 -17.5t-85.5 -58t-79 -103.5t-67 -159t-52 -219l-59 -346h-185z" />
<glyph unicode="s" horiz-adv-x="909" d="M-6 90l104 152q134 -107 297 -107q101 0 161 38.5t60 96.5q0 55 -45 99.5t-170 107.5q-150 75 -206 147.5t-56 182.5q0 123 109 203t280 80q198 0 367 -101l-74 -155q-148 102 -297 102q-95 0 -148.5 -32.5t-53.5 -86.5q0 -48 42.5 -87.5t167.5 -102.5 q145 -73 210 -147.5t65 -180.5q0 -105 -57.5 -179.5t-152.5 -109.5t-218 -35q-229 0 -385 115z" />
<glyph unicode="t" horiz-adv-x="800" d="M86 866l27 160h188l98 336h142l-60 -336h295l-26 -160h-297l-86 -497q-9 -46 -9 -78q0 -71 42.5 -111.5t113.5 -40.5q36 0 71.5 9.5t53 18t49.5 26.5l23 -160q-95 -58 -228 -58q-60 0 -113.5 17.5t-97.5 52.5t-70 94.5t-26 136.5q0 46 8 101l84 489h-182z" />
<glyph unicode="u" horiz-adv-x="1185" d="M96 274q0 58 8 113l117 678h185l-119 -674q-6 -41 -6 -69q0 -88 51 -135.5t127 -47.5q121 0 226 110t138 294l92 522h185l-135 -776q-4 -28 -4 -51q0 -105 118 -105l-63 -143q-228 0 -228 223v18q-149 -256 -391 -256q-127 0 -214 82.5t-87 216.5z" />
<glyph unicode="v" horiz-adv-x="1042" d="M76 1040l174 45l211 -880l510 880l149 -88l-598 -997h-190z" />
<glyph unicode="w" horiz-adv-x="1617" d="M106 1051l179 24l121 -870l387 784h194l107 -784l430 870l151 -78l-510 -997h-202l-107 782l-387 -782h-203z" />
<glyph unicode="x" horiz-adv-x="1013" d="M-37 104l438 447l-311 418l160 118l270 -421l373 409l127 -119l-408 -415l328 -447l-154 -112l-290 442l-412 -436z" />
<glyph unicode="y" horiz-adv-x="1148" d="M35 -285l143 107q101 -137 264 -137q232 0 291 333l39 218q-67 -106 -162 -171t-211 -65q-125 0 -211 82.5t-86 216.5q0 49 9 113l110 653h185l-113 -649q-6 -38 -6 -70q0 -88 49.5 -135t124.5 -47q121 0 225.5 113t138.5 305l84 483h185l-187 -1077q-19 -108 -57 -191.5 t-84.5 -134t-105 -82.5t-114 -43.5t-116.5 -11.5q-242 0 -395 190z" />
<glyph unicode="z" horiz-adv-x="974" d="M-6 0l26 145l682 760h-548l26 160h791l-25 -141l-688 -760h590l-31 -164h-823z" />
<glyph unicode="{" horiz-adv-x="921" d="M184 590l23 131q58 15 92.5 32t67.5 53.5t55 99.5t41 163q25 129 60 213.5t92.5 140.5t133 85t189.5 44l-20 -116q-81 -21 -129.5 -54.5t-84 -106.5t-55.5 -198q-15 -94 -34.5 -159t-43 -109t-59.5 -73.5t-75.5 -46.5t-100.5 -34q91 -25 135.5 -79.5t44.5 -149.5 q0 -56 -17.5 -169t-17.5 -177q0 -93 37.5 -137.5t124.5 -67.5l-20 -117q-151 25 -232.5 99.5t-81.5 218.5q0 58 13.5 167.5t13.5 170.5q0 85 -35.5 124.5t-116.5 51.5z" />
<glyph unicode="|" horiz-adv-x="614" d="M92 -205l311 1782h160l-311 -1782h-160z" />
<glyph unicode="}" horiz-adv-x="921" d="M12 -242l21 117q61 16 101 37t74 61t56 102.5t37 157.5q15 94 34.5 159t43 109t59.5 73.5t75.5 46.5t100.5 34q-91 25 -135.5 80t-44.5 150q0 56 17.5 169t17.5 177q0 93 -37.5 137.5t-124.5 67.5l21 116q151 -25 232 -99t81 -218q0 -58 -13.5 -167.5t-13.5 -170.5 q0 -85 35.5 -124.5t116.5 -51.5l-23 -131q-46 -12 -75.5 -24t-60 -35.5t-50.5 -59.5t-38.5 -92t-33.5 -137q-33 -172 -88.5 -269.5t-144.5 -146t-240 -68.5z" />
<glyph unicode="~" d="M156 672q151 127 264 127q49 0 101 -18.5t90 -40t86.5 -40t90.5 -18.5q25 0 51 6.5t44.5 14t42.5 22t35.5 23t33.5 26t27 21.5l51 -136q-153 -141 -287 -141q-49 0 -101.5 18.5t-90 40t-86 40t-90.5 18.5q-89 0 -213 -98z" />
<glyph unicode="&#xa1;" horiz-adv-x="649" d="M55 -451l97 535l124 559h152l-72 -559l-96 -535h-205zM264 932q0 72 45 115t107 43q57 0 92 -34.5t35 -82.5q0 -72 -45 -115t-107 -43q-57 0 -92 34.5t-35 82.5z" />
<glyph unicode="&#xa2;" horiz-adv-x="921" d="M72 512q0 163 62 301t182 228.5t278 105.5l22 217h181l-56 -221q112 -16 213 -76l-75 -158q-124 76 -242 76q-168 0 -272.5 -128t-104.5 -320q0 -155 78.5 -246.5t212.5 -91.5q124 0 246 61l22 -162q-110 -57 -274 -63l-23 -230h-180l61 242q-152 37 -241.5 160.5 t-89.5 304.5z" />
<glyph unicode="&#xa3;" d="M104 0l27 150q106 121 156 223.5t86 283.5h-156l29 156h155l50 281q34 189 141.5 276.5t269.5 87.5q89 0 159.5 -24t143.5 -66l-84 -143q-122 78 -217 78q-194 0 -237 -228l-49 -262h344l-29 -156h-346q-37 -176 -88 -286.5t-131 -200.5h680l-29 -170h-875z" />
<glyph unicode="&#xa4;" d="M125 297l156 147q-64 89 -64 203q0 184 127 311l-96 140l141 102l86 -151q90 41 193 41q84 0 168 -41l141 151l125 -113l-148 -139q70 -93 70 -211q0 -184 -127 -311l98 -139l-141 -103l-88 150q-89 -39 -186 -39q-105 0 -185 47l-145 -158zM387 662q0 -95 61 -157.5 t152 -62.5q117 0 185.5 81.5t68.5 199.5q0 95 -59 157t-150 62q-117 0 -187.5 -81.5t-70.5 -198.5z" />
<glyph unicode="&#xa5;" d="M123 258l27 150h323l25 137h-324l27 149h241l-309 672l172 78l318 -725l557 725l149 -101l-526 -649h237l-26 -149h-322l-24 -137h321l-26 -150h-322l-45 -258h-195l45 258h-323z" />
<glyph unicode="&#xa6;" horiz-adv-x="614" d="M92 -205l127 731h160l-127 -731h-160zM279 864l124 713h160l-125 -713h-159z" />
<glyph unicode="&#xa7;" d="M147 -63l76 143q124 -80 262 -80q103 0 158 35.5t55 97.5q0 54 -41.5 99t-152.5 102q-143 74 -202.5 143t-59.5 168q0 232 311 328q-87 53 -125.5 110t-38.5 136q0 86 54.5 151t145 98t202.5 33q149 0 290 -65l-80 -133q-103 59 -221 59q-93 0 -156 -37.5t-63 -101.5 q0 -51 48.5 -94t181.5 -111q125 -64 181 -134t56 -161q0 -129 -77.5 -206.5t-235.5 -127.5q164 -93 164 -242q0 -74 -34 -132t-91 -92.5t-127 -52t-148 -17.5q-196 0 -332 84zM416 666q0 -129 180 -201q118 31 188 92.5t70 147.5q0 126 -172 196q-109 -24 -187.5 -87 t-78.5 -148z" />
<glyph unicode="&#xa8;" horiz-adv-x="778" d="M82 1350q0 61 39 100t98 39q51 0 81 -31.5t30 -75.5q0 -61 -39 -100t-98 -39q-51 0 -81 31.5t-30 75.5zM449 1350q0 61 39 100t98 39q51 0 80.5 -31.5t29.5 -75.5q0 -61 -39 -100t-98 -39q-51 0 -80.5 31.5t-29.5 75.5z" />
<glyph unicode="&#xa9;" horiz-adv-x="1536" d="M66 614q0 173 53.5 326t152 268.5t248.5 182.5t332 67q204 0 352 -82t222.5 -225t74.5 -332q0 -172 -53 -324.5t-151 -268.5t-248.5 -183.5t-333.5 -67.5q-202 0 -350 81.5t-223.5 225t-75.5 332.5zM217 616q0 -228 138 -370t376 -142q186 0 327.5 92.5t216.5 254 t75 366.5q0 226 -137 369t-367 143q-189 0 -333 -92t-220 -253.5t-76 -367.5zM401 643q0 151 59 274.5t167 195t243 71.5q131 0 252 -78l-75 -143q-90 63 -183 63q-122 0 -204 -105.5t-82 -267.5q0 -114 55 -175.5t145 -61.5t205 67l29 -161q-125 -64 -252 -64 q-165 0 -262 101.5t-97 283.5z" />
<glyph unicode="&#xaa;" d="M227 270l31 168h696l-30 -168h-697zM252 967q0 216 144.5 348.5t377.5 132.5q151 0 289 -49l-96 -473q-6 -27 -6 -52q0 -36 23 -55.5t67 -19.5l-60 -131q-86 0 -136 42.5t-50 120.5q-101 -169 -268 -169q-111 0 -198 83t-87 222zM432 987q0 -83 45 -129.5t111 -46.5 q75 0 138.5 69t92.5 216l39 198q-49 11 -98 11q-144 0 -236 -89.5t-92 -228.5z" />
<glyph unicode="&#xab;" horiz-adv-x="1165" d="M143 662l15 86l383 397l112 -101l-356 -350l231 -329l-131 -101zM553 662l14 86l383 397l113 -101l-356 -350l231 -329l-131 -101z" />
<glyph unicode="&#xac;" d="M123 614l31 170h962l-96 -538h-186l65 368h-776z" />
<glyph unicode="&#xad;" d="M260 618l31 168h696l-31 -168h-696z" />
<glyph unicode="&#xae;" horiz-adv-x="1536" d="M66 614q0 173 53.5 326t152 268.5t248.5 182.5t332 67q204 0 352 -82t222.5 -225t74.5 -332q0 -172 -53 -324.5t-151 -268.5t-248.5 -183.5t-333.5 -67.5q-202 0 -350 81.5t-223.5 225t-75.5 332.5zM217 616q0 -228 138 -370t376 -142q186 0 327.5 92.5t216.5 254 t75 366.5q0 226 -137 369t-367 143q-189 0 -333 -92t-220 -253.5t-76 -367.5zM428 293l154 860q117 21 227 21q141 0 220 -67t79 -167q0 -193 -236 -231q51 -26 81 -64.5t41.5 -74t24 -67.5t39.5 -51.5t77 -19.5l-66 -147q-54 0 -92 19.5t-58.5 50.5t-35.5 69t-31 76.5 t-37.5 71t-62 54.5t-97.5 25l-63 -358h-164zM680 795h70q91 0 144.5 35.5t53.5 95.5q0 45 -38 73.5t-105 28.5q-43 0 -84 -6z" />
<glyph unicode="&#xaf;" horiz-adv-x="825" d="M102 1284l27 150h594l-27 -150h-594z" />
<glyph unicode="&#xb0;" horiz-adv-x="921" d="M152 1196q0 142 95 231t228 89q122 0 198.5 -75.5t76.5 -183.5q0 -142 -95 -230.5t-229 -88.5q-122 0 -198 75t-76 183zM315 1210q0 -48 34.5 -84t90.5 -36q59 0 102.5 42t43.5 111q0 48 -35.5 84.5t-91.5 36.5q-58 0 -101 -42.5t-43 -111.5z" />
<glyph unicode="&#xb1;" d="M197 166l30 168h697l-31 -168h-696zM311 807l27 160h262l49 278h174l-49 -278h260l-26 -160h-260l-50 -277h-174l49 277h-262z" />
<glyph unicode="&#xb2;" horiz-adv-x="921" d="M174 631q0 75 29 138t75.5 106t102.5 79.5t112 66.5t102.5 58.5t75.5 63.5t29 74q0 42 -35 70t-87 28q-102 0 -207 -82l-76 115q146 100 299 100q123 0 200.5 -64t77.5 -161q0 -58 -25 -107t-65.5 -83t-90 -64t-102.5 -58t-98.5 -57t-80.5 -68t-48 -84h435l-27 -137h-590 q-6 30 -6 66z" />
<glyph unicode="&#xb3;" horiz-adv-x="921" d="M147 637l99 115q95 -64 203 -64q90 0 142 35t52 102q0 59 -60.5 95t-170.5 36h-86l22 123h64q125 0 201.5 37t76.5 103q0 43 -38.5 70.5t-100.5 27.5q-95 0 -195 -62l-69 111q133 82 280 82q129 0 209 -63t80 -150q0 -80 -46.5 -131.5t-139.5 -85.5q143 -67 143 -193 t-98 -199t-273 -73q-171 0 -295 84z" />
<glyph unicode="&#xb4;" horiz-adv-x="632" d="M82 1290l362 266l107 -155l-395 -223z" />
<glyph unicode="&#xb5;" d="M20 -451l269 1516h170l-119 -674q-6 -37 -6 -72q0 -84 51 -132t127 -48q121 0 227 112.5t140 299.5l92 514h176l-189 -1065h-170l35 197q-146 -222 -352 -222q-68 0 -117.5 32.5t-74.5 84.5l-99 -543h-160z" />
<glyph unicode="&#xb6;" horiz-adv-x="1536" d="M184 1176q0 184 146.5 301.5t388.5 117.5q151 0 346 -30l-299 -1696h-160l168 952q-57 -8 -137 -8q-211 0 -332 95.5t-121 267.5zM369 1182q0 -94 73.5 -152.5t206.5 -58.5q102 0 154 12l76 440q-96 15 -170 15q-157 0 -248.5 -72t-91.5 -184zM893 -131l297 1687h160 l-297 -1687h-160z" />
<glyph unicode="&#xb7;" horiz-adv-x="614" d="M188 707q0 72 45 114.5t107 42.5q57 0 92 -34t35 -82q0 -72 -45 -115t-107 -43q-57 0 -92 34.5t-35 82.5z" />
<glyph unicode="&#xb8;" horiz-adv-x="638" d="M61 -453l72 129q71 -41 148 -41q62 0 95.5 21t33.5 59q0 40 -52.5 65t-167.5 25l107 195h152l-64 -121q85 0 139 -46.5t54 -119.5q0 -101 -83.5 -157t-213.5 -56q-128 0 -220 47z" />
<glyph unicode="&#xb9;" horiz-adv-x="921" d="M225 565l25 133h199l106 535l-176 -111l-80 123l344 189h121l-152 -736h166l-28 -133h-525z" />
<glyph unicode="&#xba;" horiz-adv-x="1249" d="M240 270l30 168h697l-31 -168h-696zM276 1001q0 193 125 320t328 127q172 0 277.5 -95t105.5 -247q0 -193 -125 -320t-328 -127q-172 0 -277.5 95t-105.5 247zM453 1014q0 -88 58.5 -146.5t156.5 -58.5q122 0 195 81t73 204q0 88 -58.5 146t-156.5 58q-122 0 -195 -80.5 t-73 -203.5z" />
<glyph unicode="&#xbb;" horiz-adv-x="1165" d="M143 365l357 350l-232 329l131 101l254 -397l-14 -86l-383 -398zM553 365l356 350l-231 329l131 101l254 -397l-14 -86l-383 -398z" />
<glyph unicode="&#xbc;" horiz-adv-x="1843" d="M113 565l24 133h199l106 535l-176 -111l-80 123l344 189h121l-151 -736h166l-29 -133h-524zM346 2l1153 1514l113 -82l-1153 -1514zM1014 178l18 107l404 596l139 -54l-348 -514h229l41 234h158l-41 -234h117l-25 -135h-117l-30 -178h-158l31 178h-418z" />
<glyph unicode="&#xbd;" horiz-adv-x="1843" d="M70 565l24 133h199l106 535l-176 -111l-80 123l344 189h121l-151 -736h166l-29 -133h-524zM307 2l1153 1514l113 -82l-1153 -1514zM1075 66q0 75 29 138t75.5 106t102.5 79.5t112.5 66t103 58t75.5 63.5t29 74q0 42 -36 70.5t-87 28.5q-102 0 -207 -82l-76 114 q147 101 299 101q123 0 201 -64.5t78 -161.5q0 -58 -25 -106.5t-65.5 -83t-90 -64.5t-102.5 -58t-98.5 -56.5t-80.5 -67.5t-48 -84h434l-27 -137h-590q-6 30 -6 66z" />
<glyph unicode="&#xbe;" horiz-adv-x="1843" d="M96 637l99 115q95 -64 202 -64q90 0 142.5 35t52.5 102q0 59 -61 95t-171 36h-86l23 123h63q125 0 202 37t77 103q0 43 -38.5 70.5t-100.5 27.5q-95 0 -195 -62l-69 111q133 82 280 82q129 0 209 -63t80 -150q0 -80 -47 -131.5t-140 -85.5q144 -67 144 -193t-98 -199 t-273 -73q-171 0 -295 84zM379 2l1153 1514l113 -82l-1153 -1514zM1030 178l19 107l403 596l139 -54l-348 -514h230l40 234h158l-41 -234h117l-25 -135h-116l-31 -178h-158l31 178h-418z" />
<glyph unicode="&#xbf;" horiz-adv-x="1019" d="M4 -147q0 73 27 133.5t70.5 103t96.5 80t108 73t102 72.5t81 88t43 111l19 127h149q9 -74 9 -113q0 -84 -28 -153.5t-72 -115.5t-98 -85t-108 -71.5t-98 -65t-72 -75t-28 -93.5q0 -76 57.5 -126t147.5 -50q165 0 309 178l123 -123q-96 -109 -206 -166t-253 -57 q-162 0 -270.5 94t-108.5 234zM502 932q0 72 44.5 115t106.5 43q57 0 92 -34.5t35 -82.5q0 -72 -44.5 -115t-106.5 -43q-57 0 -92 34.5t-35 82.5z" />
<glyph unicode="&#xc0;" horiz-adv-x="1357" d="M-57 76l786 1358h219l314 -1411l-187 -43l-86 409h-663l-228 -405zM418 553h536l-145 690zM655 1729l107 155l362 -266l-73 -115z" />
<glyph unicode="&#xc1;" horiz-adv-x="1357" d="M-57 76l786 1358h219l314 -1411l-187 -43l-86 409h-663l-228 -405zM418 553h536l-145 690zM655 1618l363 266l106 -155l-395 -226z" />
<glyph unicode="&#xc2;" horiz-adv-x="1357" d="M-57 76l786 1358h219l314 -1411l-187 -43l-86 409h-663l-228 -405zM418 553h536l-145 690zM514 1673l332 170h131l270 -196l-114 -127l-242 194l-307 -194z" />
<glyph unicode="&#xc3;" horiz-adv-x="1357" d="M-57 76l786 1358h219l314 -1411l-187 -43l-86 409h-663l-228 -405zM418 553h536l-145 690zM543 1679q50 47 110.5 77t116.5 30q54 0 123.5 -35t116.5 -35q61 0 141 64l49 -129q-54 -46 -100 -71.5t-103 -25.5t-127 36t-114 36q-76 0 -164 -74z" />
<glyph unicode="&#xc4;" horiz-adv-x="1357" d="M-57 76l786 1358h219l314 -1411l-187 -43l-86 409h-663l-228 -405zM418 553h536l-145 690zM575 1663q0 61 39.5 100t98.5 39q51 0 80.5 -31t29.5 -75q0 -61 -39 -100.5t-98 -39.5q-51 0 -81 31.5t-30 75.5zM942 1663q0 61 39 100t98 39q52 0 81.5 -31t29.5 -75 q0 -61 -39 -100.5t-98 -39.5q-51 0 -81 31.5t-30 75.5z" />
<glyph unicode="&#xc5;" horiz-adv-x="1357" d="M-57 76l739 1278q-78 59 -78 166q0 121 78.5 199.5t206.5 78.5q103 0 168 -58t65 -155q0 -86 -40.5 -152t-112.5 -100l293 -1310l-187 -43l-86 409h-663l-228 -405zM418 553h536l-145 690zM764 1538q0 -45 21 -73t57 -31h8q50 0 81.5 38t31.5 95q0 46 -23.5 75t-62.5 29 q-50 0 -81.5 -38t-31.5 -95z" />
<glyph unicode="&#xc6;" horiz-adv-x="1785" d="M-78 86l989 1348h953l-29 -168h-635l-78 -437h543l-29 -163h-542l-88 -498h634l-28 -168h-824l68 389h-489l-297 -407zM485 553h400l127 723z" />
<glyph unicode="&#xc7;" horiz-adv-x="1146" d="M96 586q0 244 94.5 443t267 314t390.5 115q192 0 366 -100l-88 -160q-71 44 -138.5 67t-156.5 23q-148 0 -270 -88t-193 -246t-71 -354q0 -216 106.5 -335.5t278.5 -119.5q86 0 158 23t159 68l33 -177q-168 -79 -358 -84l-49 -96q85 0 138.5 -46.5t53.5 -119.5 q0 -101 -83.5 -157t-213.5 -56q-127 0 -219 47l72 129q71 -41 147 -41q62 0 95.5 21t33.5 59q0 90 -219 90l98 183q-201 36 -316.5 192t-115.5 406z" />
<glyph unicode="&#xc8;" horiz-adv-x="1110" d="M86 0l252 1434h850l-29 -168h-657l-76 -437h563l-28 -163h-564l-88 -498h656l-29 -168h-850zM545 1729l106 155l363 -266l-74 -115z" />
<glyph unicode="&#xc9;" horiz-adv-x="1110" d="M86 0l252 1434h850l-29 -168h-657l-76 -437h563l-28 -163h-564l-88 -498h656l-29 -168h-850zM590 1618l362 266l107 -155l-395 -226z" />
<glyph unicode="&#xca;" horiz-adv-x="1110" d="M86 0l252 1434h850l-29 -168h-657l-76 -437h563l-28 -163h-564l-88 -498h656l-29 -168h-850zM434 1673l332 170h131l270 -196l-114 -127l-242 194l-307 -194z" />
<glyph unicode="&#xcb;" horiz-adv-x="1110" d="M86 0l252 1434h850l-29 -168h-657l-76 -437h563l-28 -163h-564l-88 -498h656l-29 -168h-850zM487 1663q0 61 39.5 100t98.5 39q51 0 80.5 -31t29.5 -75q0 -61 -39 -100.5t-98 -39.5q-51 0 -81 31.5t-30 75.5zM854 1663q0 61 39 100t98 39q52 0 81.5 -31t29.5 -75 q0 -61 -39 -100.5t-98 -39.5q-51 0 -81 31.5t-30 75.5z" />
<glyph unicode="&#xcc;" horiz-adv-x="557" d="M86 0l252 1434h194l-251 -1434h-195zM250 1729l106 155l363 -266l-74 -115z" />
<glyph unicode="&#xcd;" horiz-adv-x="557" d="M86 0l252 1434h194l-251 -1434h-195zM246 1618l362 266l107 -155l-396 -226z" />
<glyph unicode="&#xce;" horiz-adv-x="557" d="M86 0l252 1434h194l-251 -1434h-195zM113 1673l331 170h131l271 -196l-115 -127l-242 194l-307 -194z" />
<glyph unicode="&#xcf;" horiz-adv-x="557" d="M86 0l252 1434h194l-251 -1434h-195zM170 1663q0 61 39 100t98 39q52 0 81.5 -31t29.5 -75q0 -61 -39 -100.5t-98 -39.5q-51 0 -81 31.5t-30 75.5zM537 1663q0 61 39 100t98 39q51 0 80.5 -31t29.5 -75q0 -61 -39 -100.5t-98 -39.5q-51 0 -80.5 31.5t-29.5 75.5z" />
<glyph unicode="&#xd0;" horiz-adv-x="1398" d="M25 623l28 163h203l111 631q185 41 374 41q127 0 230 -34t173.5 -93t118.5 -140t69.5 -172.5t21.5 -193.5q0 -247 -97 -439t-281.5 -301.5t-428.5 -109.5q-241 0 -420 66l100 582h-202zM344 170q106 -27 215 -27q266 0 430 184.5t164 481.5q0 99 -25.5 184.5t-76.5 153.5 t-134.5 107.5t-191.5 39.5q-96 0 -188 -20l-86 -488h305l-31 -163h-303z" />
<glyph unicode="&#xd1;" horiz-adv-x="1437" d="M86 0l252 1434h258l420 -1205l213 1205h184l-252 -1434h-254l-428 1196l-209 -1196h-184zM594 1679q50 47 110.5 77t116.5 30q54 0 123.5 -35t116.5 -35q61 0 141 64l49 -129q-35 -30 -60 -48t-64 -33.5t-78 -15.5q-57 0 -127.5 36t-114.5 36q-76 0 -164 -74z" />
<glyph unicode="&#xd2;" horiz-adv-x="1511" d="M96 604q0 165 53 317.5t149 272.5t244 192t326 72q187 0 324.5 -84.5t205.5 -225.5t68 -319q0 -165 -53 -317.5t-149 -272.5t-244 -192t-326 -72q-187 0 -324.5 84.5t-205.5 225.5t-68 319zM295 616q0 -133 46.5 -239t142 -170t227.5 -64q127 0 234 56.5t176.5 151 t108 215t38.5 251.5q0 133 -46.5 239t-142 170t-227.5 64q-127 0 -234 -56.5t-176.5 -151t-108 -215t-38.5 -251.5zM625 1729l106 155l363 -266l-74 -115z" />
<glyph unicode="&#xd3;" horiz-adv-x="1511" d="M96 604q0 165 53 317.5t149 272.5t244 192t326 72q187 0 324.5 -84.5t205.5 -225.5t68 -319q0 -165 -53 -317.5t-149 -272.5t-244 -192t-326 -72q-187 0 -324.5 84.5t-205.5 225.5t-68 319zM295 616q0 -133 46.5 -239t142 -170t227.5 -64q127 0 234 56.5t176.5 151 t108 215t38.5 251.5q0 133 -46.5 239t-142 170t-227.5 64q-127 0 -234 -56.5t-176.5 -151t-108 -215t-38.5 -251.5zM678 1618l362 266l107 -155l-395 -226z" />
<glyph unicode="&#xd4;" horiz-adv-x="1511" d="M96 604q0 165 53 317.5t149 272.5t244 192t326 72q187 0 324.5 -84.5t205.5 -225.5t68 -319q0 -165 -53 -317.5t-149 -272.5t-244 -192t-326 -72q-187 0 -324.5 84.5t-205.5 225.5t-68 319zM295 616q0 -133 46.5 -239t142 -170t227.5 -64q127 0 234 56.5t176.5 151 t108 215t38.5 251.5q0 133 -46.5 239t-142 170t-227.5 64q-127 0 -234 -56.5t-176.5 -151t-108 -215t-38.5 -251.5zM520 1673l332 170h131l270 -196l-114 -127l-242 194l-307 -194z" />
<glyph unicode="&#xd5;" horiz-adv-x="1511" d="M96 604q0 165 53 317.5t149 272.5t244 192t326 72q187 0 324.5 -84.5t205.5 -225.5t68 -319q0 -165 -53 -317.5t-149 -272.5t-244 -192t-326 -72q-187 0 -324.5 84.5t-205.5 225.5t-68 319zM295 616q0 -133 46.5 -239t142 -170t227.5 -64q127 0 234 56.5t176.5 151 t108 215t38.5 251.5q0 133 -46.5 239t-142 170t-227.5 64q-127 0 -234 -56.5t-176.5 -151t-108 -215t-38.5 -251.5zM569 1679q50 47 111 77t117 30q54 0 123 -35t116 -35q62 0 142 64l49 -129q-54 -46 -100 -71.5t-103 -25.5t-127.5 36t-114.5 36q-76 0 -164 -74z" />
<glyph unicode="&#xd6;" horiz-adv-x="1511" d="M96 604q0 165 53 317.5t149 272.5t244 192t326 72q187 0 324.5 -84.5t205.5 -225.5t68 -319q0 -165 -53 -317.5t-149 -272.5t-244 -192t-326 -72q-187 0 -324.5 84.5t-205.5 225.5t-68 319zM295 616q0 -133 46.5 -239t142 -170t227.5 -64q127 0 234 56.5t176.5 151 t108 215t38.5 251.5q0 133 -46.5 239t-142 170t-227.5 64q-127 0 -234 -56.5t-176.5 -151t-108 -215t-38.5 -251.5zM588 1663q0 61 39 100t98 39q52 0 81.5 -31t29.5 -75q0 -61 -39.5 -100.5t-98.5 -39.5q-51 0 -80.5 31.5t-29.5 75.5zM954 1663q0 61 39.5 100t98.5 39 q51 0 80.5 -31t29.5 -75q0 -61 -39 -100.5t-98 -39.5q-51 0 -81 31.5t-30 75.5z" />
<glyph unicode="&#xd7;" d="M190 440l324 273l-227 272l127 109l225 -279l324 279l98 -121l-324 -275l232 -272l-127 -107l-228 277l-325 -277z" />
<glyph unicode="&#xd8;" horiz-adv-x="1511" d="M96 604q0 165 53 317.5t149 272.5t244 192t326 72q150 0 269 -55l151 254l160 -92l-176 -250q95 -86 144.5 -211.5t49.5 -274.5q0 -165 -53 -317.5t-149 -272.5t-244 -192t-326 -72q-142 0 -266 54l-160 -271l-159 92l186 263q-97 86 -148 212.5t-51 278.5zM295 616 q0 -208 108 -337l635 970q-80 41 -186 41q-127 0 -234 -56.5t-176.5 -151t-108 -215t-38.5 -251.5zM528 180q75 -37 183 -37q127 0 234 56.5t176.5 151t108 215t38.5 251.5q0 205 -105 334z" />
<glyph unicode="&#xd9;" horiz-adv-x="1394" d="M127 371q0 70 16 176l152 887h194l-157 -930q-10 -61 -10 -119q0 -110 65.5 -175t177.5 -65q149 0 279 134t170 360l141 795h195l-201 -1135q-4 -28 -4 -51q0 -105 121 -105l-68 -153q-115 0 -173 54.5t-58 168.5v45q-183 -283 -457 -283q-164 0 -273.5 105.5 t-109.5 290.5zM586 1729l106 155l363 -266l-74 -115z" />
<glyph unicode="&#xda;" horiz-adv-x="1394" d="M127 371q0 70 16 176l152 887h194l-157 -930q-10 -61 -10 -119q0 -110 65.5 -175t177.5 -65q149 0 279 134t170 360l141 795h195l-201 -1135q-4 -28 -4 -51q0 -105 121 -105l-68 -153q-115 0 -173 54.5t-58 168.5v45q-183 -283 -457 -283q-164 0 -273.5 105.5 t-109.5 290.5zM655 1618l363 266l106 -155l-395 -226z" />
<glyph unicode="&#xdb;" horiz-adv-x="1394" d="M127 371q0 70 16 176l152 887h194l-157 -930q-10 -61 -10 -119q0 -110 65.5 -175t177.5 -65q149 0 279 134t170 360l141 795h195l-201 -1135q-4 -28 -4 -51q0 -105 121 -105l-68 -153q-115 0 -173 54.5t-58 168.5v45q-183 -283 -457 -283q-164 0 -273.5 105.5 t-109.5 290.5zM489 1673l332 170h131l271 -196l-115 -127l-242 194l-307 -194z" />
<glyph unicode="&#xdc;" horiz-adv-x="1394" d="M127 371q0 70 16 176l152 887h194l-157 -930q-10 -61 -10 -119q0 -110 65.5 -175t177.5 -65q149 0 279 134t170 360l141 795h195l-201 -1135q-4 -28 -4 -51q0 -105 121 -105l-68 -153q-115 0 -173 54.5t-58 168.5v45q-183 -283 -457 -283q-164 0 -273.5 105.5 t-109.5 290.5zM551 1663q0 61 39 100t98 39q52 0 81.5 -31t29.5 -75q0 -61 -39 -100.5t-98 -39.5q-51 0 -81 31.5t-30 75.5zM918 1663q0 61 39 100t98 39q51 0 80.5 -31t29.5 -75q0 -61 -39 -100.5t-98 -39.5q-51 0 -80.5 31.5t-29.5 75.5z" />
<glyph unicode="&#xdd;" horiz-adv-x="1150" d="M-92 88l119 139q74 -84 166 -84q121 0 210 156l89 160l-271 723q-20 55 -55.5 77.5t-97.5 22.5l82 162q107 0 164.5 -43.5t91.5 -145.5l206 -604l441 799l161 -88l-616 -1075q-96 -168 -190.5 -240t-229.5 -72q-79 0 -151.5 30.5t-118.5 82.5zM571 1618l363 266l106 -155 l-395 -226z" />
<glyph unicode="&#xde;" horiz-adv-x="1155" d="M86 0l252 1434h194l-43 -246q85 10 168 10q121 0 217.5 -34t155.5 -92.5t90 -132.5t31 -157q0 -164 -83 -281t-224 -174t-326 -57q-104 0 -186 21l-51 -291h-195zM360 455q73 -23 185 -23q211 0 313.5 89t102.5 239q0 125 -84 200.5t-236 75.5q-104 0 -182 -16z" />
<glyph unicode="&#xdf;" horiz-adv-x="1267" d="M55 -451l203 1160q6 37 6 61q0 63 -39.5 96t-113.5 33l63 166q72 0 110.5 -24t59.5 -78q37 301 165.5 439t344.5 138q169 0 279 -99t110 -251q0 -294 -323 -397q256 -122 256 -375q0 -198 -133.5 -320.5t-350.5 -122.5q-71 0 -139 18.5t-107 45.5l70 158 q27 -23 78.5 -40.5t107.5 -17.5q125 0 204 74t79 201q0 122 -86.5 206t-230.5 101l26 149q156 0 260.5 79t104.5 214q0 89 -61 151t-160 62q-138 0 -227 -113.5t-132 -361.5l-239 -1352h-185z" />
<glyph unicode="&#xe0;" horiz-adv-x="1212" d="M76 420q0 295 190.5 482.5t487.5 187.5q183 0 362 -74l-129 -727q-4 -28 -4 -51q0 -105 119 -105l-64 -143q-227 0 -227 223q-62 -107 -150 -172.5t-198 -65.5q-157 0 -272 123.5t-115 321.5zM264 442q0 -140 74 -221.5t174 -81.5q123 0 217.5 125t128.5 326l55 317 q-86 27 -182 27q-210 0 -338.5 -138.5t-128.5 -353.5zM588 1401l106 155l363 -266l-74 -112z" />
<glyph unicode="&#xe1;" horiz-adv-x="1212" d="M76 420q0 295 190.5 482.5t487.5 187.5q183 0 362 -74l-129 -727q-4 -28 -4 -51q0 -105 119 -105l-64 -143q-227 0 -227 223q-62 -107 -150 -172.5t-198 -65.5q-157 0 -272 123.5t-115 321.5zM264 442q0 -140 74 -221.5t174 -81.5q123 0 217.5 125t128.5 326l55 317 q-86 27 -182 27q-210 0 -338.5 -138.5t-128.5 -353.5zM590 1290l362 266l107 -155l-395 -223z" />
<glyph unicode="&#xe2;" horiz-adv-x="1212" d="M76 420q0 295 190.5 482.5t487.5 187.5q183 0 362 -74l-129 -727q-4 -28 -4 -51q0 -105 119 -105l-64 -143q-227 0 -227 223q-62 -107 -150 -172.5t-198 -65.5q-157 0 -272 123.5t-115 321.5zM264 442q0 -140 74 -221.5t174 -81.5q123 0 217.5 125t128.5 326l55 317 q-86 27 -182 27q-210 0 -338.5 -138.5t-128.5 -353.5zM422 1323l332 193h131l270 -220l-115 -125l-235 215l-313 -215z" />
<glyph unicode="&#xe3;" horiz-adv-x="1212" d="M76 420q0 295 190.5 482.5t487.5 187.5q183 0 362 -74l-129 -727q-4 -28 -4 -51q0 -105 119 -105l-64 -143q-227 0 -227 223q-62 -107 -150 -172.5t-198 -65.5q-157 0 -272 123.5t-115 321.5zM264 442q0 -140 74 -221.5t174 -81.5q123 0 217.5 125t128.5 326l55 317 q-86 27 -182 27q-210 0 -338.5 -138.5t-128.5 -353.5zM467 1372q50 47 110.5 77t116.5 30q54 0 123.5 -35t116.5 -35q61 0 141 64l49 -130q-54 -46 -99.5 -71t-102.5 -25t-127.5 36t-114.5 36q-76 0 -164 -74z" />
<glyph unicode="&#xe4;" horiz-adv-x="1212" d="M76 420q0 295 190.5 482.5t487.5 187.5q183 0 362 -74l-129 -727q-4 -28 -4 -51q0 -105 119 -105l-64 -143q-227 0 -227 223q-62 -107 -150 -172.5t-198 -65.5q-157 0 -272 123.5t-115 321.5zM264 442q0 -140 74 -221.5t174 -81.5q123 0 217.5 125t128.5 326l55 317 q-86 27 -182 27q-210 0 -338.5 -138.5t-128.5 -353.5zM489 1350q0 61 39.5 100t98.5 39q51 0 80.5 -31.5t29.5 -75.5q0 -61 -39 -100t-98 -39q-51 0 -81 31.5t-30 75.5zM856 1350q0 61 39 100t98 39q51 0 81 -31.5t30 -75.5q0 -61 -39 -100t-98 -39q-51 0 -81 31.5t-30 75.5 z" />
<glyph unicode="&#xe5;" horiz-adv-x="1212" d="M76 420q0 295 190.5 482.5t487.5 187.5q183 0 362 -74l-129 -727q-4 -28 -4 -51q0 -105 119 -105l-64 -143q-227 0 -227 223q-62 -107 -150 -172.5t-198 -65.5q-157 0 -272 123.5t-115 321.5zM264 442q0 -140 74 -221.5t174 -81.5q123 0 217.5 125t128.5 326l55 317 q-86 27 -182 27q-210 0 -338.5 -138.5t-128.5 -353.5zM561 1405q0 121 78.5 199.5t206.5 78.5q103 0 168 -58t65 -155q0 -122 -78.5 -200t-205.5 -78q-103 0 -168.5 58t-65.5 155zM721 1423q0 -46 23.5 -75t62.5 -29q50 0 81.5 38t31.5 95q0 46 -23.5 75t-62.5 29 q-50 0 -81.5 -38t-31.5 -95z" />
<glyph unicode="&#xe6;" horiz-adv-x="1802" d="M25 279q0 174 135.5 276t343.5 102q158 0 321 -39v15q0 135 -79 216t-211 81t-271 -68l-20 156q157 72 321 72q287 0 387 -236q159 236 443 236q168 0 270 -93.5t102 -222.5q0 -87 -36 -154.5t-91.5 -108t-132 -66t-148.5 -35t-149 -9.5q-87 0 -204 17 q15 -134 94.5 -206.5t206.5 -72.5q148 0 317 80l16 -164q-168 -80 -364 -80q-141 0 -245 63.5t-161 184.5q-182 -248 -475 -248q-164 0 -267 87.5t-103 216.5zM213 297q0 -68 57.5 -113t147.5 -45q144 0 245 93.5t140 238.5q-129 37 -293 37q-129 0 -213 -54.5t-84 -156.5z M1010 565q95 -18 200 -18q373 0 373 213q0 74 -57 124t-148 50q-142 0 -243 -104t-125 -265z" />
<glyph unicode="&#xe7;" horiz-adv-x="942" d="M76 453q0 172 69 316t202.5 232.5t307.5 88.5q161 0 303 -82l-75 -158q-124 76 -242 76q-168 0 -272.5 -128.5t-104.5 -320.5q0 -155 78.5 -246.5t212.5 -91.5q122 0 246 62l22 -162q-129 -59 -274 -64l-49 -96q85 0 138.5 -46.5t53.5 -119.5q0 -101 -83.5 -157 t-213.5 -56q-127 0 -219 47l72 129q71 -41 147 -41q62 0 95.5 21t33.5 59q0 90 -219 90l101 185q-152 36 -241 159.5t-89 303.5z" />
<glyph unicode="&#xe8;" horiz-adv-x="1060" d="M76 461q0 127 41 241.5t114.5 200.5t182.5 136.5t237 50.5q170 0 272.5 -93.5t102.5 -222.5q0 -87 -36 -154.5t-91.5 -108t-132 -66t-148.5 -35t-149 -9.5q-88 0 -205 17q15 -134 94.5 -206.5t206.5 -72.5q149 0 318 80l16 -164q-168 -80 -364 -80q-205 0 -332 131.5 t-127 354.5zM268 565q94 -18 201 -18q373 0 373 213q0 74 -57 124t-148 50q-142 0 -243.5 -104t-125.5 -265zM473 1401l107 155l362 -266l-74 -112z" />
<glyph unicode="&#xe9;" horiz-adv-x="1060" d="M76 461q0 127 41 241.5t114.5 200.5t182.5 136.5t237 50.5q170 0 272.5 -93.5t102.5 -222.5q0 -87 -36 -154.5t-91.5 -108t-132 -66t-148.5 -35t-149 -9.5q-88 0 -205 17q15 -134 94.5 -206.5t206.5 -72.5q149 0 318 80l16 -164q-168 -80 -364 -80q-205 0 -332 131.5 t-127 354.5zM268 565q94 -18 201 -18q373 0 373 213q0 74 -57 124t-148 50q-142 0 -243.5 -104t-125.5 -265zM463 1290l362 266l107 -155l-395 -223z" />
<glyph unicode="&#xea;" horiz-adv-x="1060" d="M76 461q0 127 41 241.5t114.5 200.5t182.5 136.5t237 50.5q170 0 272.5 -93.5t102.5 -222.5q0 -87 -36 -154.5t-91.5 -108t-132 -66t-148.5 -35t-149 -9.5q-88 0 -205 17q15 -134 94.5 -206.5t206.5 -72.5q149 0 318 80l16 -164q-168 -80 -364 -80q-205 0 -332 131.5 t-127 354.5zM268 565q94 -18 201 -18q373 0 373 213q0 74 -57 124t-148 50q-142 0 -243.5 -104t-125.5 -265zM293 1323l332 193h131l270 -220l-115 -125l-235 215l-314 -215z" />
<glyph unicode="&#xeb;" horiz-adv-x="1060" d="M76 461q0 127 41 241.5t114.5 200.5t182.5 136.5t237 50.5q170 0 272.5 -93.5t102.5 -222.5q0 -87 -36 -154.5t-91.5 -108t-132 -66t-148.5 -35t-149 -9.5q-88 0 -205 17q15 -134 94.5 -206.5t206.5 -72.5q149 0 318 80l16 -164q-168 -80 -364 -80q-205 0 -332 131.5 t-127 354.5zM268 565q94 -18 201 -18q373 0 373 213q0 74 -57 124t-148 50q-142 0 -243.5 -104t-125.5 -265zM391 1350q0 61 39 100t98 39q51 0 81 -31.5t30 -75.5q0 -61 -39 -100t-98 -39q-51 0 -81 31.5t-30 75.5zM758 1350q0 61 39 100t98 39q51 0 81 -31.5t30 -75.5 q0 -61 -39.5 -100t-98.5 -39q-51 0 -80.5 31.5t-29.5 75.5z" />
<glyph unicode="&#xec;" horiz-adv-x="522" d="M76 0l186 1065h184l-186 -1065h-184zM170 1401l106 155l363 -266l-74 -112z" />
<glyph unicode="&#xed;" horiz-adv-x="522" d="M76 0l186 1065h184l-186 -1065h-184zM172 1290l363 266l106 -155l-395 -223z" />
<glyph unicode="&#xee;" horiz-adv-x="522" d="M37 1323l332 193h131l270 -220l-115 -125l-235 215l-314 -215zM76 0l186 1065h184l-186 -1065h-184z" />
<glyph unicode="&#xef;" horiz-adv-x="522" d="M76 0l186 1065h184l-186 -1065h-184zM100 1350q0 61 39.5 100t98.5 39q51 0 80.5 -31.5t29.5 -75.5q0 -61 -39 -100t-98 -39q-51 0 -81 31.5t-30 75.5zM467 1350q0 61 39 100t98 39q51 0 81 -31.5t30 -75.5q0 -61 -39 -100t-98 -39q-51 0 -81 31.5t-30 75.5z" />
<glyph unicode="&#xf0;" horiz-adv-x="1105" d="M55 385q0 142 64 258t170.5 180t230.5 64q114 0 203.5 -53t136.5 -140q4 62 4 99q0 119 -38 219t-107 166l-137 -158l-115 98l145 135q-86 39 -182 39q-52 0 -90 -6l29 168q40 4 65 4q168 0 303 -78l148 172l116 -98l-157 -151q207 -192 207 -551q0 -223 -74.5 -401 t-205.5 -277t-292 -99q-181 0 -302.5 113.5t-121.5 296.5zM242 406q0 -118 70.5 -192.5t176.5 -74.5q125 0 218.5 103.5t132.5 302.5q-52 86 -128 137t-167 51q-134 0 -218.5 -93t-84.5 -234z" />
<glyph unicode="&#xf1;" horiz-adv-x="1206" d="M76 0l186 1065h178l-45 -246q63 124 171 197.5t227 73.5q137 0 222 -84t85 -209q0 -46 -13 -129l-116 -668h-185l113 637q14 77 14 117q0 79 -46.5 126.5t-121.5 47.5q-56 0 -116.5 -31t-119 -89.5t-106 -158.5t-69.5 -225l-74 -424h-184zM440 1372q50 47 111 77t117 30 q54 0 123 -35t116 -35q62 0 142 64l49 -130q-53 -46 -99.5 -71t-103.5 -25t-127.5 36t-114.5 36q-76 0 -164 -74z" />
<glyph unicode="&#xf2;" horiz-adv-x="1230" d="M76 457q0 177 71.5 320.5t206 228t308.5 84.5q224 0 358.5 -134t134.5 -348q0 -177 -71.5 -320.5t-206 -228t-308.5 -84.5q-225 0 -359 134.5t-134 347.5zM264 473q0 -144 83.5 -239t227.5 -95q119 0 209 60.5t136.5 162.5t46.5 230q0 144 -84 239t-228 95 q-178 0 -284.5 -129t-106.5 -324zM537 1401l106 155l363 -266l-74 -112z" />
<glyph unicode="&#xf3;" horiz-adv-x="1230" d="M76 457q0 177 71.5 320.5t206 228t308.5 84.5q224 0 358.5 -134t134.5 -348q0 -177 -71.5 -320.5t-206 -228t-308.5 -84.5q-225 0 -359 134.5t-134 347.5zM264 473q0 -144 83.5 -239t227.5 -95q119 0 209 60.5t136.5 162.5t46.5 230q0 144 -84 239t-228 95 q-178 0 -284.5 -129t-106.5 -324zM494 1290l362 266l107 -155l-396 -223z" />
<glyph unicode="&#xf4;" horiz-adv-x="1230" d="M76 457q0 177 71.5 320.5t206 228t308.5 84.5q224 0 358.5 -134t134.5 -348q0 -177 -71.5 -320.5t-206 -228t-308.5 -84.5q-225 0 -359 134.5t-134 347.5zM264 473q0 -144 83.5 -239t227.5 -95q119 0 209 60.5t136.5 162.5t46.5 230q0 144 -84 239t-228 95 q-178 0 -284.5 -129t-106.5 -324zM352 1323l332 193h131l270 -220l-114 -125l-236 215l-313 -215z" />
<glyph unicode="&#xf5;" horiz-adv-x="1230" d="M76 457q0 177 71.5 320.5t206 228t308.5 84.5q224 0 358.5 -134t134.5 -348q0 -177 -71.5 -320.5t-206 -228t-308.5 -84.5q-225 0 -359 134.5t-134 347.5zM264 473q0 -144 83.5 -239t227.5 -95q119 0 209 60.5t136.5 162.5t46.5 230q0 144 -84 239t-228 95 q-178 0 -284.5 -129t-106.5 -324zM393 1372q50 47 111 77t117 30q54 0 123 -35t116 -35q61 0 141 64l50 -130q-53 -46 -99.5 -71t-103.5 -25t-127.5 36t-114.5 36q-76 0 -164 -74z" />
<glyph unicode="&#xf6;" horiz-adv-x="1230" d="M76 457q0 177 71.5 320.5t206 228t308.5 84.5q224 0 358.5 -134t134.5 -348q0 -177 -71.5 -320.5t-206 -228t-308.5 -84.5q-225 0 -359 134.5t-134 347.5zM264 473q0 -144 83.5 -239t227.5 -95q119 0 209 60.5t136.5 162.5t46.5 230q0 144 -84 239t-228 95 q-178 0 -284.5 -129t-106.5 -324zM414 1350q0 61 39 100t98 39q51 0 81 -31.5t30 -75.5q0 -61 -39.5 -100t-98.5 -39q-51 0 -80.5 31.5t-29.5 75.5zM780 1350q0 61 39.5 100t98.5 39q51 0 80.5 -31.5t29.5 -75.5q0 -61 -39 -100t-98 -39q-51 0 -81 31.5t-30 75.5z" />
<glyph unicode="&#xf7;" d="M260 618l31 168h696l-31 -168h-696zM406 262q0 72 44.5 115t106.5 43q57 0 92 -34.5t35 -82.5q0 -72 -45 -115t-107 -43q-56 0 -91 34.5t-35 82.5zM557 1102q0 72 45 115t107 43q57 0 92 -34.5t35 -82.5q0 -72 -45 -115t-107 -43q-57 0 -92 34.5t-35 82.5z" />
<glyph unicode="&#xf8;" horiz-adv-x="1230" d="M76 457q0 177 71.5 320.5t206 228t308.5 84.5q109 0 202 -35l140 237l141 -84l-158 -223q80 -65 124 -162.5t44 -214.5q0 -177 -71.5 -320.5t-206 -228t-308.5 -84.5q-117 0 -207 37l-141 -248l-141 84l162 232q-80 65 -123 162t-43 215zM264 473q0 -143 78 -233l428 665 q-54 21 -115 21q-178 0 -284.5 -129t-106.5 -324zM457 160q47 -21 118 -21q119 0 209 60.5t136.5 162.5t46.5 230q0 141 -82 235z" />
<glyph unicode="&#xf9;" horiz-adv-x="1185" d="M96 274q0 58 8 113l117 678h185l-119 -674q-6 -41 -6 -69q0 -88 51 -135.5t127 -47.5q121 0 226 110t138 294l92 522h185l-135 -776q-4 -28 -4 -51q0 -105 118 -105l-63 -143q-228 0 -228 223v18q-149 -256 -391 -256q-127 0 -214 82.5t-87 216.5zM483 1401l107 155 l362 -266l-73 -112z" />
<glyph unicode="&#xfa;" horiz-adv-x="1185" d="M96 274q0 58 8 113l117 678h185l-119 -674q-6 -41 -6 -69q0 -88 51 -135.5t127 -47.5q121 0 226 110t138 294l92 522h185l-135 -776q-4 -28 -4 -51q0 -105 118 -105l-63 -143q-228 0 -228 223v18q-149 -256 -391 -256q-127 0 -214 82.5t-87 216.5zM504 1290l362 266 l107 -155l-395 -223z" />
<glyph unicode="&#xfb;" horiz-adv-x="1185" d="M96 274q0 58 8 113l117 678h185l-119 -674q-6 -41 -6 -69q0 -88 51 -135.5t127 -47.5q121 0 226 110t138 294l92 522h185l-135 -776q-4 -28 -4 -51q0 -105 118 -105l-63 -143q-228 0 -228 223v18q-149 -256 -391 -256q-127 0 -214 82.5t-87 216.5zM334 1323l332 193h131 l270 -220l-115 -125l-235 215l-314 -215z" />
<glyph unicode="&#xfc;" horiz-adv-x="1185" d="M96 274q0 58 8 113l117 678h185l-119 -674q-6 -41 -6 -69q0 -88 51 -135.5t127 -47.5q121 0 226 110t138 294l92 522h185l-135 -776q-4 -28 -4 -51q0 -105 118 -105l-63 -143q-228 0 -228 223v18q-149 -256 -391 -256q-127 0 -214 82.5t-87 216.5zM403 1350 q0 61 39.5 100t98.5 39q51 0 80.5 -31.5t29.5 -75.5q0 -61 -39 -100t-98 -39q-51 0 -81 31.5t-30 75.5zM770 1350q0 61 39 100t98 39q51 0 81 -31.5t30 -75.5q0 -61 -39 -100t-98 -39q-51 0 -81 31.5t-30 75.5z" />
<glyph unicode="&#xfd;" horiz-adv-x="1148" d="M35 -285l143 107q101 -137 264 -137q232 0 291 333l39 218q-67 -106 -162 -171t-211 -65q-125 0 -211 82.5t-86 216.5q0 49 9 113l110 653h185l-113 -649q-6 -38 -6 -70q0 -88 49.5 -135t124.5 -47q121 0 225.5 113t138.5 305l84 483h185l-187 -1077q-19 -108 -57 -191.5 t-84.5 -134t-105 -82.5t-114 -43.5t-116.5 -11.5q-242 0 -395 190zM496 1290l362 266l107 -155l-396 -223z" />
<glyph unicode="&#xfe;" d="M14 -451l332 1885h184l-100 -564q63 103 152.5 161.5t199.5 58.5q162 0 261.5 -123.5t99.5 -319.5q0 -147 -45 -275.5t-118.5 -214t-168 -134t-193.5 -48.5q-94 0 -179 48t-136 124l-104 -598h-185zM332 311q44 -82 116 -127t156 -45q148 0 252.5 138.5t104.5 351.5 q0 138 -63.5 219.5t-166.5 81.5q-132 0 -233 -130.5t-140 -342.5z" />
<glyph unicode="&#xff;" horiz-adv-x="1148" d="M35 -285l143 107q101 -137 264 -137q232 0 291 333l39 218q-67 -106 -162 -171t-211 -65q-125 0 -211 82.5t-86 216.5q0 49 9 113l110 653h185l-113 -649q-6 -38 -6 -70q0 -88 49.5 -135t124.5 -47q121 0 225.5 113t138.5 305l84 483h185l-187 -1077q-19 -108 -57 -191.5 t-84.5 -134t-105 -82.5t-114 -43.5t-116.5 -11.5q-242 0 -395 190zM399 1350q0 61 39.5 100t98.5 39q51 0 80.5 -31.5t29.5 -75.5q0 -61 -39 -100t-98 -39q-51 0 -81 31.5t-30 75.5zM766 1350q0 61 39 100t98 39q51 0 81 -31.5t30 -75.5q0 -61 -39 -100t-98 -39 q-51 0 -81 31.5t-30 75.5z" />
<glyph unicode="&#x152;" horiz-adv-x="1826" d="M96 604q0 165 53 317.5t149 272.5t244 192t326 72q98 0 211 -24h826l-29 -168h-635l-78 -437h543l-29 -163h-542l-88 -498h634l-28 -168h-797q-102 -25 -190 -25q-130 0 -238 48.5t-180 133t-112 200t-40 247.5zM295 616q0 -133 46.5 -239t142 -170t227.5 -64 q78 0 145 17l195 1102q-86 28 -199 28q-127 0 -234 -56.5t-176.5 -151t-108 -215t-38.5 -251.5z" />
<glyph unicode="&#x153;" horiz-adv-x="1947" d="M76 457q0 177 71.5 320.5t206 228t308.5 84.5q149 0 256 -64.5t169 -181.5q160 246 447 246q174 0 276.5 -95t102.5 -231q0 -159 -120 -252.5t-304 -93.5q-215 0 -340 106v-41q0 -165 83 -254.5t228 -89.5q140 0 309 80l17 -164q-168 -80 -365 -80q-134 0 -236 67 t-157 194q-168 -261 -463 -261q-222 0 -355.5 134.5t-133.5 347.5zM264 473q0 -144 83.5 -239t227.5 -95q119 0 209 60.5t136.5 162.5t46.5 230q0 144 -84 239t-228 95q-178 0 -284.5 -129t-106.5 -324zM1184 682q126 -123 307 -123q108 0 173 52t65 145q0 76 -58 127 t-149 51q-113 0 -203 -68.5t-135 -183.5z" />
<glyph unicode="&#x2c6;" horiz-adv-x="937" d="M102 1323l332 193h131l271 -220l-115 -125l-236 215l-313 -215z" />
<glyph unicode="&#x2dc;" horiz-adv-x="862" d="M102 1372q50 47 111 77t117 30q54 0 123 -35t116 -35q62 0 142 64l49 -130q-53 -46 -99.5 -71t-103.5 -25t-127.5 36t-114.5 36q-75 0 -163 -74z" />
<glyph unicode="&#x2000;" horiz-adv-x="942" />
<glyph unicode="&#x2001;" horiz-adv-x="1884" />
<glyph unicode="&#x2002;" horiz-adv-x="942" />
<glyph unicode="&#x2003;" horiz-adv-x="1884" />
<glyph unicode="&#x2004;" horiz-adv-x="628" />
<glyph unicode="&#x2005;" horiz-adv-x="471" />
<glyph unicode="&#x2006;" horiz-adv-x="314" />
<glyph unicode="&#x2007;" horiz-adv-x="314" />
<glyph unicode="&#x2008;" horiz-adv-x="235" />
<glyph unicode="&#x2009;" horiz-adv-x="376" />
<glyph unicode="&#x200a;" horiz-adv-x="104" />
<glyph unicode="&#x2010;" d="M260 618l31 168h696l-31 -168h-696z" />
<glyph unicode="&#x2011;" d="M260 618l31 168h696l-31 -168h-696z" />
<glyph unicode="&#x2012;" d="M260 618l31 168h696l-31 -168h-696z" />
<glyph unicode="&#x2013;" d="M147 618l31 168h942l-30 -168h-943z" />
<glyph unicode="&#x2014;" horiz-adv-x="1536" d="M158 618l30 168h1229l-31 -168h-1228z" />
<glyph unicode="&#x2018;" horiz-adv-x="466" d="M205 1239q0 110 76.5 208.5t193.5 154.5l33 -72q-124 -74 -164 -184q21 6 43 6q51 0 84 -32.5t33 -82.5q0 -63 -45 -105t-113 -42q-64 0 -102.5 39.5t-38.5 109.5z" />
<glyph unicode="&#x2019;" horiz-adv-x="466" d="M205 1100q124 74 164 184q-21 -6 -43 -6q-51 0 -84 32.5t-33 82.5q0 63 45 105t113 42q64 0 102.5 -39.5t38.5 -109.5q0 -110 -76.5 -208.5t-193.5 -154.5z" />
<glyph unicode="&#x201a;" horiz-adv-x="466" d="M10 -190q124 74 164 184q-21 -6 -43 -6q-51 0 -84 32t-33 82q0 63 45.5 105.5t112.5 42.5q64 0 102.5 -40t38.5 -110q0 -110 -76.5 -208t-193.5 -154z" />
<glyph unicode="&#x201c;" horiz-adv-x="841" d="M205 1239q0 110 76.5 208.5t193.5 154.5l33 -72q-124 -74 -164 -184q21 6 43 6q51 0 84 -32.5t33 -82.5q0 -63 -45 -105t-113 -42q-64 0 -102.5 39.5t-38.5 109.5zM580 1239q0 110 76.5 208.5t193.5 154.5l33 -72q-124 -74 -164 -184q21 6 43 6q51 0 84 -32.5t33 -82.5 q0 -63 -45 -105t-113 -42q-64 0 -102.5 39.5t-38.5 109.5z" />
<glyph unicode="&#x201d;" horiz-adv-x="841" d="M205 1100q124 74 164 184q-21 -6 -43 -6q-51 0 -84 32.5t-33 82.5q0 63 45 105t113 42q64 0 102.5 -39.5t38.5 -109.5q0 -110 -76.5 -208.5t-193.5 -154.5zM580 1100q123 73 163 184q-21 -6 -43 -6q-51 0 -83.5 32.5t-32.5 82.5q0 63 45 105t112 42q64 0 103 -40t39 -109 q0 -110 -77 -208.5t-194 -154.5z" />
<glyph unicode="&#x201e;" horiz-adv-x="841" d="M10 -190q124 74 164 184q-21 -6 -43 -6q-51 0 -84 32t-33 82q0 63 45.5 105.5t112.5 42.5q64 0 102.5 -40t38.5 -110q0 -110 -76.5 -208t-193.5 -154zM385 -190q124 74 164 184q-21 -6 -43 -6q-51 0 -84 32t-33 82q0 63 45.5 105.5t112.5 42.5q64 0 102.5 -40t38.5 -110 q0 -110 -76.5 -208t-193.5 -154z" />
<glyph unicode="&#x2022;" horiz-adv-x="921" d="M205 688q0 151 90 235.5t221 84.5q117 0 189.5 -71t72.5 -171q0 -151 -90 -235.5t-221 -84.5q-116 0 -189 71.5t-73 170.5z" />
<glyph unicode="&#x202f;" horiz-adv-x="376" />
<glyph unicode="&#x2039;" horiz-adv-x="755" d="M143 662l15 86l383 397l112 -101l-356 -350l231 -329l-131 -101z" />
<glyph unicode="&#x203a;" horiz-adv-x="755" d="M143 365l357 350l-232 329l131 101l254 -397l-14 -86l-383 -398z" />
<glyph unicode="&#x205f;" horiz-adv-x="471" />
<glyph unicode="&#x20ac;" d="M51 481l27 150h170q3 64 16 137h-162l27 150h170q36 115 95.5 211t141.5 170.5t193.5 116.5t241.5 42q180 0 346 -92l-76 -156q-123 88 -278 88q-174 0 -295 -105t-181 -275h539l-27 -150h-546q-15 -82 -17 -137h498l-27 -150h-469q22 -163 114 -254.5t228 -91.5 q62 0 118 13t89.5 28t87.5 43l37 -151q-50 -26 -91 -43.5t-114 -33.5t-151 -16q-210 0 -348 138t-160 368h-197z" />
<glyph unicode="&#x25fc;" horiz-adv-x="1085" d="M0 0v1085h1085v-1085h-1085z" />
</font>
</defs>
</svg>
